999
DXF file: 1134876-izrez-570x480-r5_g-i.dxf
999
Pro/ENGINEER 2017170 by Parametric Technology Corporation
  0
SECTION
  2
HEADER
  9
$ACADVER
  1
AC1018
  9
$DWGCODEPAGE
  3
ANSI_1250
  9
$EXTMAX
 10
1050.0
 20
1485.0
 30
0.0
  9
$EXTMIN
 10
0.0
 20
0.0
 30
0.0
  9
$LIMMIN
 10
0.0
 20
0.0
  9
$LIMMAX
 10
1050.0
 20
1485.0
  9
$VIEWCTR
 10
525.0
 20
742.5
  9
$VIEWSIZE
 40
1485.0
  9
$CLAYER
  8
0
  9
$LTSCALE
 40
96.8
  9
$CELTYPE
  6
BYLAYER
  9
$DIMSCALE
 40
1.0
  9
$DIMASZ
 40
17.5
  9
$DIMEXO
 40
0.0
  9
$DIMDLI
 40
66.88
  9
$DIMEXE
 40
1.0
  9
$DIMCEN
 40
15.84
  9
$DIMLFAC
 40
1.0
  9
$DIMBLK
  1
_FILLED
  9
$DIMALT
 70
0
  9
$DIMALTF
 40
25.4
  9
$DIMTXT
 40
17.5
  9
$DIMTOL
 70
1
  9
$DIMLIM
 70
0
  9
$DIMTFAC
 40
1.0
  9
$DIMTP
 40
0.005
  9
$DIMTM
 40
0.005
  9
$DIMGAP
 40
0.625
  9
$DIMDSEP
 70
46
  9
$AUNITS
 70
0
  9
$PDMODE
 70
3
  9
$PDSIZE
 40
1.0
  9
$HANDSEED
  5
6A1
  9
$TILEMODE
 70
1
  9
$MEASUREMENT
 70
1
  9
$INSUNITS
 70
4
  0
ENDSEC
  0
SECTION
  2
CLASSES
  0
CLASS
  1
ACDBDICTIONARYWDFLT
  2
AcDbDictionaryWithDefault
  3
AutoCAD 2000
 90
0
 91
1
280
0
281
0
  0
CLASS
  1
ACDBPLACEHOLDER
  2
AcDbPlaceHolder
  3
AutoCAD 2000
 90
0
 91
1
280
0
281
0
  0
CLASS
  1
LAYOUT
  2
AcDbLayout
  3
AutoCAD 2000
 90
0
 91
0
280
0
281
0
  0
ENDSEC
  0
SECTION
  2
TABLES
  0
TABLE
  2
VPORT
  5
8
100
AcDbSymbolTable
 70
2
  0
VPORT
  5
1F4
100
AcDbSymbolTableRecord
100
AcDbViewportTableRecord
  2
*ACTIVE
 70
0
 10
0.0
 20
0.0
 11
1.0
 21
1.0
 12
525.0
 22
742.5
 13
0.0
 23
0.0
 14
1.0
 24
1.0
 15
0.0
 25
0.0
 16
0.0
 26
0.0
 36
1.0
 17
0.0
 27
0.0
 37
0.0
 40
1485.0
 41
0.7070707071
 42
50.0
 43
0.0
 44
0.0
 50
0.0
 51
0.0
 71
0
 72
100
 73
1
 74
1
 75
0
 76
0
 77
0
 78
0
  0
ENDTAB
  0
TABLE
  2
LTYPE
  5
5
100
AcDbSymbolTable
 70
6
  0
LTYPE
  5
14
100
AcDbSymbolTableRecord
100
AcDbLinetypeTableRecord
  2
BYBLOCK
 70
0
  3

 72
65
 73
0
 40
0.0
  0
LTYPE
  5
15
100
AcDbSymbolTableRecord
100
AcDbLinetypeTableRecord
  2
BYLAYER
 70
0
  3

 72
65
 73
0
 40
0.0
  0
LTYPE
  5
16
100
AcDbSymbolTableRecord
100
AcDbLinetypeTableRecord
  2
CONTINUOUS
 70
64
  3
Solid line
 72
65
 73
0
 40
0.0
  0
LTYPE
  5
1F5
100
AcDbSymbolTableRecord
100
AcDbLinetypeTableRecord
  2
CENTER
 70
64
  3
____ _ ____ _ ____ _ ____ _ ____ _ ____ _ ____
 72
65
 73
4
 40
0.6
 49
0.375
 74
0
 49
-0.075
 74
0
 49
0.075
 74
0
 49
-0.075
 74
0
  0
LTYPE
  5
1F6
100
AcDbSymbolTableRecord
100
AcDbLinetypeTableRecord
  2
HIDDEN
 70
64
  3
- - - - - - - - - - - - - - - - - - - -
 72
65
 73
2
 40
0.2
 49
0.1
 74
0
 49
-0.1
 74
0
  0
LTYPE
  5
1F7
100
AcDbSymbolTableRecord
100
AcDbLinetypeTableRecord
  2
PHANTOM
 70
64
  3
_____ _ _ _____ _ _ _____ _ _ _____
 72
65
 73
6
 40
0.8
 49
0.45
 74
0
 49
-0.05
 74
0
 49
0.1
 74
0
 49
-0.05
 74
0
 49
0.1
 74
0
 49
-0.05
 74
0
  0
LTYPE
  5
1F8
100
AcDbSymbolTableRecord
100
AcDbLinetypeTableRecord
  2
DOT
 70
64
  3
. . . . . . . . . . . . . . . . . . . .
 72
65
 73
2
 40
0.2
 49
0.1
 74
0
 49
-0.1
 74
0
  0
LTYPE
  5
1F9
100
AcDbSymbolTableRecord
100
AcDbLinetypeTableRecord
  2
DASHED
 70
64
  3
- - - - - - - - - - - - - - - - - - - -
 72
65
 73
2
 40
0.2
 49
0.1
 74
0
 49
-0.1
 74
0
  0
ENDTAB
  0
TABLE
  2
LAYER
  5
2
100
AcDbSymbolTable
 70
36
  0
LAYER
  5
10
100
AcDbSymbolTableRecord
100
AcDbLayerTableRecord
  2
0
 70
0
 62
7
  6
CONTINUOUS
370
-3
390
F
  0
LAYER
  5
1FA
100
AcDbSymbolTableRecord
100
AcDbLayerTableRecord
  2
DEFAULT_1
 70
0
 62
7
  6
CENTER
370
-3
390
F
  0
LAYER
  5
1FB
100
AcDbSymbolTableRecord
100
AcDbLayerTableRecord
  2
DEFAULT_2
 70
0
 62
8
  6
HIDDEN
370
-3
390
F
  0
LAYER
  5
1FC
100
AcDbSymbolTableRecord
100
AcDbLayerTableRecord
  2
DEFAULT_3
 70
0
 62
7
  6
PHANTOM
370
-3
390
F
  0
LAYER
  5
1FD
100
AcDbSymbolTableRecord
100
AcDbLayerTableRecord
  2
01___PRT_ALL_DTM_PLN
 70
0
 62
7
  6
CONTINUOUS
370
-3
390
F
  0
LAYER
  5
1FE
100
AcDbSymbolTableRecord
100
AcDbLayerTableRecord
  2
01___PRT_DEF_DTM_PLN
 70
0
 62
7
  6
CONTINUOUS
370
-3
390
F
  0
LAYER
  5
1FF
100
AcDbSymbolTableRecord
100
AcDbLayerTableRecord
  2
02___PRT_ALL_AXES
 70
0
 62
7
  6
CONTINUOUS
370
-3
390
F
  0
LAYER
  5
200
100
AcDbSymbolTableRecord
100
AcDbLayerTableRecord
  2
03___PRT_ALL_CURVES
 70
0
 62
7
  6
CONTINUOUS
370
-3
390
F
  0
LAYER
  5
201
100
AcDbSymbolTableRecord
100
AcDbLayerTableRecord
  2
04___PRT_ALL_DTM_PNT
 70
0
 62
7
  6
CONTINUOUS
370
-3
390
F
  0
LAYER
  5
202
100
AcDbSymbolTableRecord
100
AcDbLayerTableRecord
  2
05___PRT_ALL_DTM_CSYS
 70
0
 62
7
  6
CONTINUOUS
370
-3
390
F
  0
LAYER
  5
203
100
AcDbSymbolTableRecord
100
AcDbLayerTableRecord
  2
05___PRT_DEF_DTM_CSYS
 70
0
 62
7
  6
CONTINUOUS
370
-3
390
F
  0
LAYER
  5
204
100
AcDbSymbolTableRecord
100
AcDbLayerTableRecord
  2
06___PRT_ALL_SURFS
 70
0
 62
7
  6
CONTINUOUS
370
-3
390
F
  0
LAYER
  5
205
100
AcDbSymbolTableRecord
100
AcDbLayerTableRecord
  2
ALL_AXIS
 70
0
 62
7
  6
CONTINUOUS
370
-3
390
F
  0
LAYER
  5
206
100
AcDbSymbolTableRecord
100
AcDbLayerTableRecord
  2
ALL_CURVE
 70
0
 62
7
  6
CONTINUOUS
370
-3
390
F
  0
LAYER
  5
207
100
AcDbSymbolTableRecord
100
AcDbLayerTableRecord
  2
ALL_CURVE_ENT
 70
0
 62
7
  6
CONTINUOUS
370
-3
390
F
  0
LAYER
  5
208
100
AcDbSymbolTableRecord
100
AcDbLayerTableRecord
  2
ALL_DETAIL_ITEM
 70
0
 62
7
  6
CONTINUOUS
370
-3
390
F
  0
LAYER
  5
209
100
AcDbSymbolTableRecord
100
AcDbLayerTableRecord
  2
ALL_DIM
 70
0
 62
7
  6
CONTINUOUS
370
-3
390
F
  0
LAYER
  5
20A
100
AcDbSymbolTableRecord
100
AcDbLayerTableRecord
  2
ALL_FEATURE
 70
0
 62
7
  6
CONTINUOUS
370
-3
390
F
  0
LAYER
  5
20B
100
AcDbSymbolTableRecord
100
AcDbLayerTableRecord
  2
ALL_GEOM_FEAT
 70
0
 62
7
  6
CONTINUOUS
370
-3
390
F
  0
LAYER
  5
20C
100
AcDbSymbolTableRecord
100
AcDbLayerTableRecord
  2
ALL_NOGEOM_FEAT
 70
0
 62
7
  6
CONTINUOUS
370
-3
390
F
  0
LAYER
  5
20D
100
AcDbSymbolTableRecord
100
AcDbLayerTableRecord
  2
ALL_NOTE
 70
0
 62
7
  6
CONTINUOUS
370
-3
390
F
  0
LAYER
  5
20E
100
AcDbSymbolTableRecord
100
AcDbLayerTableRecord
  2
ALL_PARAMETER_DIM
 70
0
 62
7
  6
CONTINUOUS
370
-3
390
F
  0
LAYER
  5
20F
100
AcDbSymbolTableRecord
100
AcDbLayerTableRecord
  2
ALL_PROTRUSION_FEAT
 70
0
 62
7
  6
CONTINUOUS
370
-3
390
F
  0
LAYER
  5
210
100
AcDbSymbolTableRecord
100
AcDbLayerTableRecord
  2
ALL_SNAP_LINE
 70
0
 62
7
  6
CONTINUOUS
370
-3
390
F
  0
LAYER
  5
211
100
AcDbSymbolTableRecord
100
AcDbLayerTableRecord
  2
ALL_SYMBOL
 70
0
 62
7
  6
CONTINUOUS
370
-3
390
F
  0
ENDTAB
  0
TABLE
  2
STYLE
  5
3
100
AcDbSymbolTable
 70
1
  0
STYLE
  5
11
100
AcDbSymbolTableRecord
100
AcDbTextStyleTableRecord
  2
STANDARD
 70
0
 40
0.0
 41
0.6
 50
0.0
 71
0
 42
0.2
  3
txt
  4

  0
STYLE
  5
212
100
AcDbSymbolTableRecord
100
AcDbTextStyleTableRecord
  2
TEXTSTYLE_1
 70
0
 40
0.0
 41
0.8
 50
0.0
 71
0
 42
0.2
  3
gdt
  4

  0
STYLE
  5
213
100
AcDbSymbolTableRecord
100
AcDbTextStyleTableRecord
  2
TEXTSTYLE_2
 70
0
 40
0.0
 41
0.761905
 50
0.0
 71
0
 42
0.2
  3
txt
  4

  0
ENDTAB
  0
TABLE
  2
VIEW
  5
6
100
AcDbSymbolTable
 70
0
  0
ENDTAB
  0
TABLE
  2
UCS
  5
7
100
AcDbSymbolTable
 70
0
  0
ENDTAB
  0
TABLE
  2
APPID
  5
9
100
AcDbSymbolTable
 70
1
  0
APPID
  5
214
100
AcDbSymbolTableRecord
100
AcDbRegAppTableRecord
  2
ACAD
 70
0
  0
ENDTAB
  0
TABLE
  2
BLOCK_RECORD
  5
1
100
AcDbSymbolTable
 70
0
  0
BLOCK_RECORD
  5
215
100
AcDbSymbolTableRecord
100
AcDbBlockTableRecord
  2
*Model_Space
  0
BLOCK_RECORD
  5
216
100
AcDbSymbolTableRecord
100
AcDbBlockTableRecord
  2
*Paper_Space
  0
BLOCK_RECORD
  5
217
100
AcDbSymbolTableRecord
100
AcDbBlockTableRecord
  2
_FILLED
  0
BLOCK_RECORD
  5
218
100
AcDbSymbolTableRecord
100
AcDbBlockTableRecord
  2
_DOTBLANK
  0
BLOCK_RECORD
  5
219
100
AcDbSymbolTableRecord
100
AcDbBlockTableRecord
  2
*D0
  0
BLOCK_RECORD
  5
21A
100
AcDbSymbolTableRecord
100
AcDbBlockTableRecord
  2
*D1
  0
BLOCK_RECORD
  5
21B
100
AcDbSymbolTableRecord
100
AcDbBlockTableRecord
  2
*D2
  0
BLOCK_RECORD
  5
21C
100
AcDbSymbolTableRecord
100
AcDbBlockTableRecord
  2
POZ_FS_B2B_BL2
  0
BLOCK_RECORD
  5
21D
100
AcDbSymbolTableRecord
100
AcDbBlockTableRecord
  2
B2B_NASLOV_RISBE_BL1
  0
BLOCK_RECORD
  5
21E
100
AcDbSymbolTableRecord
100
AcDbBlockTableRecord
  2
I_GRANITAL_B2B_BL0
  0
ENDTAB
  0
TABLE
  2
DIMSTYLE
  5
A
100
AcDbSymbolTable
 70
1
100
AcDbDimStyleTable
 71
0
  0
DIMSTYLE
105
21F
100
AcDbSymbolTableRecord
100
AcDbDimStyleTableRecord
  2
STANDARD
 70
0
  3

  4

 40
1.0
 41
17.5
 42
0.0
 43
0.38
 44
1.0
 45
0.0
 46
0.0
 47
0.005
 48
0.005
140
17.5
141
0.09
142
0.0
143
25.4
144
1.0
145
0.0
146
1.0
147
0.625
 71
1.0
 72
0.0
 73
0
 74
0
 75
0
 76
0
 77
1
 78
8
 79
2
170
0
171
2
172
0
173
0
174
0
175
0
176
0
177
0
178
5
270
2
179
3
271
3
272
3
273
2
274
2
275
0
280
0
281
0
282
0
283
1
284
8
285
0
286
0
287
3
288
0
340
11
278
46
341
217
342
217
343
217
344
217
  0
DIMSTYLE
105
220
100
AcDbSymbolTableRecord
100
AcDbDimStyleTableRecord
  2
DIMSTYLE_1
 70
0
  3
<>
  4

 40
1.0
 41
17.5
 42
0.0
 43
0.38
 44
1.0
 45
0.0
 46
0.0
 47
0.1
 48
0.1
140
17.5
141
0.09
142
0.0
143
25.4
144
1.0
145
0.0
146
1.0
147
0.625
 71
0.0
 72
0.0
 73
0
 74
0
 75
0
 76
0
 77
1
 78
8
 79
2
170
0
171
2
172
0
173
0
174
0
175
0
176
0
177
0
178
5
270
2
179
3
271
3
272
3
273
2
274
2
275
0
280
0
281
0
282
0
283
1
284
8
285
0
286
0
287
3
288
0
340
11
278
46
341
217
342
217
343
217
344
217
  0
DIMSTYLE
105
221
100
AcDbSymbolTableRecord
100
AcDbDimStyleTableRecord
  2
DIMSTYLE_2
 70
0
  3

  4

 40
1.0
 41
17.5
 42
0.0
 43
0.38
 44
1.0
 45
0.0
 46
0.0
 47
1.0
 48
0.0
140
17.5
141
0.09
142
0.0
143
25.4
144
1.0
145
0.0
146
0.6
147
0.875
 71
1.0
 72
0.0
 73
0
 74
0
 75
0
 76
0
 77
1
 78
8
 79
2
170
0
171
2
172
0
173
0
174
0
175
0
176
0
177
0
178
5
270
2
179
3
271
3
272
3
273
2
274
2
275
0
280
0
281
0
282
0
283
1
284
8
285
0
286
0
287
3
288
0
340
11
278
46
341
217
342
217
343
217
344
217
  0
ENDTAB
  0
ENDSEC
  0
SECTION
  2
BLOCKS
  0
BLOCK
  5
20
100
AcDbEntity
  8
0
100
AcDbBlockBegin
  2
*Model_Space
 70
0
 10
0.0
 20
0.0
 30
0.0
  3
*Model_Space
  1

  0
ENDBLK
  5
21
100
AcDbEntity
  8
0
100
AcDbBlockEnd
  0
BLOCK
  5
1C
100
AcDbEntity
  8
0
100
AcDbBlockBegin
  2
*Paper_Space
 70
0
 10
0.0
 20
0.0
 30
0.0
  3
*Paper_Space
  1

  0
ENDBLK
  5
1D
100
AcDbEntity
  8
0
100
AcDbBlockEnd
  0
BLOCK
  5
222
100
AcDbEntity
  8
ALL_DETAIL_ITEM
100
AcDbBlockBegin
 62
2
  6
CONTINUOUS
  2
POZ_FS_B2B_BL2
 70
64
 10
854.3082186719
 20
1166.3273002683
  3
POZ_FS_B2B_BL2
  1

  0
TEXT
  5
223
100
AcDbEntity
  8
ALL_DETAIL_ITEM
100
AcDbText
 62
5
  6
CONTINUOUS
 10
845.7463596241
 20
1154.2301482683
  7
TEXTSTYLE_2
 40
25.0
  1
1
 41
0.7619047619
 72
0
100
AcDbText
  0
CIRCLE
  5
224
100
AcDbEntity
  8
ALL_DETAIL_ITEM
100
AcDbCircle
 62
2
  6
CONTINUOUS
 10
854.3082186719
 20
1166.3273002683
 40
23.2719072507
  0
ENDBLK
  5
225
100
AcDbEntity
  8
0
  6
BYBLOCK
 62
0
100
AcDbBlockEnd
  0
BLOCK
  5
226
100
AcDbEntity
  8
ALL_DETAIL_ITEM
100
AcDbBlockBegin
 62
2
  6
CONTINUOUS
  2
B2B_NASLOV_RISBE_BL1
 70
64
 10
689.8940113268
 20
189.0417686006
  3
B2B_NASLOV_RISBE_BL1
  1

  0
TEXT
  5
227
100
AcDbEntity
  8
ALL_DETAIL_ITEM
100
AcDbText
 62
7
  6
CONTINUOUS
 10
560.1858769173
 20
268.7688430933
  7
STANDARD
 40
25.0
  1
Cut-out 570x480-R5 G-I
 41
0.7413419913
 72
0
100
AcDbText
  0
TEXT
  5
228
100
AcDbEntity
  8
ALL_DETAIL_ITEM
100
AcDbText
 62
7
  6
CONTINUOUS
 10
645.5521734933
 20
237.6875351467
  7
STANDARD
 40
17.5
  1
1:5
 41
0.6111111111
 72
0
100
AcDbText
  0
TEXT
  5
229
100
AcDbEntity
  8
ALL_DETAIL_ITEM
100
AcDbText
 62
7
  6
CONTINUOUS
 10
645.32847728
 20
207.4222167467
  7
STANDARD
 40
17.5
  1
A4
 41
0.9166666667
 72
0
100
AcDbText
  0
TEXT
  5
22A
100
AcDbEntity
  8
ALL_DETAIL_ITEM
100
AcDbText
 62
7
  6
CONTINUOUS
 10
560.450839364
 20
162.7029435142
  7
STANDARD
 40
12.5
  1
1134876_01
 41
0.7333333333
 72
0
100
AcDbText
  0
TEXT
  5
22B
100
AcDbEntity
  8
ALL_DETAIL_ITEM
100
AcDbText
 62
7
  6
CONTINUOUS
 10
560.3464328782
 20
183.6866141953
  7
STANDARD
 40
12.5
  1
20.05.2020
 41
0.7547619048
 72
0
100
AcDbText
  0
TEXT
  5
22C
100
AcDbEntity
  8
ALL_DETAIL_ITEM
100
AcDbText
 62
5
  6
CONTINUOUS
 10
560.144890464
 20
238.03706048
  7
STANDARD
 40
17.5
  1
Scale:
 41
0.6507936508
 72
0
100
AcDbText
  0
TEXT
  5
22D
100
AcDbEntity
  8
ALL_DETAIL_ITEM
100
AcDbText
 62
5
  6
CONTINUOUS
 10
560.0050803307
 20
207.72979904
  7
STANDARD
 40
17.5
  1
Format:
 41
0.6904761905
 72
0
100
AcDbText
  0
TEXT
  5
22E
100
AcDbEntity
  8
ALL_DETAIL_ITEM
100
AcDbText
 62
5
  6
CONTINUOUS
 10
411.8640504982
 20
84.314694108
  7
STANDARD
 40
10.0
  1
Subject to modifications. Latest version is on the internet.
 41
0.676984127
 72
0
100
AcDbText
  0
LINE
  5
22F
100
AcDbEntity
  8
ALL_DETAIL_ITEM
100
AcDbLine
 62
4
  6
CONTINUOUS
 10
581.9891810412
 20
143.1896796182
 11
563.9121894514
 21
112.6504372967
  0
LINE
  5
230
100
AcDbEntity
  8
ALL_DETAIL_ITEM
100
AcDbLine
 62
4
  6
CONTINUOUS
 10
583.2799951887
 20
139.4808455402
 11
566.4938177457
 21
111.1223026929
  0
LINE
  5
231
100
AcDbEntity
  8
ALL_DETAIL_ITEM
100
AcDbLine
 62
4
  6
CONTINUOUS
 10
583.2799951887
 20
139.4808455402
 11
600.0661726309
 21
111.1223026929
  0
LINE
  5
232
100
AcDbEntity
  8
ALL_DETAIL_ITEM
100
AcDbLine
 62
4
  6
CONTINUOUS
 10
612.3323405232
 20
142.1290009194
 11
612.3323405232
 21
112.2821886107
  0
LINE
  5
233
100
AcDbEntity
  8
ALL_DETAIL_ITEM
100
AcDbLine
 62
4
  6
CONTINUOUS
 10
584.5708093362
 20
143.1896796182
 11
602.6478009259
 21
112.6504372967
  0
LINE
  5
234
100
AcDbEntity
  8
ALL_DETAIL_ITEM
100
AcDbLine
 62
4
  6
CONTINUOUS
 10
615.3323405262
 20
142.1290009194
 11
615.3323405262
 21
113.7821886129
  0
LINE
  5
235
100
AcDbEntity
  8
ALL_DETAIL_ITEM
100
AcDbLine
 62
4
  6
CONTINUOUS
 10
656.6362285347
 20
111.0082193079
 11
638.5100843209
 21
141.4411543719
  0
LINE
  5
236
100
AcDbEntity
  8
ALL_DETAIL_ITEM
100
AcDbLine
 62
4
  6
CONTINUOUS
 10
657.9249574639
 20
114.7070922602
 11
641.0875421802
 21
142.9763126717
  0
LINE
  5
237
100
AcDbEntity
  8
ALL_DETAIL_ITEM
100
AcDbLine
 62
4
  6
CONTINUOUS
 10
657.9249574639
 20
114.7070922602
 11
674.7623727477
 21
142.9763126717
  0
LINE
  5
238
100
AcDbEntity
  8
ALL_DETAIL_ITEM
100
AcDbLine
 62
4
  6
CONTINUOUS
 10
659.2136863932
 20
111.0082193079
 11
677.3398306069
 21
141.4411543719
  0
LINE
  5
239
100
AcDbEntity
  8
ALL_DETAIL_ITEM
100
AcDbLine
 62
4
  6
CONTINUOUS
 10
613.8323405247
 20
110.7821886092
 11
640.7103407584
 21
110.7821886092
  0
LINE
  5
23A
100
AcDbEntity
  8
ALL_DETAIL_ITEM
100
AcDbLine
 62
4
  6
CONTINUOUS
 10
804.9179830129
 20
110.7828223524
 11
776.8011837019
 21
110.7828223524
  0
LINE
  5
23B
100
AcDbEntity
  8
ALL_DETAIL_ITEM
100
AcDbLine
 62
4
  6
CONTINUOUS
 10
687.5082940624
 20
110.7857954589
 11
717.6046339767
 21
110.7886133867
  0
LINE
  5
23C
100
AcDbEntity
  8
ALL_DETAIL_ITEM
100
AcDbLine
 62
4
  6
CONTINUOUS
 10
735.9877545034
 20
110.7928065722
 11
757.3897591482
 21
110.7928065722
  0
LINE
  5
23D
100
AcDbEntity
  8
ALL_DETAIL_ITEM
100
AcDbLine
 62
4
  6
CONTINUOUS
 10
640.7103407584
 20
113.7821886129
 11
615.3323405262
 21
113.7821886129
  0
LINE
  5
23E
100
AcDbEntity
  8
ALL_DETAIL_ITEM
100
AcDbLine
 62
4
  6
CONTINUOUS
 10
804.9179830129
 20
113.7828223562
 11
776.8011837019
 21
113.7828223562
  0
LINE
  5
23F
100
AcDbEntity
  8
ALL_DETAIL_ITEM
100
AcDbLine
 62
4
  6
CONTINUOUS
 10
689.0081536159
 20
113.7859359077
 11
717.6043530859
 21
113.7886133769
  0
LINE
  5
240
100
AcDbEntity
  8
ALL_DETAIL_ITEM
100
AcDbLine
 62
4
  6
CONTINUOUS
 10
757.3897591482
 20
113.7928065759
 11
735.9877545034
 21
113.7928065759
  0
LINE
  5
241
100
AcDbEntity
  8
ALL_DETAIL_ITEM
100
AcDbLine
 62
4
  6
CONTINUOUS
 10
686.0081536159
 20
141.6977736939
 11
686.0081536159
 21
112.2857954544
  0
LINE
  5
242
100
AcDbEntity
  8
ALL_DETAIL_ITEM
100
AcDbLine
 62
4
  6
CONTINUOUS
 10
689.0081536159
 20
140.1977248817
 11
689.0081536159
 21
128.4908159154
  0
LINE
  5
243
100
AcDbEntity
  8
ALL_DETAIL_ITEM
100
AcDbLine
 62
4
  6
CONTINUOUS
 10
689.0081536159
 20
125.4908159124
 11
689.0081536159
 21
113.7859359077
  0
LINE
  5
244
100
AcDbEntity
  8
ALL_DETAIL_ITEM
100
AcDbLine
 62
4
  6
CONTINUOUS
 10
783.1616511214
 20
125.4897780407
 11
804.9179830129
 21
125.4908186042
  0
LINE
  5
245
100
AcDbEntity
  8
ALL_DETAIL_ITEM
100
AcDbLine
 62
4
  6
CONTINUOUS
 10
689.0081536159
 20
125.4908159124
 11
716.1639790782
 21
125.4908159124
  0
LINE
  5
246
100
AcDbEntity
  8
ALL_DETAIL_ITEM
100
AcDbLine
 62
4
  6
CONTINUOUS
 10
804.9179830129
 20
128.4908186072
 11
783.1616511214
 21
128.4897780437
  0
LINE
  5
247
100
AcDbEntity
  8
ALL_DETAIL_ITEM
100
AcDbLine
 62
4
  6
CONTINUOUS
 10
689.0081536159
 20
128.4908159154
 11
716.1639790782
 21
128.4908159154
  0
LINE
  5
248
100
AcDbEntity
  8
ALL_DETAIL_ITEM
100
AcDbLine
 62
4
  6
CONTINUOUS
 10
689.0081536159
 20
140.1977248817
 11
717.6062533962
 21
140.1967943019
  0
LINE
  5
249
100
AcDbEntity
  8
ALL_DETAIL_ITEM
100
AcDbLine
 62
4
  6
CONTINUOUS
 10
783.1616511214
 20
140.1977742849
 11
809.8388913357
 21
140.1977742849
  0
LINE
  5
24A
100
AcDbEntity
  8
ALL_DETAIL_ITEM
100
AcDbLine
 62
4
  6
CONTINUOUS
 10
687.5082024274
 20
143.1977736947
 11
717.6063510162
 21
143.1967943042
  0
LINE
  5
24B
100
AcDbEntity
  8
ALL_DETAIL_ITEM
100
AcDbLine
 62
4
  6
CONTINUOUS
 10
783.1616511214
 20
143.1977742887
 11
809.8388913357
 21
143.1977742887
  0
LINE
  5
24C
100
AcDbEntity
  8
ALL_DETAIL_ITEM
100
AcDbLine
 62
4
  6
CONTINUOUS
 10
727.7377516557
 20
117.3962664797
 11
727.7371463757
 21
142.1554998099
  0
LINE
  5
24D
100
AcDbEntity
  8
ALL_DETAIL_ITEM
100
AcDbLine
 62
4
  6
CONTINUOUS
 10
730.7377516579
 20
117.3963398199
 11
730.7371463787
 21
142.1554998099
  0
LINE
  5
24E
100
AcDbEntity
  8
ALL_DETAIL_ITEM
100
AcDbLine
 62
4
  6
CONTINUOUS
 10
762.6403672767
 20
142.1554998099
 11
762.6397619937
 21
117.3963398192
  0
LINE
  5
24F
100
AcDbEntity
  8
ALL_DETAIL_ITEM
100
AcDbLine
 62
4
  6
CONTINUOUS
 10
765.6403672797
 20
142.1554998099
 11
765.6397619959
 21
117.3962664789
  0
LINE
  5
250
100
AcDbEntity
  8
ALL_DETAIL_ITEM
100
AcDbLine
 62
4
  6
CONTINUOUS
 10
774.9116631747
 20
132.0926567657
 11
774.9116631747
 21
136.5948955629
  0
LINE
  5
251
100
AcDbEntity
  8
ALL_DETAIL_ITEM
100
AcDbLine
 62
4
  6
CONTINUOUS
 10
777.9116631784
 20
132.0926567657
 11
777.9116631784
 21
136.5948955629
  0
LINE
  5
252
100
AcDbEntity
  8
ALL_DETAIL_ITEM
100
AcDbLine
 62
4
  6
CONTINUOUS
 10
810.1679709619
 20
121.8879398784
 11
810.1679709619
 21
117.3857010812
  0
LINE
  5
253
100
AcDbEntity
  8
ALL_DETAIL_ITEM
100
AcDbLine
 62
4
  6
CONTINUOUS
 10
813.1679709657
 20
121.8879398784
 11
813.1679709657
 21
117.3857010812
  0
ARC
  5
254
100
AcDbEntity
  8
ALL_DETAIL_ITEM
100
AcDbCircle
 62
4
  6
CONTINUOUS
 10
687.5081536174
 20
112.2857954544
 40
1.5000000015
100
AcDbArc
 50
180.0
 51
270.0053646182
  0
ARC
  5
255
100
AcDbEntity
  8
ALL_DETAIL_ITEM
100
AcDbCircle
 62
4
  6
CONTINUOUS
 10
613.8323405247
 20
112.2821886107
 40
1.5000000015
100
AcDbArc
 50
180.0
 51
270.0
  0
ARC
  5
256
100
AcDbEntity
  8
ALL_DETAIL_ITEM
100
AcDbCircle
 62
4
  6
CONTINUOUS
 10
640.7103407584
 20
112.2821886107
 40
1.5000000015
100
AcDbArc
 50
270.0
 51
90.0
  0
ARC
  5
257
100
AcDbEntity
  8
ALL_DETAIL_ITEM
100
AcDbCircle
 62
4
  6
CONTINUOUS
 10
657.9249574639
 20
111.7757984574
 40
1.5000000015
100
AcDbArc
 50
210.7784283087
 51
329.2215716913
  0
ARC
  5
258
100
AcDbEntity
  8
ALL_DETAIL_ITEM
100
AcDbCircle
 62
4
  6
CONTINUOUS
 10
565.2030035982
 20
111.8863699944
 40
1.5000000015
100
AcDbArc
 50
149.3775791193
 51
329.3775791193
  0
ARC
  5
259
100
AcDbEntity
  8
ALL_DETAIL_ITEM
100
AcDbCircle
 62
4
  6
CONTINUOUS
 10
601.3569867784
 20
111.8863699944
 40
1.5000000015
100
AcDbArc
 50
210.6224208807
 51
30.6224208807
  0
ARC
  5
25A
100
AcDbEntity
  8
ALL_DETAIL_ITEM
100
AcDbCircle
 62
4
  6
CONTINUOUS
 10
687.5081536174
 20
141.6977736939
 40
1.5000000015
100
AcDbArc
 50
89.9981356008
 51
180.0
  0
ARC
  5
25B
100
AcDbEntity
  8
ALL_DETAIL_ITEM
100
AcDbCircle
 62
4
  6
CONTINUOUS
 10
613.8323405247
 20
142.1290009194
 40
1.5000000015
100
AcDbArc
 50
0.0
 51
180.0
  0
ARC
  5
25C
100
AcDbEntity
  8
ALL_DETAIL_ITEM
100
AcDbCircle
 62
4
  6
CONTINUOUS
 10
676.0511016777
 20
142.2087335214
 40
1.5000000015
100
AcDbArc
 50
329.2215716913
 51
149.2215716913
  0
ARC
  5
25D
100
AcDbEntity
  8
ALL_DETAIL_ITEM
100
AcDbCircle
 62
4
  6
CONTINUOUS
 10
639.7988132502
 20
142.2087335214
 40
1.5000000015
100
AcDbArc
 50
30.7784283087
 51
210.7784283087
  0
ARC
  5
25E
100
AcDbEntity
  8
ALL_DETAIL_ITEM
100
AcDbCircle
 62
4
  6
CONTINUOUS
 10
583.2799951887
 20
142.4256123159
 40
1.5000000015
100
AcDbArc
 50
30.6224208807
 51
149.3775791193
  0
ARC
  5
25F
100
AcDbEntity
  8
ALL_DETAIL_ITEM
100
AcDbCircle
 62
4
  6
CONTINUOUS
 10
804.9179830129
 20
121.2828223562
 40
10.5000000038
100
AcDbArc
 50
270.0
 51
299.9998228245
  0
ARC
  5
260
100
AcDbEntity
  8
ALL_DETAIL_ITEM
100
AcDbCircle
 62
4
  6
CONTINUOUS
 10
804.9179830129
 20
117.9908186042
 40
10.5000000038
100
AcDbArc
 50
60.0001771755
 51
90.0000000001
  0
ARC
  5
261
100
AcDbEntity
  8
ALL_DETAIL_ITEM
100
AcDbCircle
 62
4
  6
CONTINUOUS
 10
735.9877545034
 20
121.2881632014
 40
10.4953566293
100
AcDbArc
 50
239.9657832688
 51
270.0
  0
ARC
  5
262
100
AcDbEntity
  8
ALL_DETAIL_ITEM
100
AcDbCircle
 62
4
  6
CONTINUOUS
 10
757.3897591482
 20
121.2881632014
 40
10.4953566293
100
AcDbArc
 50
270.0
 51
300.0342167312
  0
ARC
  5
263
100
AcDbEntity
  8
ALL_DETAIL_ITEM
100
AcDbCircle
 62
4
  6
CONTINUOUS
 10
804.9179830129
 20
117.9908186042
 40
7.5
100
AcDbArc
 50
60.0001771755
 51
89.9999999999
  0
ARC
  5
264
100
AcDbEntity
  8
ALL_DETAIL_ITEM
100
AcDbCircle
 62
4
  6
CONTINUOUS
 10
804.9179830129
 20
121.2828223562
 40
7.5
100
AcDbArc
 50
270.0
 51
299.9998228245
  0
ARC
  5
265
100
AcDbEntity
  8
ALL_DETAIL_ITEM
100
AcDbCircle
 62
4
  6
CONTINUOUS
 10
757.3897591482
 20
121.2881632014
 40
7.4953566255
100
AcDbArc
 50
270.0
 51
300.0342167312
  0
ARC
  5
266
100
AcDbEntity
  8
ALL_DETAIL_ITEM
100
AcDbCircle
 62
4
  6
CONTINUOUS
 10
735.9877545034
 20
121.2881632014
 40
7.4953566255
100
AcDbArc
 50
239.9657832688
 51
270.0
  0
ARC
  5
267
100
AcDbEntity
  8
ALL_DETAIL_ITEM
100
AcDbCircle
 62
4
  6
CONTINUOUS
 10
733.7377516572
 20
117.3964131602
 40
6.0000000038
100
AcDbArc
 50
180.0014006897
 51
239.9657832688
  0
ARC
  5
268
100
AcDbEntity
  8
ALL_DETAIL_ITEM
100
AcDbCircle
 62
4
  6
CONTINUOUS
 10
759.6397619944
 20
117.3964131602
 40
6.0000000038
100
AcDbArc
 50
300.0342167312
 51
359.9985993027
  0
ARC
  5
269
100
AcDbEntity
  8
ALL_DETAIL_ITEM
100
AcDbCircle
 62
4
  6
CONTINUOUS
 10
807.1679709619
 20
117.3857010812
 40
6.0000000038
100
AcDbArc
 50
299.9998228245
 51
360.0
  0
ARC
  5
26A
100
AcDbEntity
  8
ALL_DETAIL_ITEM
100
AcDbCircle
 62
4
  6
CONTINUOUS
 10
807.1679709619
 20
121.8879398784
 40
6.0000000038
100
AcDbArc
 50
0.0
 51
60.0001771755
  0
ARC
  5
26B
100
AcDbEntity
  8
ALL_DETAIL_ITEM
100
AcDbCircle
 62
4
  6
CONTINUOUS
 10
759.6397619944
 20
117.3964131602
 40
3.0
100
AcDbArc
 50
300.0342167312
 51
359.9985993006
  0
ARC
  5
26C
100
AcDbEntity
  8
ALL_DETAIL_ITEM
100
AcDbCircle
 62
4
  6
CONTINUOUS
 10
733.7377516572
 20
117.3964131602
 40
3.0
100
AcDbArc
 50
180.0014006917
 51
239.9657832688
  0
ARC
  5
26D
100
AcDbEntity
  8
ALL_DETAIL_ITEM
100
AcDbCircle
 62
4
  6
CONTINUOUS
 10
807.1679709619
 20
121.8879398784
 40
3.0
100
AcDbArc
 50
0.0
 51
60.0001771755
  0
ARC
  5
26E
100
AcDbEntity
  8
ALL_DETAIL_ITEM
100
AcDbCircle
 62
4
  6
CONTINUOUS
 10
807.1679709619
 20
117.3857010812
 40
3.0
100
AcDbArc
 50
299.9998228245
 51
360.0
  0
ARC
  5
26F
100
AcDbEntity
  8
ALL_DETAIL_ITEM
100
AcDbCircle
 62
4
  6
CONTINUOUS
 10
776.8011837019
 20
112.2828223547
 40
1.5000000015
100
AcDbArc
 50
90.0
 51
270.0
  0
ARC
  5
270
100
AcDbEntity
  8
ALL_DETAIL_ITEM
100
AcDbCircle
 62
4
  6
CONTINUOUS
 10
717.6044935317
 20
112.2886133822
 40
1.5000000015
100
AcDbArc
 50
270.0053646182
 51
90.0053646182
  0
ARC
  5
271
100
AcDbEntity
  8
ALL_DETAIL_ITEM
100
AcDbCircle
 62
4
  6
CONTINUOUS
 10
716.1639790782
 20
126.9908159139
 40
1.5000000015
100
AcDbArc
 50
270.0
 51
90.0
  0
ARC
  5
272
100
AcDbEntity
  8
ALL_DETAIL_ITEM
100
AcDbCircle
 62
4
  6
CONTINUOUS
 10
783.1616511214
 20
132.6977742849
 40
10.5000000038
100
AcDbArc
 50
90.0
 51
119.9998227404
  0
ARC
  5
273
100
AcDbEntity
  8
ALL_DETAIL_ITEM
100
AcDbCircle
 62
4
  6
CONTINUOUS
 10
783.1616511214
 20
135.9897780437
 40
10.5000000038
100
AcDbArc
 50
240.0001772596
 51
269.9999999996
  0
ARC
  5
274
100
AcDbEntity
  8
ALL_DETAIL_ITEM
100
AcDbCircle
 62
4
  6
CONTINUOUS
 10
783.1616511214
 20
135.9897780437
 40
7.5
100
AcDbArc
 50
240.0001772596
 51
269.9999999998
  0
ARC
  5
275
100
AcDbEntity
  8
ALL_DETAIL_ITEM
100
AcDbCircle
 62
4
  6
CONTINUOUS
 10
783.1616511214
 20
132.6977742849
 40
7.5
100
AcDbArc
 50
90.0
 51
119.9998227404
  0
ARC
  5
276
100
AcDbEntity
  8
ALL_DETAIL_ITEM
100
AcDbCircle
 62
4
  6
CONTINUOUS
 10
780.9116631784
 20
136.5948955629
 40
6.0000000038
100
AcDbArc
 50
119.9998227404
 51
180.0
  0
ARC
  5
277
100
AcDbEntity
  8
ALL_DETAIL_ITEM
100
AcDbCircle
 62
4
  6
CONTINUOUS
 10
780.9116631784
 20
132.0926567657
 40
6.0000000038
100
AcDbArc
 50
180.0
 51
240.0001772596
  0
ARC
  5
278
100
AcDbEntity
  8
ALL_DETAIL_ITEM
100
AcDbCircle
 62
4
  6
CONTINUOUS
 10
780.9116631784
 20
132.0926567657
 40
3.0
100
AcDbArc
 50
180.0
 51
240.0001772596
  0
ARC
  5
279
100
AcDbEntity
  8
ALL_DETAIL_ITEM
100
AcDbCircle
 62
4
  6
CONTINUOUS
 10
780.9116631784
 20
136.5948955629
 40
3.0
100
AcDbArc
 50
119.9998227404
 51
180.0
  0
ARC
  5
27A
100
AcDbEntity
  8
ALL_DETAIL_ITEM
100
AcDbCircle
 62
4
  6
CONTINUOUS
 10
764.1403672782
 20
142.1554998099
 40
1.5000000015
100
AcDbArc
 50
0.0
 51
180.0
  0
ARC
  5
27B
100
AcDbEntity
  8
ALL_DETAIL_ITEM
100
AcDbCircle
 62
4
  6
CONTINUOUS
 10
729.2371463772
 20
142.1554998099
 40
1.5000000015
100
AcDbArc
 50
0.0
 51
180.0
  0
ARC
  5
27C
100
AcDbEntity
  8
ALL_DETAIL_ITEM
100
AcDbCircle
 62
4
  6
CONTINUOUS
 10
809.8388913357
 20
141.6977742872
 40
1.5000000015
100
AcDbArc
 50
270.0
 51
90.0
  0
ARC
  5
27D
100
AcDbEntity
  8
ALL_DETAIL_ITEM
100
AcDbCircle
 62
4
  6
CONTINUOUS
 10
717.6063022062
 20
141.6967943027
 40
1.5000000015
100
AcDbArc
 50
269.9981356008
 51
89.9981356008
  0
LWPOLYLINE
  5
27E
100
AcDbEntity
  8
ALL_DETAIL_ITEM
100
AcDbPolyline
 62
4
  6
CONTINUOUS
 90
21
 70
0
 10
583.2799951887
 20
143.9256123174
 10
583.4523361269
 20
143.9156883112
 10
583.6223944998
 20
143.8860091754
 10
583.7879179733
 20
143.8370150464
 10
583.9467142758
 20
143.7693116209
 10
584.0966802335
 20
143.6838074439
 10
584.2358296259
 20
143.581646609
 10
584.3623194922
 20
143.464141459
 10
584.4744745405
 20
143.3329408348
 10
584.5708093362
 20
143.1896599274
 10
563.9121894514
 20
112.6504348592
 10
581.9891810415
 20
143.1896599274
 10
582.0855158369
 20
143.3329408348
 10
582.1976708852
 20
143.464141459
 10
582.3241607515
 20
143.581646609
 10
582.4633101438
 20
143.6838074439
 10
582.6132761015
 20
143.7693116209
 10
582.772072404
 20
143.8370150464
 10
582.9375958775
 20
143.8860091754
 10
583.1076542504
 20
143.9156883112
 10
583.2799951887
 20
143.9256123174
  0
HATCH
  5
27F
100
AcDbEntity
  8
ALL_DETAIL_ITEM
100
AcDbHatch
 62
4
  6
CONTINUOUS
 10
0.0
 20
0.0
 30
0.0
210
0.0
220
0.0
230
1.0
  2
SOLID
 70
1
 71
1
 91
1
 92
1
 93
20
 72
1
 10
583.2799951887
 20
143.9256123174
 11
583.4523361269
 21
143.9156883112
 72
1
 10
583.4523361269
 20
143.9156883112
 11
583.6223944998
 21
143.8860091754
 72
1
 10
583.6223944998
 20
143.8860091754
 11
583.7879179733
 21
143.8370150464
 72
1
 10
583.7879179733
 20
143.8370150464
 11
583.9467142758
 21
143.7693116209
 72
1
 10
583.9467142758
 20
143.7693116209
 11
584.0966802335
 21
143.6838074439
 72
1
 10
584.0966802335
 20
143.6838074439
 11
584.2358296259
 21
143.581646609
 72
1
 10
584.2358296259
 20
143.581646609
 11
584.3623194922
 21
143.464141459
 72
1
 10
584.3623194922
 20
143.464141459
 11
584.4744745405
 21
143.3329408348
 72
1
 10
584.4744745405
 20
143.3329408348
 11
584.5708093362
 21
143.1896599274
 72
1
 10
584.5708093362
 20
143.1896599274
 11
563.9121894514
 21
112.6504348592
 72
1
 10
563.9121894514
 20
112.6504348592
 11
581.9891810415
 21
143.1896599274
 72
1
 10
581.9891810415
 20
143.1896599274
 11
582.0855158369
 21
143.3329408348
 72
1
 10
582.0855158369
 20
143.3329408348
 11
582.1976708852
 21
143.464141459
 72
1
 10
582.1976708852
 20
143.464141459
 11
582.3241607515
 21
143.581646609
 72
1
 10
582.3241607515
 20
143.581646609
 11
582.4633101438
 21
143.6838074439
 72
1
 10
582.4633101438
 20
143.6838074439
 11
582.6132761015
 21
143.7693116209
 72
1
 10
582.6132761015
 20
143.7693116209
 11
582.772072404
 21
143.8370150464
 72
1
 10
582.772072404
 20
143.8370150464
 11
582.9375958775
 21
143.8860091754
 72
1
 10
582.9375958775
 20
143.8860091754
 11
583.1076542504
 21
143.9156883112
 72
1
 10
583.1076542504
 20
143.9156883112
 11
583.2799951887
 21
143.9256123174
 97
1
330
27E
 75
0
 76
1
 98
1
 10
0.0
 20
0.0
  0
LWPOLYLINE
  5
280
100
AcDbEntity
  8
ALL_DETAIL_ITEM
100
AcDbPolyline
 62
4
  6
CONTINUOUS
 90
46
 70
0
 10
639.5071224567
 20
143.6801059644
 10
639.7101901925
 20
143.7061172705
 10
639.9149088083
 20
143.7042328809
 10
640.1174647835
 20
143.6744864455
 10
640.3140848835
 20
143.617450011
 10
640.5011064479
 20
143.5341667217
 10
640.6750456188
 20
143.426184469
 10
640.8326622386
 20
143.2955558916
 10
640.9710202079
 20
143.1446364764
 10
641.0875421795
 20
142.9763201075
 10
657.9249574639
 20
114.7070922602
 10
677.339830607
 20
141.4411482995
 10
659.2136863932
 20
111.0082229933
 10
659.117237342
 20
110.8655814324
 10
659.0050799473
 20
110.734952855
 10
658.878691888
 20
110.6180534016
 10
658.7397383327
 20
110.5163973139
 10
658.5900500011
 20
110.4312969347
 10
658.431599044
 20
110.3639636572
 10
658.2664730602
 20
110.3152050769
 10
658.0968475923
 20
110.2856941901
 10
657.9249574639
 20
110.2757984559
 10
657.7530673355
 20
110.2856941901
 10
657.5834418677
 20
110.3152050769
 10
657.4183158839
 20
110.3639636572
 10
657.2598649267
 20
110.4312969347
 10
657.1101765951
 20
110.5163973139
 10
656.9712230398
 20
110.6180534016
 10
656.8448349805
 20
110.734952855
 10
656.7326775858
 20
110.8655814324
 10
656.6362285346
 20
111.0082229933
 10
638.5100843209
 20
141.4411482995
 10
638.4175689309
 20
141.6237994891
 10
638.3507835092
 20
141.8173195687
 10
638.3109721418
 20
142.0181416578
 10
638.2988764391
 20
142.2224969774
 10
638.3147217213
 20
142.4266167482
 10
638.3582128206
 20
142.6266648917
 10
638.4285395802
 20
142.8189399281
 10
638.5243919456
 20
142.9998413274
 10
638.6439843686
 20
143.1660041082
 10
638.7850890686
 20
143.3143324877
 10
638.9450775322
 20
143.4420671811
 10
639.1209694768
 20
143.5468527015
 10
639.3094883684
 20
143.62667006
 10
639.5071224567
 20
143.6801059644
  0
HATCH
  5
281
100
AcDbEntity
  8
ALL_DETAIL_ITEM
100
AcDbHatch
 62
4
  6
CONTINUOUS
 10
0.0
 20
0.0
 30
0.0
210
0.0
220
0.0
230
1.0
  2
SOLID
 70
1
 71
1
 91
1
 92
1
 93
45
 72
1
 10
639.5071224567
 20
143.6801059644
 11
639.7101901925
 21
143.7061172705
 72
1
 10
639.7101901925
 20
143.7061172705
 11
639.9149088083
 21
143.7042328809
 72
1
 10
639.9149088083
 20
143.7042328809
 11
640.1174647835
 21
143.6744864455
 72
1
 10
640.1174647835
 20
143.6744864455
 11
640.3140848835
 21
143.617450011
 72
1
 10
640.3140848835
 20
143.617450011
 11
640.5011064479
 21
143.5341667217
 72
1
 10
640.5011064479
 20
143.5341667217
 11
640.6750456188
 21
143.426184469
 72
1
 10
640.6750456188
 20
143.426184469
 11
640.8326622386
 21
143.2955558916
 72
1
 10
640.8326622386
 20
143.2955558916
 11
640.9710202079
 21
143.1446364764
 72
1
 10
640.9710202079
 20
143.1446364764
 11
641.0875421795
 21
142.9763201075
 72
1
 10
641.0875421795
 20
142.9763201075
 11
657.9249574639
 21
114.7070922602
 72
1
 10
657.9249574639
 20
114.7070922602
 11
677.339830607
 21
141.4411482995
 72
1
 10
677.339830607
 20
141.4411482995
 11
659.2136863932
 21
111.0082229933
 72
1
 10
659.2136863932
 20
111.0082229933
 11
659.117237342
 21
110.8655814324
 72
1
 10
659.117237342
 20
110.8655814324
 11
659.0050799473
 21
110.734952855
 72
1
 10
659.0050799473
 20
110.734952855
 11
658.878691888
 21
110.6180534016
 72
1
 10
658.878691888
 20
110.6180534016
 11
658.7397383327
 21
110.5163973139
 72
1
 10
658.7397383327
 20
110.5163973139
 11
658.5900500011
 21
110.4312969347
 72
1
 10
658.5900500011
 20
110.4312969347
 11
658.431599044
 21
110.3639636572
 72
1
 10
658.431599044
 20
110.3639636572
 11
658.2664730602
 21
110.3152050769
 72
1
 10
658.2664730602
 20
110.3152050769
 11
658.0968475923
 21
110.2856941901
 72
1
 10
658.0968475923
 20
110.2856941901
 11
657.9249574639
 21
110.2757984559
 72
1
 10
657.9249574639
 20
110.2757984559
 11
657.7530673355
 21
110.2856941901
 72
1
 10
657.7530673355
 20
110.2856941901
 11
657.5834418677
 21
110.3152050769
 72
1
 10
657.5834418677
 20
110.3152050769
 11
657.4183158839
 21
110.3639636572
 72
1
 10
657.4183158839
 20
110.3639636572
 11
657.2598649267
 21
110.4312969347
 72
1
 10
657.2598649267
 20
110.4312969347
 11
657.1101765951
 21
110.5163973139
 72
1
 10
657.1101765951
 20
110.5163973139
 11
656.9712230398
 21
110.6180534016
 72
1
 10
656.9712230398
 20
110.6180534016
 11
656.8448349805
 21
110.734952855
 72
1
 10
656.8448349805
 20
110.734952855
 11
656.7326775858
 21
110.8655814324
 72
1
 10
656.7326775858
 20
110.8655814324
 11
656.6362285346
 21
111.0082229933
 72
1
 10
656.6362285346
 20
111.0082229933
 11
638.5100843209
 21
141.4411482995
 72
1
 10
638.5100843209
 20
141.4411482995
 11
638.4175689309
 21
141.6237994891
 72
1
 10
638.4175689309
 20
141.6237994891
 11
638.3507835092
 21
141.8173195687
 72
1
 10
638.3507835092
 20
141.8173195687
 11
638.3109721418
 21
142.0181416578
 72
1
 10
638.3109721418
 20
142.0181416578
 11
638.2988764391
 21
142.2224969774
 72
1
 10
638.2988764391
 20
142.2224969774
 11
638.3147217213
 21
142.4266167482
 72
1
 10
638.3147217213
 20
142.4266167482
 11
638.3582128206
 21
142.6266648917
 72
1
 10
638.3582128206
 20
142.6266648917
 11
638.4285395802
 21
142.8189399281
 72
1
 10
638.4285395802
 20
142.8189399281
 11
638.5243919456
 21
142.9998413274
 72
1
 10
638.5243919456
 20
142.9998413274
 11
638.6439843686
 21
143.1660041082
 72
1
 10
638.6439843686
 20
143.1660041082
 11
638.7850890686
 21
143.3143324877
 72
1
 10
638.7850890686
 20
143.3143324877
 11
638.9450775322
 21
143.4420671811
 72
1
 10
638.9450775322
 20
143.4420671811
 11
639.1209694768
 21
143.5468527015
 72
1
 10
639.1209694768
 20
143.5468527015
 11
639.3094883684
 21
143.62667006
 72
1
 10
639.3094883684
 20
143.62667006
 11
639.5071224567
 21
143.6801059644
 97
1
330
280
 75
0
 76
1
 98
1
 10
0.0
 20
0.0
  0
LWPOLYLINE
  5
282
100
AcDbEntity
  8
ALL_DETAIL_ITEM
100
AcDbPolyline
 62
4
  6
CONTINUOUS
 90
19
 70
0
 10
676.1397247353
 20
143.7061172705
 10
676.3427924712
 20
143.6801059644
 10
676.5404265595
 20
143.62667006
 10
676.7289454511
 20
143.5468527015
 10
676.9048373957
 20
143.4420671811
 10
677.0648258592
 20
143.3143324877
 10
677.2059305593
 20
143.1660041082
 10
677.3255229823
 20
142.9998413274
 10
677.4213753477
 20
142.8189399281
 10
657.9249574639
 20
114.7070922602
 10
674.7623727484
 20
142.9763201075
 10
674.8788947199
 20
143.1446364764
 10
675.0172526892
 20
143.2955558916
 10
675.174869309
 20
143.426184469
 10
675.3488084799
 20
143.5341667217
 10
675.5358300444
 20
143.617450011
 10
675.7324501444
 20
143.6744864455
 10
675.9350061195
 20
143.7042328809
 10
676.1397247353
 20
143.7061172705
  0
HATCH
  5
283
100
AcDbEntity
  8
ALL_DETAIL_ITEM
100
AcDbHatch
 62
4
  6
CONTINUOUS
 10
0.0
 20
0.0
 30
0.0
210
0.0
220
0.0
230
1.0
  2
SOLID
 70
1
 71
1
 91
1
 92
1
 93
18
 72
1
 10
676.1397247353
 20
143.7061172705
 11
676.3427924712
 21
143.6801059644
 72
1
 10
676.3427924712
 20
143.6801059644
 11
676.5404265595
 21
143.62667006
 72
1
 10
676.5404265595
 20
143.62667006
 11
676.7289454511
 21
143.5468527015
 72
1
 10
676.7289454511
 20
143.5468527015
 11
676.9048373957
 21
143.4420671811
 72
1
 10
676.9048373957
 20
143.4420671811
 11
677.0648258592
 21
143.3143324877
 72
1
 10
677.0648258592
 20
143.3143324877
 11
677.2059305593
 21
143.1660041082
 72
1
 10
677.2059305593
 20
143.1660041082
 11
677.3255229823
 21
142.9998413274
 72
1
 10
677.3255229823
 20
142.9998413274
 11
677.4213753477
 21
142.8189399281
 72
1
 10
677.4213753477
 20
142.8189399281
 11
657.9249574639
 21
114.7070922602
 72
1
 10
657.9249574639
 20
114.7070922602
 11
674.7623727484
 21
142.9763201075
 72
1
 10
674.7623727484
 20
142.9763201075
 11
674.8788947199
 21
143.1446364764
 72
1
 10
674.8788947199
 20
143.1446364764
 11
675.0172526892
 21
143.2955558916
 72
1
 10
675.0172526892
 20
143.2955558916
 11
675.174869309
 21
143.426184469
 72
1
 10
675.174869309
 20
143.426184469
 11
675.3488084799
 21
143.5341667217
 72
1
 10
675.3488084799
 20
143.5341667217
 11
675.5358300444
 21
143.617450011
 72
1
 10
675.5358300444
 20
143.617450011
 11
675.7324501444
 21
143.6744864455
 72
1
 10
675.7324501444
 20
143.6744864455
 11
675.9350061195
 21
143.7042328809
 72
1
 10
675.9350061195
 20
143.7042328809
 11
676.1397247353
 21
143.7061172705
 97
1
330
282
 75
0
 76
1
 98
1
 10
0.0
 20
0.0
  0
LWPOLYLINE
  5
284
100
AcDbEntity
  8
ALL_DETAIL_ITEM
100
AcDbPolyline
 62
4
  6
CONTINUOUS
 90
27
 70
0
 10
729.2371463772
 20
143.6555079505
 10
729.4329356657
 20
143.6426537216
 10
729.6253749452
 20
143.6043938832
 10
729.8111715263
 20
143.541334132
 10
729.9871463779
 20
143.4545512621
 10
730.1502885216
 20
143.3455258652
 10
730.29780655
 20
143.2161759807
 10
730.4271763888
 20
143.0686551967
 10
730.5361844841
 20
142.9054872493
 10
730.6229656773
 20
142.7295323726
 10
730.6860351181
 20
142.5437181005
 10
730.7243136707
 20
142.351274815
 10
730.7371463787
 20
142.155500198
 10
727.7377516557
 20
117.396270007
 10
727.7371463757
 20
142.155500198
 10
727.7499790836
 20
142.351274815
 10
727.7882576363
 20
142.5437181005
 10
727.851327077
 20
142.7295323726
 10
727.9381082702
 20
142.9054872493
 10
728.0471163655
 20
143.0686551967
 10
728.1764862043
 20
143.2161759807
 10
728.3240042327
 20
143.3455258652
 10
728.4871463764
 20
143.4545512621
 10
728.663121228
 20
143.541334132
 10
728.8489178091
 20
143.6043938832
 10
729.0413570886
 20
143.6426537216
 10
729.2371463772
 20
143.6555079505
  0
HATCH
  5
285
100
AcDbEntity
  8
ALL_DETAIL_ITEM
100
AcDbHatch
 62
4
  6
CONTINUOUS
 10
0.0
 20
0.0
 30
0.0
210
0.0
220
0.0
230
1.0
  2
SOLID
 70
1
 71
1
 91
1
 92
1
 93
26
 72
1
 10
729.2371463772
 20
143.6555079505
 11
729.4329356657
 21
143.6426537216
 72
1
 10
729.4329356657
 20
143.6426537216
 11
729.6253749452
 21
143.6043938832
 72
1
 10
729.6253749452
 20
143.6043938832
 11
729.8111715263
 21
143.541334132
 72
1
 10
729.8111715263
 20
143.541334132
 11
729.9871463779
 21
143.4545512621
 72
1
 10
729.9871463779
 20
143.4545512621
 11
730.1502885216
 21
143.3455258652
 72
1
 10
730.1502885216
 20
143.3455258652
 11
730.29780655
 21
143.2161759807
 72
1
 10
730.29780655
 20
143.2161759807
 11
730.4271763888
 21
143.0686551967
 72
1
 10
730.4271763888
 20
143.0686551967
 11
730.5361844841
 21
142.9054872493
 72
1
 10
730.5361844841
 20
142.9054872493
 11
730.6229656773
 21
142.7295323726
 72
1
 10
730.6229656773
 20
142.7295323726
 11
730.6860351181
 21
142.5437181005
 72
1
 10
730.6860351181
 20
142.5437181005
 11
730.7243136707
 21
142.351274815
 72
1
 10
730.7243136707
 20
142.351274815
 11
730.7371463787
 21
142.155500198
 72
1
 10
730.7371463787
 20
142.155500198
 11
727.7377516557
 21
117.396270007
 72
1
 10
727.7377516557
 20
117.396270007
 11
727.7371463757
 21
142.155500198
 72
1
 10
727.7371463757
 20
142.155500198
 11
727.7499790836
 21
142.351274815
 72
1
 10
727.7499790836
 20
142.351274815
 11
727.7882576363
 21
142.5437181005
 72
1
 10
727.7882576363
 20
142.5437181005
 11
727.851327077
 21
142.7295323726
 72
1
 10
727.851327077
 20
142.7295323726
 11
727.9381082702
 21
142.9054872493
 72
1
 10
727.9381082702
 20
142.9054872493
 11
728.0471163655
 21
143.0686551967
 72
1
 10
728.0471163655
 20
143.0686551967
 11
728.1764862043
 21
143.2161759807
 72
1
 10
728.1764862043
 20
143.2161759807
 11
728.3240042327
 21
143.3455258652
 72
1
 10
728.3240042327
 20
143.3455258652
 11
728.4871463764
 21
143.4545512621
 72
1
 10
728.4871463764
 20
143.4545512621
 11
728.663121228
 21
143.541334132
 72
1
 10
728.663121228
 20
143.541334132
 11
728.8489178091
 21
143.6043938832
 72
1
 10
728.8489178091
 20
143.6043938832
 11
729.0413570886
 21
143.6426537216
 72
1
 10
729.0413570886
 20
143.6426537216
 11
729.2371463772
 21
143.6555079505
 97
1
330
284
 75
0
 76
1
 98
1
 10
0.0
 20
0.0
  0
LWPOLYLINE
  5
286
100
AcDbEntity
  8
ALL_DETAIL_ITEM
100
AcDbPolyline
 62
4
  6
CONTINUOUS
 90
50
 70
0
 10
764.1403672782
 20
143.6555079505
 10
764.3361565667
 20
143.6426537216
 10
764.5285958462
 20
143.6043938832
 10
764.7143924273
 20
143.541334132
 10
764.8903672789
 20
143.4545512621
 10
765.0535094226
 20
143.3455258652
 10
765.201027451
 20
143.2161759807
 10
765.3303972898
 20
143.0686551967
 10
765.4394053851
 20
142.9054872493
 10
765.5261865783
 20
142.7295323726
 10
765.5892560191
 20
142.5437181005
 10
765.6275345717
 20
142.351274815
 10
765.6403672797
 20
142.155500198
 10
765.6397619964
 20
117.396270007
 10
765.6169444902
 20
116.8736547479
 10
765.5486909737
 20
116.3549765171
 10
765.4355202813
 20
115.8442732921
 10
765.2782926885
 20
115.3453138521
 10
765.078203373
 20
114.8619679258
 10
764.8367733291
 20
114.3979033429
 10
759.5418338402
 20
114.1084139942
 10
759.956126052
 20
114.245839834
 10
760.361714676
 20
114.4071906915
 10
760.7572241975
 20
114.59186087
 10
761.141313284
 20
114.7992446728
 10
761.3618313224
 20
114.9399008947
 10
761.5692589189
 20
115.0992327634
 10
761.7620192969
 20
115.2760288854
 10
761.9386471735
 20
115.4689432683
 10
762.0977998984
 20
115.67652897
 10
762.2382676601
 20
115.8971707995
 10
762.358982682
 20
116.129186266
 10
762.4590273397
 20
116.3708592292
 10
762.537641136
 20
116.6203389492
 10
762.5942264822
 20
116.8757073866
 10
762.6283532404
 20
117.1350128522
 10
762.6397619937
 20
117.3963373066
 10
762.6403672767
 20
142.155500198
 10
762.6531999846
 20
142.351274815
 10
762.6914785373
 20
142.5437181005
 10
762.754547978
 20
142.7295323726
 10
762.8413291712
 20
142.9054872493
 10
762.9503372665
 20
143.0686551967
 10
763.0797071053
 20
143.2161759807
 10
763.2272251337
 20
143.3455258652
 10
763.3903672774
 20
143.4545512621
 10
763.566342129
 20
143.541334132
 10
763.7521387101
 20
143.6043938832
 10
763.9445779896
 20
143.6426537216
 10
764.1403672782
 20
143.6555079505
  0
HATCH
  5
287
100
AcDbEntity
  8
ALL_DETAIL_ITEM
100
AcDbHatch
 62
4
  6
CONTINUOUS
 10
0.0
 20
0.0
 30
0.0
210
0.0
220
0.0
230
1.0
  2
SOLID
 70
1
 71
1
 91
1
 92
1
 93
49
 72
1
 10
764.1403672782
 20
143.6555079505
 11
764.3361565667
 21
143.6426537216
 72
1
 10
764.3361565667
 20
143.6426537216
 11
764.5285958462
 21
143.6043938832
 72
1
 10
764.5285958462
 20
143.6043938832
 11
764.7143924273
 21
143.541334132
 72
1
 10
764.7143924273
 20
143.541334132
 11
764.8903672789
 21
143.4545512621
 72
1
 10
764.8903672789
 20
143.4545512621
 11
765.0535094226
 21
143.3455258652
 72
1
 10
765.0535094226
 20
143.3455258652
 11
765.201027451
 21
143.2161759807
 72
1
 10
765.201027451
 20
143.2161759807
 11
765.3303972898
 21
143.0686551967
 72
1
 10
765.3303972898
 20
143.0686551967
 11
765.4394053851
 21
142.9054872493
 72
1
 10
765.4394053851
 20
142.9054872493
 11
765.5261865783
 21
142.7295323726
 72
1
 10
765.5261865783
 20
142.7295323726
 11
765.5892560191
 21
142.5437181005
 72
1
 10
765.5892560191
 20
142.5437181005
 11
765.6275345717
 21
142.351274815
 72
1
 10
765.6275345717
 20
142.351274815
 11
765.6403672797
 21
142.155500198
 72
1
 10
765.6403672797
 20
142.155500198
 11
765.6397619964
 21
117.396270007
 72
1
 10
765.6397619964
 20
117.396270007
 11
765.6169444902
 21
116.8736547479
 72
1
 10
765.6169444902
 20
116.8736547479
 11
765.5486909737
 21
116.3549765171
 72
1
 10
765.5486909737
 20
116.3549765171
 11
765.4355202813
 21
115.8442732921
 72
1
 10
765.4355202813
 20
115.8442732921
 11
765.2782926885
 21
115.3453138521
 72
1
 10
765.2782926885
 20
115.3453138521
 11
765.078203373
 21
114.8619679258
 72
1
 10
765.078203373
 20
114.8619679258
 11
764.8367733291
 21
114.3979033429
 72
1
 10
764.8367733291
 20
114.3979033429
 11
759.5418338402
 21
114.1084139942
 72
1
 10
759.5418338402
 20
114.1084139942
 11
759.956126052
 21
114.245839834
 72
1
 10
759.956126052
 20
114.245839834
 11
760.361714676
 21
114.4071906915
 72
1
 10
760.361714676
 20
114.4071906915
 11
760.7572241975
 21
114.59186087
 72
1
 10
760.7572241975
 20
114.59186087
 11
761.141313284
 21
114.7992446728
 72
1
 10
761.141313284
 20
114.7992446728
 11
761.3618313224
 21
114.9399008947
 72
1
 10
761.3618313224
 20
114.9399008947
 11
761.5692589189
 21
115.0992327634
 72
1
 10
761.5692589189
 20
115.0992327634
 11
761.7620192969
 21
115.2760288854
 72
1
 10
761.7620192969
 20
115.2760288854
 11
761.9386471735
 21
115.4689432683
 72
1
 10
761.9386471735
 20
115.4689432683
 11
762.0977998984
 21
115.67652897
 72
1
 10
762.0977998984
 20
115.67652897
 11
762.2382676601
 21
115.8971707995
 72
1
 10
762.2382676601
 20
115.8971707995
 11
762.358982682
 21
116.129186266
 72
1
 10
762.358982682
 20
116.129186266
 11
762.4590273397
 21
116.3708592292
 72
1
 10
762.4590273397
 20
116.3708592292
 11
762.537641136
 21
116.6203389492
 72
1
 10
762.537641136
 20
116.6203389492
 11
762.5942264822
 21
116.8757073866
 72
1
 10
762.5942264822
 20
116.8757073866
 11
762.6283532404
 21
117.1350128522
 72
1
 10
762.6283532404
 20
117.1350128522
 11
762.6397619937
 21
117.3963373066
 72
1
 10
762.6397619937
 20
117.3963373066
 11
762.6403672767
 21
142.155500198
 72
1
 10
762.6403672767
 20
142.155500198
 11
762.6531999846
 21
142.351274815
 72
1
 10
762.6531999846
 20
142.351274815
 11
762.6914785373
 21
142.5437181005
 72
1
 10
762.6914785373
 20
142.5437181005
 11
762.754547978
 21
142.7295323726
 72
1
 10
762.754547978
 20
142.7295323726
 11
762.8413291712
 21
142.9054872493
 72
1
 10
762.8413291712
 20
142.9054872493
 11
762.9503372665
 21
143.0686551967
 72
1
 10
762.9503372665
 20
143.0686551967
 11
763.0797071053
 21
143.2161759807
 72
1
 10
763.0797071053
 20
143.2161759807
 11
763.2272251337
 21
143.3455258652
 72
1
 10
763.2272251337
 20
143.3455258652
 11
763.3903672774
 21
143.4545512621
 72
1
 10
763.3903672774
 20
143.4545512621
 11
763.566342129
 21
143.541334132
 72
1
 10
763.566342129
 20
143.541334132
 11
763.7521387101
 21
143.6043938832
 72
1
 10
763.7521387101
 20
143.6043938832
 11
763.9445779896
 21
143.6426537216
 72
1
 10
763.9445779896
 20
143.6426537216
 11
764.1403672782
 21
143.6555079505
 97
1
330
286
 75
0
 76
1
 98
1
 10
0.0
 20
0.0
  0
LWPOLYLINE
  5
288
100
AcDbEntity
  8
ALL_DETAIL_ITEM
100
AcDbPolyline
 62
4
  6
CONTINUOUS
 90
27
 70
0
 10
613.8323405247
 20
143.6290009209
 10
614.0281298132
 20
143.6161713181
 10
614.2205690927
 20
143.5778778299
 10
614.4063656738
 20
143.5148180787
 10
614.5823405254
 20
143.4280352088
 10
614.7454826691
 20
143.3190434617
 10
614.8930006975
 20
143.1896599274
 10
615.0223705363
 20
143.0421391434
 10
615.1313786316
 20
142.8790048458
 10
615.2181598248
 20
142.7030163193
 10
615.2812292655
 20
142.517235697
 10
615.3195078182
 20
142.3247924115
 10
615.3323405262
 20
142.1289841446
 10
612.3323405232
 20
112.2822049461
 10
612.3323405232
 20
142.1289841446
 10
612.3451732311
 20
142.3247924115
 10
612.3834517838
 20
142.517235697
 10
612.4465212245
 20
142.7030163193
 10
612.5333024177
 20
142.8790048458
 10
612.642310513
 20
143.0421391434
 10
612.7716803518
 20
143.1896599274
 10
612.9191983802
 20
143.3190434617
 10
613.0823405239
 20
143.4280352088
 10
613.2583153755
 20
143.5148180787
 10
613.4441119566
 20
143.5778778299
 10
613.6365512361
 20
143.6161713181
 10
613.8323405247
 20
143.6290009209
  0
HATCH
  5
289
100
AcDbEntity
  8
ALL_DETAIL_ITEM
100
AcDbHatch
 62
4
  6
CONTINUOUS
 10
0.0
 20
0.0
 30
0.0
210
0.0
220
0.0
230
1.0
  2
SOLID
 70
1
 71
1
 91
1
 92
1
 93
26
 72
1
 10
613.8323405247
 20
143.6290009209
 11
614.0281298132
 21
143.6161713181
 72
1
 10
614.0281298132
 20
143.6161713181
 11
614.2205690927
 21
143.5778778299
 72
1
 10
614.2205690927
 20
143.5778778299
 11
614.4063656738
 21
143.5148180787
 72
1
 10
614.4063656738
 20
143.5148180787
 11
614.5823405254
 21
143.4280352088
 72
1
 10
614.5823405254
 20
143.4280352088
 11
614.7454826691
 21
143.3190434617
 72
1
 10
614.7454826691
 20
143.3190434617
 11
614.8930006975
 21
143.1896599274
 72
1
 10
614.8930006975
 20
143.1896599274
 11
615.0223705363
 21
143.0421391434
 72
1
 10
615.0223705363
 20
143.0421391434
 11
615.1313786316
 21
142.8790048458
 72
1
 10
615.1313786316
 20
142.8790048458
 11
615.2181598248
 21
142.7030163193
 72
1
 10
615.2181598248
 20
142.7030163193
 11
615.2812292655
 21
142.517235697
 72
1
 10
615.2812292655
 20
142.517235697
 11
615.3195078182
 21
142.3247924115
 72
1
 10
615.3195078182
 20
142.3247924115
 11
615.3323405262
 21
142.1289841446
 72
1
 10
615.3323405262
 20
142.1289841446
 11
612.3323405232
 21
112.2822049461
 72
1
 10
612.3323405232
 20
112.2822049461
 11
612.3323405232
 21
142.1289841446
 72
1
 10
612.3323405232
 20
142.1289841446
 11
612.3451732311
 21
142.3247924115
 72
1
 10
612.3451732311
 20
142.3247924115
 11
612.3834517838
 21
142.517235697
 72
1
 10
612.3834517838
 20
142.517235697
 11
612.4465212245
 21
142.7030163193
 72
1
 10
612.4465212245
 20
142.7030163193
 11
612.5333024177
 21
142.8790048458
 72
1
 10
612.5333024177
 20
142.8790048458
 11
612.642310513
 21
143.0421391434
 72
1
 10
612.642310513
 20
143.0421391434
 11
612.7716803518
 21
143.1896599274
 72
1
 10
612.7716803518
 20
143.1896599274
 11
612.9191983802
 21
143.3190434617
 72
1
 10
612.9191983802
 20
143.3190434617
 11
613.0823405239
 21
143.4280352088
 72
1
 10
613.0823405239
 20
143.4280352088
 11
613.2583153755
 21
143.5148180787
 72
1
 10
613.2583153755
 20
143.5148180787
 11
613.4441119566
 21
143.5778778299
 72
1
 10
613.4441119566
 20
143.5778778299
 11
613.6365512361
 21
143.6161713181
 72
1
 10
613.6365512361
 20
143.6161713181
 11
613.8323405247
 21
143.6290009209
 97
1
330
288
 75
0
 76
1
 98
1
 10
0.0
 20
0.0
  0
LWPOLYLINE
  5
28A
100
AcDbEntity
  8
ALL_DETAIL_ITEM
100
AcDbPolyline
 62
4
  6
CONTINUOUS
 90
32
 70
0
 10
687.3514062287
 20
143.1895612997
 10
687.5082024274
 20
143.1977695325
 10
717.606351016
 20
143.1967943034
 10
717.8021398869
 20
143.1839552245
 10
717.9945779207
 20
143.1456704099
 10
718.1803724494
 20
143.0825949234
 10
718.3563444771
 20
142.995808004
 10
718.5194830736
 20
142.8867946001
 10
718.6669968922
 20
142.7574199612
 10
718.7963619307
 20
142.6098977231
 10
718.9053647174
 20
142.4467520324
 10
718.9921401843
 20
142.2707743571
 10
719.0552035792
 20
142.0849757238
 10
719.0934758699
 20
141.8925351988
 10
719.1063022069
 20
141.6967454928
 10
689.0081536159
 20
140.1977248817
 10
686.0081536159
 20
112.2857954544
 10
686.0081536159
 20
141.69776178
 10
686.016371113
 20
141.8545696251
 10
686.0409335679
 20
142.0096475962
 10
686.0815718582
 20
142.1613084701
 10
686.1378407237
 20
142.3078905498
 10
686.2091236455
 20
142.4477824812
 10
686.2946396006
 20
142.5794673684
 10
686.3934516196
 20
142.7014865316
 10
686.5044770525
 20
142.8125083518
 10
686.6264994311
 20
142.9113164003
 10
686.7581817972
 20
142.9968128441
 10
686.8980813517
 20
143.06810644
 10
687.0446652623
 20
143.1243705358
 10
687.1963274585
 20
143.165003891
 10
687.3514062287
 20
143.1895612997
  0
HATCH
  5
28B
100
AcDbEntity
  8
ALL_DETAIL_ITEM
100
AcDbHatch
 62
4
  6
CONTINUOUS
 10
0.0
 20
0.0
 30
0.0
210
0.0
220
0.0
230
1.0
  2
SOLID
 70
1
 71
1
 91
1
 92
1
 93
31
 72
1
 10
687.3514062287
 20
143.1895612997
 11
687.5082024274
 21
143.1977695325
 72
1
 10
687.5082024274
 20
143.1977695325
 11
717.606351016
 21
143.1967943034
 72
1
 10
717.606351016
 20
143.1967943034
 11
717.8021398869
 21
143.1839552245
 72
1
 10
717.8021398869
 20
143.1839552245
 11
717.9945779207
 21
143.1456704099
 72
1
 10
717.9945779207
 20
143.1456704099
 11
718.1803724494
 21
143.0825949234
 72
1
 10
718.1803724494
 20
143.0825949234
 11
718.3563444771
 21
142.995808004
 72
1
 10
718.3563444771
 20
142.995808004
 11
718.5194830736
 21
142.8867946001
 72
1
 10
718.5194830736
 20
142.8867946001
 11
718.6669968922
 21
142.7574199612
 72
1
 10
718.6669968922
 20
142.7574199612
 11
718.7963619307
 21
142.6098977231
 72
1
 10
718.7963619307
 20
142.6098977231
 11
718.9053647174
 21
142.4467520324
 72
1
 10
718.9053647174
 20
142.4467520324
 11
718.9921401843
 21
142.2707743571
 72
1
 10
718.9921401843
 20
142.2707743571
 11
719.0552035792
 21
142.0849757238
 72
1
 10
719.0552035792
 20
142.0849757238
 11
719.0934758699
 21
141.8925351988
 72
1
 10
719.0934758699
 20
141.8925351988
 11
719.1063022069
 21
141.6967454928
 72
1
 10
719.1063022069
 20
141.6967454928
 11
689.0081536159
 21
140.1977248817
 72
1
 10
689.0081536159
 20
140.1977248817
 11
686.0081536159
 21
112.2857954544
 72
1
 10
686.0081536159
 20
112.2857954544
 11
686.0081536159
 21
141.69776178
 72
1
 10
686.0081536159
 20
141.69776178
 11
686.016371113
 21
141.8545696251
 72
1
 10
686.016371113
 20
141.8545696251
 11
686.0409335679
 21
142.0096475962
 72
1
 10
686.0409335679
 20
142.0096475962
 11
686.0815718582
 21
142.1613084701
 72
1
 10
686.0815718582
 20
142.1613084701
 11
686.1378407237
 21
142.3078905498
 72
1
 10
686.1378407237
 20
142.3078905498
 11
686.2091236455
 21
142.4477824812
 72
1
 10
686.2091236455
 20
142.4477824812
 11
686.2946396006
 21
142.5794673684
 72
1
 10
686.2946396006
 20
142.5794673684
 11
686.3934516196
 21
142.7014865316
 72
1
 10
686.3934516196
 20
142.7014865316
 11
686.5044770525
 21
142.8125083518
 72
1
 10
686.5044770525
 20
142.8125083518
 11
686.6264994311
 21
142.9113164003
 72
1
 10
686.6264994311
 20
142.9113164003
 11
686.7581817972
 21
142.9968128441
 72
1
 10
686.7581817972
 20
142.9968128441
 11
686.8980813517
 21
143.06810644
 72
1
 10
686.8980813517
 20
143.06810644
 11
687.0446652623
 21
143.1243705358
 72
1
 10
687.0446652623
 20
143.1243705358
 11
687.1963274585
 21
143.165003891
 72
1
 10
687.1963274585
 20
143.165003891
 11
687.3514062287
 21
143.1895612997
 97
1
330
28A
 75
0
 76
1
 98
1
 10
0.0
 20
0.0
  0
LWPOLYLINE
  5
28C
100
AcDbEntity
  8
ALL_DETAIL_ITEM
100
AcDbPolyline
 62
4
  6
CONTINUOUS
 90
13
 70
0
 10
810.0346806242
 20
143.1849415807
 10
810.2271199037
 20
143.146663028
 10
810.4129164848
 20
143.0835935873
 10
810.5888913364
 20
142.9968128441
 10
810.7520334801
 20
142.8878042988
 10
780.1502344657
 20
142.7566693437
 10
780.7401985262
 20
142.9147487592
 10
781.3383559189
 20
143.0382575755
 10
781.9426826926
 20
143.126777883
 10
782.5511340209
 20
143.1800101604
 10
783.1616511214
 20
143.1977695325
 10
809.8388913357
 20
143.1977695325
 10
810.0346806242
 20
143.1849415807
  0
HATCH
  5
28D
100
AcDbEntity
  8
ALL_DETAIL_ITEM
100
AcDbHatch
 62
4
  6
CONTINUOUS
 10
0.0
 20
0.0
 30
0.0
210
0.0
220
0.0
230
1.0
  2
SOLID
 70
1
 71
1
 91
1
 92
1
 93
12
 72
1
 10
810.0346806242
 20
143.1849415807
 11
810.2271199037
 21
143.146663028
 72
1
 10
810.2271199037
 20
143.146663028
 11
810.4129164848
 21
143.0835935873
 72
1
 10
810.4129164848
 20
143.0835935873
 11
810.5888913364
 21
142.9968128441
 72
1
 10
810.5888913364
 20
142.9968128441
 11
810.7520334801
 21
142.8878042988
 72
1
 10
810.7520334801
 20
142.8878042988
 11
780.1502344657
 21
142.7566693437
 72
1
 10
780.1502344657
 20
142.7566693437
 11
780.7401985262
 21
142.9147487592
 72
1
 10
780.7401985262
 20
142.9147487592
 11
781.3383559189
 21
143.0382575755
 72
1
 10
781.3383559189
 20
143.0382575755
 11
781.9426826926
 21
143.126777883
 72
1
 10
781.9426826926
 20
143.126777883
 11
782.5511340209
 21
143.1800101604
 72
1
 10
782.5511340209
 20
143.1800101604
 11
783.1616511214
 21
143.1977695325
 72
1
 10
783.1616511214
 20
143.1977695325
 11
809.8388913357
 21
143.1977695325
 72
1
 10
809.8388913357
 20
143.1977695325
 11
810.0346806242
 21
143.1849415807
 97
1
330
28C
 75
0
 76
1
 98
1
 10
0.0
 20
0.0
  0
LWPOLYLINE
  5
28E
100
AcDbEntity
  8
ALL_DETAIL_ITEM
100
AcDbPolyline
 62
4
  6
CONTINUOUS
 90
10
 70
0
 10
810.8995515085
 20
142.75843446
 10
811.0289213473
 20
142.6109164316
 10
811.1379294426
 20
142.4477824812
 10
811.2247106358
 20
142.2717994363
 10
778.4492855314
 20
142.0809299708
 10
779.0028367759
 20
142.3390534178
 10
779.5704599655
 20
142.5645542136
 10
780.1502344657
 20
142.7566693437
 10
810.7520334801
 20
142.8878042988
 10
810.8995515085
 20
142.75843446
  0
HATCH
  5
28F
100
AcDbEntity
  8
ALL_DETAIL_ITEM
100
AcDbHatch
 62
4
  6
CONTINUOUS
 10
0.0
 20
0.0
 30
0.0
210
0.0
220
0.0
230
1.0
  2
SOLID
 70
1
 71
1
 91
1
 92
1
 93
9
 72
1
 10
810.8995515085
 20
142.75843446
 11
811.0289213473
 21
142.6109164316
 72
1
 10
811.0289213473
 20
142.6109164316
 11
811.1379294426
 21
142.4477824812
 72
1
 10
811.1379294426
 20
142.4477824812
 11
811.2247106358
 21
142.2717994363
 72
1
 10
811.2247106358
 20
142.2717994363
 11
778.4492855314
 21
142.0809299708
 72
1
 10
778.4492855314
 20
142.0809299708
 11
779.0028367759
 21
142.3390534178
 72
1
 10
779.0028367759
 20
142.3390534178
 11
779.5704599655
 21
142.5645542136
 72
1
 10
779.5704599655
 20
142.5645542136
 11
780.1502344657
 21
142.7566693437
 72
1
 10
780.1502344657
 20
142.7566693437
 11
810.7520334801
 21
142.8878042988
 72
1
 10
810.7520334801
 20
142.8878042988
 11
810.8995515085
 21
142.75843446
 97
1
330
28E
 75
0
 76
1
 98
1
 10
0.0
 20
0.0
  0
LWPOLYLINE
  5
290
100
AcDbEntity
  8
ALL_DETAIL_ITEM
100
AcDbPolyline
 62
4
  6
CONTINUOUS
 90
10
 70
0
 10
811.2877800766
 20
142.0860028552
 10
811.3260586292
 20
141.8935635757
 10
811.3388913372
 20
141.69776178
 10
811.3260586292
 20
141.5019849986
 10
777.0549493677
 20
141.1911721677
 10
777.4702184966
 20
141.5098175915
 10
777.9116792522
 20
141.7910572701
 10
778.4492855314
 20
142.0809299708
 10
811.2247106358
 20
142.2717994363
 10
811.2877800766
 20
142.0860028552
  0
HATCH
  5
291
100
AcDbEntity
  8
ALL_DETAIL_ITEM
100
AcDbHatch
 62
4
  6
CONTINUOUS
 10
0.0
 20
0.0
 30
0.0
210
0.0
220
0.0
230
1.0
  2
SOLID
 70
1
 71
1
 91
1
 92
1
 93
9
 72
1
 10
811.2877800766
 20
142.0860028552
 11
811.3260586292
 21
141.8935635757
 72
1
 10
811.3260586292
 20
141.8935635757
 11
811.3388913372
 21
141.69776178
 72
1
 10
811.3388913372
 20
141.69776178
 11
811.3260586292
 21
141.5019849986
 72
1
 10
811.3260586292
 20
141.5019849986
 11
777.0549493677
 21
141.1911721677
 72
1
 10
777.0549493677
 20
141.1911721677
 11
777.4702184966
 21
141.5098175915
 72
1
 10
777.4702184966
 20
141.5098175915
 11
777.9116792522
 21
141.7910572701
 72
1
 10
777.9116792522
 20
141.7910572701
 11
778.4492855314
 21
142.0809299708
 72
1
 10
778.4492855314
 20
142.0809299708
 11
811.2247106358
 21
142.2717994363
 72
1
 10
811.2247106358
 20
142.2717994363
 11
811.2877800766
 21
142.0860028552
 97
1
330
290
 75
0
 76
1
 98
1
 10
0.0
 20
0.0
  0
LWPOLYLINE
  5
292
100
AcDbEntity
  8
ALL_DETAIL_ITEM
100
AcDbPolyline
 62
4
  6
CONTINUOUS
 90
6
 70
0
 10
811.2877800766
 20
141.3095457191
 10
811.2247106358
 20
141.123749138
 10
776.669032333
 20
140.837546097
 10
777.0549493677
 20
141.1911721677
 10
811.3260586292
 20
141.5019849986
 10
811.2877800766
 20
141.3095457191
  0
HATCH
  5
293
100
AcDbEntity
  8
ALL_DETAIL_ITEM
100
AcDbHatch
 62
4
  6
CONTINUOUS
 10
0.0
 20
0.0
 30
0.0
210
0.0
220
0.0
230
1.0
  2
SOLID
 70
1
 71
1
 91
1
 92
1
 93
5
 72
1
 10
811.2877800766
 20
141.3095457191
 11
811.2247106358
 21
141.123749138
 72
1
 10
811.2247106358
 20
141.123749138
 11
776.669032333
 21
140.837546097
 72
1
 10
776.669032333
 20
140.837546097
 11
777.0549493677
 21
141.1911721677
 72
1
 10
777.0549493677
 20
141.1911721677
 11
811.3260586292
 21
141.5019849986
 72
1
 10
811.3260586292
 20
141.5019849986
 11
811.2877800766
 21
141.3095457191
 97
1
330
292
 75
0
 76
1
 98
1
 10
0.0
 20
0.0
  0
LWPOLYLINE
  5
294
100
AcDbEntity
  8
ALL_DETAIL_ITEM
100
AcDbPolyline
 62
4
  6
CONTINUOUS
 90
6
 70
0
 10
811.1379294426
 20
140.9477742864
 10
811.0289213473
 20
140.7846321427
 10
776.3154044714
 20
140.4516307033
 10
776.669032333
 20
140.837546097
 10
811.2247106358
 20
141.123749138
 10
811.1379294426
 20
140.9477742864
  0
HATCH
  5
295
100
AcDbEntity
  8
ALL_DETAIL_ITEM
100
AcDbHatch
 62
4
  6
CONTINUOUS
 10
0.0
 20
0.0
 30
0.0
210
0.0
220
0.0
230
1.0
  2
SOLID
 70
1
 71
1
 91
1
 92
1
 93
5
 72
1
 10
811.1379294426
 20
140.9477742864
 11
811.0289213473
 21
140.7846321427
 72
1
 10
811.0289213473
 20
140.7846321427
 11
776.3154044714
 21
140.4516307033
 72
1
 10
776.3154044714
 20
140.4516307033
 11
776.669032333
 21
140.837546097
 72
1
 10
776.669032333
 20
140.837546097
 11
811.2247106358
 21
141.123749138
 72
1
 10
811.2247106358
 20
141.123749138
 11
811.1379294426
 21
140.9477742864
 97
1
330
294
 75
0
 76
1
 98
1
 10
0.0
 20
0.0
  0
LWPOLYLINE
  5
296
100
AcDbEntity
  8
ALL_DETAIL_ITEM
100
AcDbPolyline
 62
4
  6
CONTINUOUS
 90
8
 70
0
 10
810.7520334801
 20
140.5077442755
 10
810.5888913364
 20
140.3987361802
 10
783.1616511214
 20
140.1977876773
 10
775.9967571204
 20
140.0363630531
 10
776.3154044714
 20
140.4516307033
 10
811.0289213473
 20
140.7846321427
 10
810.8995515085
 20
140.6371141143
 10
810.7520334801
 20
140.5077442755
  0
HATCH
  5
297
100
AcDbEntity
  8
ALL_DETAIL_ITEM
100
AcDbHatch
 62
4
  6
CONTINUOUS
 10
0.0
 20
0.0
 30
0.0
210
0.0
220
0.0
230
1.0
  2
SOLID
 70
1
 71
1
 91
1
 92
1
 93
7
 72
1
 10
810.7520334801
 20
140.5077442755
 11
810.5888913364
 21
140.3987361802
 72
1
 10
810.5888913364
 20
140.3987361802
 11
783.1616511214
 21
140.1977876773
 72
1
 10
783.1616511214
 20
140.1977876773
 11
775.9967571204
 21
140.0363630531
 72
1
 10
775.9967571204
 20
140.0363630531
 11
776.3154044714
 21
140.4516307033
 72
1
 10
776.3154044714
 20
140.4516307033
 11
811.0289213473
 21
140.7846321427
 72
1
 10
811.0289213473
 20
140.7846321427
 11
810.8995515085
 21
140.6371141143
 72
1
 10
810.8995515085
 20
140.6371141143
 11
810.7520334801
 21
140.5077442755
 97
1
330
296
 75
0
 76
1
 98
1
 10
0.0
 20
0.0
  0
LWPOLYLINE
  5
298
100
AcDbEntity
  8
ALL_DETAIL_ITEM
100
AcDbPolyline
 62
4
  6
CONTINUOUS
 90
7
 70
0
 10
810.0346806242
 20
140.2106069936
 10
809.8388913357
 20
140.1977876773
 10
783.1616511214
 20
140.1977876773
 10
810.5888913364
 20
140.3987361802
 10
810.4129164848
 20
140.311954987
 10
810.2271199037
 20
140.2488855463
 10
810.0346806242
 20
140.2106069936
  0
HATCH
  5
299
100
AcDbEntity
  8
ALL_DETAIL_ITEM
100
AcDbHatch
 62
4
  6
CONTINUOUS
 10
0.0
 20
0.0
 30
0.0
210
0.0
220
0.0
230
1.0
  2
SOLID
 70
1
 71
1
 91
1
 92
1
 93
6
 72
1
 10
810.0346806242
 20
140.2106069936
 11
809.8388913357
 21
140.1977876773
 72
1
 10
809.8388913357
 20
140.1977876773
 11
783.1616511214
 21
140.1977876773
 72
1
 10
783.1616511214
 20
140.1977876773
 11
810.5888913364
 21
140.3987361802
 72
1
 10
810.5888913364
 20
140.3987361802
 11
810.4129164848
 21
140.311954987
 72
1
 10
810.4129164848
 20
140.311954987
 11
810.2271199037
 21
140.2488855463
 72
1
 10
810.2271199037
 20
140.2488855463
 11
810.0346806242
 21
140.2106069936
 97
1
330
298
 75
0
 76
1
 98
1
 10
0.0
 20
0.0
  0
LWPOLYLINE
  5
29A
100
AcDbEntity
  8
ALL_DETAIL_ITEM
100
AcDbPolyline
 62
4
  6
CONTINUOUS
 90
15
 70
0
 10
717.8020431023
 20
140.2096206389
 10
717.6062533963
 20
140.196794302
 10
689.0081536159
 20
140.1977248817
 10
719.1063022069
 20
141.6967454928
 10
719.093463128
 20
141.500956622
 10
719.0551783134
 20
141.3085185881
 10
718.9921028269
 20
141.1227240594
 10
718.9053159075
 20
140.9467520317
 10
718.7963025036
 20
140.7836134353
 10
718.6669278647
 20
140.6360996166
 10
718.5194056266
 20
140.5067345781
 10
718.3562599359
 20
140.3977317915
 10
718.1802822606
 20
140.3109563245
 10
717.9944836273
 20
140.2478929296
 10
717.8020431023
 20
140.2096206389
  0
HATCH
  5
29B
100
AcDbEntity
  8
ALL_DETAIL_ITEM
100
AcDbHatch
 62
4
  6
CONTINUOUS
 10
0.0
 20
0.0
 30
0.0
210
0.0
220
0.0
230
1.0
  2
SOLID
 70
1
 71
1
 91
1
 92
1
 93
14
 72
1
 10
717.8020431023
 20
140.2096206389
 11
717.6062533963
 21
140.196794302
 72
1
 10
717.6062533963
 20
140.196794302
 11
689.0081536159
 21
140.1977248817
 72
1
 10
689.0081536159
 20
140.1977248817
 11
719.1063022069
 21
141.6967454928
 72
1
 10
719.1063022069
 20
141.6967454928
 11
719.093463128
 21
141.500956622
 72
1
 10
719.093463128
 20
141.500956622
 11
719.0551783134
 21
141.3085185881
 72
1
 10
719.0551783134
 20
141.3085185881
 11
718.9921028269
 21
141.1227240594
 72
1
 10
718.9921028269
 20
141.1227240594
 11
718.9053159075
 21
140.9467520317
 72
1
 10
718.9053159075
 20
140.9467520317
 11
718.7963025036
 21
140.7836134353
 72
1
 10
718.7963025036
 20
140.7836134353
 11
718.6669278647
 21
140.6360996166
 72
1
 10
718.6669278647
 20
140.6360996166
 11
718.5194056266
 21
140.5067345781
 72
1
 10
718.5194056266
 20
140.5067345781
 11
718.3562599359
 21
140.3977317915
 72
1
 10
718.3562599359
 20
140.3977317915
 11
718.1802822606
 21
140.3109563245
 72
1
 10
718.1802822606
 20
140.3109563245
 11
717.9944836273
 21
140.2478929296
 72
1
 10
717.9944836273
 20
140.2478929296
 11
717.8020431023
 21
140.2096206389
 97
1
330
29A
 75
0
 76
1
 98
1
 10
0.0
 20
0.0
  0
LWPOLYLINE
  5
29C
100
AcDbEntity
  8
ALL_DETAIL_ITEM
100
AcDbPolyline
 62
4
  6
CONTINUOUS
 90
8
 70
0
 10
781.8592974058
 20
140.0838337756
 10
781.4320421254
 20
139.9956131925
 10
775.7155153931
 20
139.5949036026
 10
775.9967571204
 20
140.0363630531
 10
783.1616511214
 20
140.1977876773
 10
782.7255674784
 20
140.1850856219
 10
782.2909593869
 20
140.1470625666
 10
781.8592974058
 20
140.0838337756
  0
HATCH
  5
29D
100
AcDbEntity
  8
ALL_DETAIL_ITEM
100
AcDbHatch
 62
4
  6
CONTINUOUS
 10
0.0
 20
0.0
 30
0.0
210
0.0
220
0.0
230
1.0
  2
SOLID
 70
1
 71
1
 91
1
 92
1
 93
7
 72
1
 10
781.8592974058
 20
140.0838337756
 11
781.4320421254
 21
139.9956131925
 72
1
 10
781.4320421254
 20
139.9956131925
 11
775.7155153931
 21
139.5949036026
 72
1
 10
775.7155153931
 20
139.5949036026
 11
775.9967571204
 21
140.0363630531
 72
1
 10
775.9967571204
 20
140.0363630531
 11
783.1616511214
 21
140.1977876773
 72
1
 10
783.1616511214
 20
140.1977876773
 11
782.7255674784
 21
140.1850856219
 72
1
 10
782.7255674784
 20
140.1850856219
 11
782.2909593869
 21
140.1470625666
 72
1
 10
782.2909593869
 20
140.1470625666
 11
781.8592974058
 21
140.0838337756
 97
1
330
29C
 75
0
 76
1
 98
1
 10
0.0
 20
0.0
  0
LWPOLYLINE
  5
29E
100
AcDbEntity
  8
ALL_DETAIL_ITEM
100
AcDbPolyline
 62
4
  6
CONTINUOUS
 90
7
 70
0
 10
780.5965145824
 20
139.7454742314
 10
780.1910694471
 20
139.5844022345
 10
775.4738197215
 20
139.1306121447
 10
775.7155153931
 20
139.5949036026
 10
781.4320421254
 20
139.9956131925
 10
781.0106392252
 20
139.8826993244
 10
780.5965145824
 20
139.7454742314
  0
HATCH
  5
29F
100
AcDbEntity
  8
ALL_DETAIL_ITEM
100
AcDbHatch
 62
4
  6
CONTINUOUS
 10
0.0
 20
0.0
 30
0.0
210
0.0
220
0.0
230
1.0
  2
SOLID
 70
1
 71
1
 91
1
 92
1
 93
6
 72
1
 10
780.5965145824
 20
139.7454742314
 11
780.1910694471
 21
139.5844022345
 72
1
 10
780.1910694471
 20
139.5844022345
 11
775.4738197215
 21
139.1306121447
 72
1
 10
775.4738197215
 20
139.1306121447
 11
775.7155153931
 21
139.5949036026
 72
1
 10
775.7155153931
 20
139.5949036026
 11
781.4320421254
 21
139.9956131925
 72
1
 10
781.4320421254
 20
139.9956131925
 11
781.0106392252
 21
139.8826993244
 72
1
 10
781.0106392252
 20
139.8826993244
 11
780.5965145824
 21
139.7454742314
 97
1
330
29E
 75
0
 76
1
 98
1
 10
0.0
 20
0.0
  0
LWPOLYLINE
  5
2A0
100
AcDbEntity
  8
ALL_DETAIL_ITEM
100
AcDbPolyline
 62
4
  6
CONTINUOUS
 90
7
 70
0
 10
779.411671216
 20
139.1929764149
 10
779.1909408386
 20
139.0523565757
 10
775.2735095664
 20
138.6470222385
 10
775.4738197215
 20
139.1306121447
 10
780.1910694471
 20
139.5844022345
 10
779.7956757012
 20
139.4000283438
 10
779.411671216
 20
139.1929764149
  0
HATCH
  5
2A1
100
AcDbEntity
  8
ALL_DETAIL_ITEM
100
AcDbHatch
 62
4
  6
CONTINUOUS
 10
0.0
 20
0.0
 30
0.0
210
0.0
220
0.0
230
1.0
  2
SOLID
 70
1
 71
1
 91
1
 92
1
 93
6
 72
1
 10
779.411671216
 20
139.1929764149
 11
779.1909408386
 21
139.0523565757
 72
1
 10
779.1909408386
 20
139.0523565757
 11
775.2735095664
 21
138.6470222385
 72
1
 10
775.2735095664
 20
138.6470222385
 11
775.4738197215
 21
139.1306121447
 72
1
 10
775.4738197215
 20
139.1306121447
 11
780.1910694471
 21
139.5844022345
 72
1
 10
780.1910694471
 20
139.5844022345
 11
779.7956757012
 21
139.4000283438
 72
1
 10
779.7956757012
 20
139.4000283438
 11
779.411671216
 21
139.1929764149
 97
1
330
2A0
 75
0
 76
1
 98
1
 10
0.0
 20
0.0
  0
LWPOLYLINE
  5
2A2
100
AcDbEntity
  8
ALL_DETAIL_ITEM
100
AcDbPolyline
 62
4
  6
CONTINUOUS
 90
7
 70
0
 10
778.790347757
 20
138.7162208286
 10
778.6135338263
 20
138.5232631319
 10
775.1161094182
 20
138.147814317
 10
775.2735095664
 20
138.6470222385
 10
779.1909408386
 20
139.0523565757
 10
778.9833062743
 20
138.8930338638
 10
778.790347757
 20
138.7162208286
  0
HATCH
  5
2A3
100
AcDbEntity
  8
ALL_DETAIL_ITEM
100
AcDbHatch
 62
4
  6
CONTINUOUS
 10
0.0
 20
0.0
 30
0.0
210
0.0
220
0.0
230
1.0
  2
SOLID
 70
1
 71
1
 91
1
 92
1
 93
6
 72
1
 10
778.790347757
 20
138.7162208286
 11
778.6135338263
 21
138.5232631319
 72
1
 10
778.6135338263
 20
138.5232631319
 11
775.1161094182
 21
138.147814317
 72
1
 10
775.1161094182
 20
138.147814317
 11
775.2735095664
 21
138.6470222385
 72
1
 10
775.2735095664
 20
138.6470222385
 11
779.1909408386
 21
139.0523565757
 72
1
 10
779.1909408386
 20
139.0523565757
 11
778.9833062743
 21
138.8930338638
 72
1
 10
778.9833062743
 20
138.8930338638
 11
778.790347757
 21
138.7162208286
 97
1
330
2A2
 75
0
 76
1
 98
1
 10
0.0
 20
0.0
  0
LWPOLYLINE
  5
2A4
100
AcDbEntity
  8
ALL_DETAIL_ITEM
100
AcDbPolyline
 62
4
  6
CONTINUOUS
 90
6
 70
0
 10
778.4542101509
 20
138.3156293069
 10
778.3135892874
 20
138.0948995818
 10
775.0028171939
 20
137.6367876763
 10
775.1161094182
 20
138.147814317
 10
778.6135338263
 20
138.5232631319
 10
778.4542101509
 20
138.3156293069
  0
HATCH
  5
2A5
100
AcDbEntity
  8
ALL_DETAIL_ITEM
100
AcDbHatch
 62
4
  6
CONTINUOUS
 10
0.0
 20
0.0
 30
0.0
210
0.0
220
0.0
230
1.0
  2
SOLID
 70
1
 71
1
 91
1
 92
1
 93
5
 72
1
 10
778.4542101509
 20
138.3156293069
 11
778.3135892874
 21
138.0948995818
 72
1
 10
778.3135892874
 20
138.0948995818
 11
775.0028171939
 21
137.6367876763
 72
1
 10
775.0028171939
 20
137.6367876763
 11
775.1161094182
 21
138.147814317
 72
1
 10
775.1161094182
 20
138.147814317
 11
778.6135338263
 21
138.5232631319
 72
1
 10
778.6135338263
 20
138.5232631319
 11
778.4542101509
 21
138.3156293069
 97
1
330
2A4
 75
0
 76
1
 98
1
 10
0.0
 20
0.0
  0
LWPOLYLINE
  5
2A6
100
AcDbEntity
  8
ALL_DETAIL_ITEM
100
AcDbPolyline
 62
4
  6
CONTINUOUS
 90
6
 70
0
 10
778.1927414517
 20
137.862753853
 10
778.0925863742
 20
137.6209589001
 10
774.934495121
 20
137.1178315607
 10
775.0028171939
 20
137.6367876763
 10
778.3135892874
 20
138.0948995818
 10
778.1927414517
 20
137.862753853
  0
HATCH
  5
2A7
100
AcDbEntity
  8
ALL_DETAIL_ITEM
100
AcDbHatch
 62
4
  6
CONTINUOUS
 10
0.0
 20
0.0
 30
0.0
210
0.0
220
0.0
230
1.0
  2
SOLID
 70
1
 71
1
 91
1
 92
1
 93
5
 72
1
 10
778.1927414517
 20
137.862753853
 11
778.0925863742
 21
137.6209589001
 72
1
 10
778.0925863742
 20
137.6209589001
 11
774.934495121
 21
137.1178315607
 72
1
 10
774.934495121
 20
137.1178315607
 11
775.0028171939
 21
137.6367876763
 72
1
 10
775.0028171939
 20
137.6367876763
 11
778.3135892874
 21
138.0948995818
 72
1
 10
778.3135892874
 20
138.0948995818
 11
778.1927414517
 21
137.862753853
 97
1
330
2A6
 75
0
 76
1
 98
1
 10
0.0
 20
0.0
  0
LWPOLYLINE
  5
2A8
100
AcDbEntity
  8
ALL_DETAIL_ITEM
100
AcDbPolyline
 62
4
  6
CONTINUOUS
 90
6
 70
0
 10
778.0138863001
 20
137.3713549395
 10
777.957240188
 20
137.1158416193
 10
774.9116631747
 20
136.5949021072
 10
774.934495121
 20
137.1178315607
 10
778.0925863742
 20
137.6209589001
 10
778.0138863001
 20
137.3713549395
  0
HATCH
  5
2A9
100
AcDbEntity
  8
ALL_DETAIL_ITEM
100
AcDbHatch
 62
4
  6
CONTINUOUS
 10
0.0
 20
0.0
 30
0.0
210
0.0
220
0.0
230
1.0
  2
SOLID
 70
1
 71
1
 91
1
 92
1
 93
5
 72
1
 10
778.0138863001
 20
137.3713549395
 11
777.957240188
 21
137.1158416193
 72
1
 10
777.957240188
 20
137.1158416193
 11
774.9116631747
 21
136.5949021072
 72
1
 10
774.9116631747
 20
136.5949021072
 11
774.934495121
 21
137.1178315607
 72
1
 10
774.934495121
 20
137.1178315607
 11
778.0925863742
 21
137.6209589001
 72
1
 10
778.0925863742
 20
137.6209589001
 11
778.0138863001
 21
137.3713549395
 97
1
330
2A8
 75
0
 76
1
 98
1
 10
0.0
 20
0.0
  0
LWPOLYLINE
  5
2AA
100
AcDbEntity
  8
ALL_DETAIL_ITEM
100
AcDbPolyline
 62
4
  6
CONTINUOUS
 90
8
 70
0
 10
777.9230791516
 20
136.8563635617
 10
777.9116631784
 20
136.5949021072
 10
777.9116631784
 20
132.0926579619
 10
774.934495121
 20
131.5697207679
 10
774.9116631747
 20
132.0926579619
 10
774.9116631747
 20
136.5949021072
 10
777.957240188
 20
137.1158416193
 10
777.9230791516
 20
136.8563635617
  0
HATCH
  5
2AB
100
AcDbEntity
  8
ALL_DETAIL_ITEM
100
AcDbHatch
 62
4
  6
CONTINUOUS
 10
0.0
 20
0.0
 30
0.0
210
0.0
220
0.0
230
1.0
  2
SOLID
 70
1
 71
1
 91
1
 92
1
 93
7
 72
1
 10
777.9230791516
 20
136.8563635617
 11
777.9116631784
 21
136.5949021072
 72
1
 10
777.9116631784
 20
136.5949021072
 11
777.9116631784
 21
132.0926579619
 72
1
 10
777.9116631784
 20
132.0926579619
 11
774.934495121
 21
131.5697207679
 72
1
 10
774.934495121
 20
131.5697207679
 11
774.9116631747
 21
132.0926579619
 72
1
 10
774.9116631747
 20
132.0926579619
 11
774.9116631747
 21
136.5949021072
 72
1
 10
774.9116631747
 20
136.5949021072
 11
777.957240188
 21
137.1158416193
 72
1
 10
777.957240188
 20
137.1158416193
 11
777.9230791516
 21
136.8563635617
 97
1
330
2AA
 75
0
 76
1
 98
1
 10
0.0
 20
0.0
  0
LWPOLYLINE
  5
2AC
100
AcDbEntity
  8
ALL_DETAIL_ITEM
100
AcDbPolyline
 62
4
  6
CONTINUOUS
 90
7
 70
0
 10
777.957240188
 20
131.5717107093
 10
778.0138863001
 20
131.3161973891
 10
775.0028171939
 20
131.0507646523
 10
774.934495121
 20
131.5697207679
 10
777.9116631784
 20
132.0926579619
 10
777.9230791516
 20
131.8311887669
 10
777.957240188
 20
131.5717107093
  0
HATCH
  5
2AD
100
AcDbEntity
  8
ALL_DETAIL_ITEM
100
AcDbHatch
 62
4
  6
CONTINUOUS
 10
0.0
 20
0.0
 30
0.0
210
0.0
220
0.0
230
1.0
  2
SOLID
 70
1
 71
1
 91
1
 92
1
 93
6
 72
1
 10
777.957240188
 20
131.5717107093
 11
778.0138863001
 21
131.3161973891
 72
1
 10
778.0138863001
 20
131.3161973891
 11
775.0028171939
 21
131.0507646523
 72
1
 10
775.0028171939
 20
131.0507646523
 11
774.934495121
 21
131.5697207679
 72
1
 10
774.934495121
 20
131.5697207679
 11
777.9116631784
 21
132.0926579619
 72
1
 10
777.9116631784
 20
132.0926579619
 11
777.9230791516
 21
131.8311887669
 72
1
 10
777.9230791516
 20
131.8311887669
 11
777.957240188
 21
131.5717107093
 97
1
330
2AC
 75
0
 76
1
 98
1
 10
0.0
 20
0.0
  0
LWPOLYLINE
  5
2AE
100
AcDbEntity
  8
ALL_DETAIL_ITEM
100
AcDbPolyline
 62
4
  6
CONTINUOUS
 90
6
 70
0
 10
778.0925863742
 20
131.0665934285
 10
778.1927414517
 20
130.8247984756
 10
775.1161094182
 20
130.5397380116
 10
775.0028171939
 20
131.0507646523
 10
778.0138863001
 20
131.3161973891
 10
778.0925863742
 20
131.0665934285
  0
HATCH
  5
2AF
100
AcDbEntity
  8
ALL_DETAIL_ITEM
100
AcDbHatch
 62
4
  6
CONTINUOUS
 10
0.0
 20
0.0
 30
0.0
210
0.0
220
0.0
230
1.0
  2
SOLID
 70
1
 71
1
 91
1
 92
1
 93
5
 72
1
 10
778.0925863742
 20
131.0665934285
 11
778.1927414517
 21
130.8247984756
 72
1
 10
778.1927414517
 20
130.8247984756
 11
775.1161094182
 21
130.5397380116
 72
1
 10
775.1161094182
 20
130.5397380116
 11
775.0028171939
 21
131.0507646523
 72
1
 10
775.0028171939
 20
131.0507646523
 11
778.0138863001
 21
131.3161973891
 72
1
 10
778.0138863001
 20
131.3161973891
 11
778.0925863742
 21
131.0665934285
 97
1
330
2AE
 75
0
 76
1
 98
1
 10
0.0
 20
0.0
  0
LWPOLYLINE
  5
2B0
100
AcDbEntity
  8
ALL_DETAIL_ITEM
100
AcDbPolyline
 62
4
  6
CONTINUOUS
 90
6
 70
0
 10
778.3135892874
 20
130.5926527468
 10
778.4542101509
 20
130.3719230217
 10
775.2735095664
 20
130.0405300901
 10
775.1161094182
 20
130.5397380116
 10
778.1927414517
 20
130.8247984756
 10
778.3135892874
 20
130.5926527468
  0
HATCH
  5
2B1
100
AcDbEntity
  8
ALL_DETAIL_ITEM
100
AcDbHatch
 62
4
  6
CONTINUOUS
 10
0.0
 20
0.0
 30
0.0
210
0.0
220
0.0
230
1.0
  2
SOLID
 70
1
 71
1
 91
1
 92
1
 93
5
 72
1
 10
778.3135892874
 20
130.5926527468
 11
778.4542101509
 21
130.3719230217
 72
1
 10
778.4542101509
 20
130.3719230217
 11
775.2735095664
 21
130.0405300901
 72
1
 10
775.2735095664
 20
130.0405300901
 11
775.1161094182
 21
130.5397380116
 72
1
 10
775.1161094182
 20
130.5397380116
 11
778.1927414517
 21
130.8247984756
 72
1
 10
778.1927414517
 20
130.8247984756
 11
778.3135892874
 21
130.5926527468
 97
1
330
2B0
 75
0
 76
1
 98
1
 10
0.0
 20
0.0
  0
LWPOLYLINE
  5
2B2
100
AcDbEntity
  8
ALL_DETAIL_ITEM
100
AcDbPolyline
 62
4
  6
CONTINUOUS
 90
6
 70
0
 10
778.6135338263
 20
130.1642891967
 10
778.790347757
 20
129.9713315
 10
775.4738197215
 20
129.5569401839
 10
775.2735095664
 20
130.0405300901
 10
778.4542101509
 20
130.3719230217
 10
778.6135338263
 20
130.1642891967
  0
HATCH
  5
2B3
100
AcDbEntity
  8
ALL_DETAIL_ITEM
100
AcDbHatch
 62
4
  6
CONTINUOUS
 10
0.0
 20
0.0
 30
0.0
210
0.0
220
0.0
230
1.0
  2
SOLID
 70
1
 71
1
 91
1
 92
1
 93
5
 72
1
 10
778.6135338263
 20
130.1642891967
 11
778.790347757
 21
129.9713315
 72
1
 10
778.790347757
 20
129.9713315
 11
775.4738197215
 21
129.5569401839
 72
1
 10
775.4738197215
 20
129.5569401839
 11
775.2735095664
 21
130.0405300901
 72
1
 10
775.2735095664
 20
130.0405300901
 11
778.4542101509
 21
130.3719230217
 72
1
 10
778.4542101509
 20
130.3719230217
 11
778.6135338263
 21
130.1642891967
 97
1
330
2B2
 75
0
 76
1
 98
1
 10
0.0
 20
0.0
  0
LWPOLYLINE
  5
2B4
100
AcDbEntity
  8
ALL_DETAIL_ITEM
100
AcDbPolyline
 62
4
  6
CONTINUOUS
 90
7
 70
0
 10
779.1909408386
 20
129.6351957529
 10
779.4116712163
 20
129.4945759137
 10
775.7155153931
 20
129.092648726
 10
775.4738197215
 20
129.5569401839
 10
778.790347757
 20
129.9713315
 10
778.9833062743
 20
129.7945184647
 10
779.1909408386
 20
129.6351957529
  0
HATCH
  5
2B5
100
AcDbEntity
  8
ALL_DETAIL_ITEM
100
AcDbHatch
 62
4
  6
CONTINUOUS
 10
0.0
 20
0.0
 30
0.0
210
0.0
220
0.0
230
1.0
  2
SOLID
 70
1
 71
1
 91
1
 92
1
 93
6
 72
1
 10
779.1909408386
 20
129.6351957529
 11
779.4116712163
 21
129.4945759137
 72
1
 10
779.4116712163
 20
129.4945759137
 11
775.7155153931
 21
129.092648726
 72
1
 10
775.7155153931
 20
129.092648726
 11
775.4738197215
 21
129.5569401839
 72
1
 10
775.4738197215
 20
129.5569401839
 11
778.790347757
 21
129.9713315
 72
1
 10
778.790347757
 20
129.9713315
 11
778.9833062743
 21
129.7945184647
 72
1
 10
778.9833062743
 20
129.7945184647
 11
779.1909408386
 21
129.6351957529
 97
1
330
2B4
 75
0
 76
1
 98
1
 10
0.0
 20
0.0
  0
LWPOLYLINE
  5
2B6
100
AcDbEntity
  8
ALL_DETAIL_ITEM
100
AcDbPolyline
 62
4
  6
CONTINUOUS
 90
7
 70
0
 10
780.1910694471
 20
129.1031500941
 10
780.5965145824
 20
128.9420780971
 10
775.9967571204
 20
128.6511892755
 10
775.7155153931
 20
129.092648726
 10
779.4116712163
 20
129.4945759137
 10
779.7956757012
 20
129.2875239847
 10
780.1910694471
 20
129.1031500941
  0
HATCH
  5
2B7
100
AcDbEntity
  8
ALL_DETAIL_ITEM
100
AcDbHatch
 62
4
  6
CONTINUOUS
 10
0.0
 20
0.0
 30
0.0
210
0.0
220
0.0
230
1.0
  2
SOLID
 70
1
 71
1
 91
1
 92
1
 93
6
 72
1
 10
780.1910694471
 20
129.1031500941
 11
780.5965145824
 21
128.9420780971
 72
1
 10
780.5965145824
 20
128.9420780971
 11
775.9967571204
 21
128.6511892755
 72
1
 10
775.9967571204
 20
128.6511892755
 11
775.7155153931
 21
129.092648726
 72
1
 10
775.7155153931
 20
129.092648726
 11
779.4116712163
 21
129.4945759137
 72
1
 10
779.4116712163
 20
129.4945759137
 11
779.7956757012
 21
129.2875239847
 72
1
 10
779.7956757012
 20
129.2875239847
 11
780.1910694471
 21
129.1031500941
 97
1
330
2B6
 75
0
 76
1
 98
1
 10
0.0
 20
0.0
  0
LWPOLYLINE
  5
2B8
100
AcDbEntity
  8
ALL_DETAIL_ITEM
100
AcDbPolyline
 62
4
  6
CONTINUOUS
 90
7
 70
0
 10
781.4320421254
 20
128.6919391361
 10
781.8592974058
 20
128.603718553
 10
776.3154044714
 20
128.2359216253
 10
775.9967571204
 20
128.6511892755
 10
780.5965145824
 20
128.9420780971
 10
781.0106392252
 20
128.8048530042
 10
781.4320421254
 20
128.6919391361
  0
HATCH
  5
2B9
100
AcDbEntity
  8
ALL_DETAIL_ITEM
100
AcDbHatch
 62
4
  6
CONTINUOUS
 10
0.0
 20
0.0
 30
0.0
210
0.0
220
0.0
230
1.0
  2
SOLID
 70
1
 71
1
 91
1
 92
1
 93
6
 72
1
 10
781.4320421254
 20
128.6919391361
 11
781.8592974058
 21
128.603718553
 72
1
 10
781.8592974058
 20
128.603718553
 11
776.3154044714
 21
128.2359216253
 72
1
 10
776.3154044714
 20
128.2359216253
 11
775.9967571204
 21
128.6511892755
 72
1
 10
775.9967571204
 20
128.6511892755
 11
780.5965145824
 21
128.9420780971
 72
1
 10
780.5965145824
 20
128.9420780971
 11
781.0106392252
 21
128.8048530042
 72
1
 10
781.0106392252
 20
128.8048530042
 11
781.4320421254
 21
128.6919391361
 97
1
330
2B8
 75
0
 76
1
 98
1
 10
0.0
 20
0.0
  0
LWPOLYLINE
  5
2BA
100
AcDbEntity
  8
ALL_DETAIL_ITEM
100
AcDbPolyline
 62
4
  6
CONTINUOUS
 90
8
 70
0
 10
804.9179830129
 20
128.490815536
 10
805.5285001151
 20
128.4730544795
 10
776.3154044714
 20
128.2359216253
 10
781.8592974058
 20
128.603718553
 10
782.2909593869
 20
128.540489762
 10
782.7255674783
 20
128.5024667067
 10
783.1616511214
 20
128.4897780437
 10
804.9179830129
 20
128.490815536
  0
HATCH
  5
2BB
100
AcDbEntity
  8
ALL_DETAIL_ITEM
100
AcDbHatch
 62
4
  6
CONTINUOUS
 10
0.0
 20
0.0
 30
0.0
210
0.0
220
0.0
230
1.0
  2
SOLID
 70
1
 71
1
 91
1
 92
1
 93
7
 72
1
 10
804.9179830129
 20
128.490815536
 11
805.5285001151
 21
128.4730544795
 72
1
 10
805.5285001151
 20
128.4730544795
 11
776.3154044714
 21
128.2359216253
 72
1
 10
776.3154044714
 20
128.2359216253
 11
781.8592974058
 21
128.603718553
 72
1
 10
781.8592974058
 20
128.603718553
 11
782.2909593869
 21
128.540489762
 72
1
 10
782.2909593869
 20
128.540489762
 11
782.7255674783
 21
128.5024667067
 72
1
 10
782.7255674783
 20
128.5024667067
 11
783.1616511214
 21
128.4897780437
 72
1
 10
783.1616511214
 20
128.4897780437
 11
804.9179830129
 21
128.490815536
 97
1
330
2BA
 75
0
 76
1
 98
1
 10
0.0
 20
0.0
  0
LWPOLYLINE
  5
2BC
100
AcDbEntity
  8
ALL_DETAIL_ITEM
100
AcDbPolyline
 62
4
  6
CONTINUOUS
 90
7
 70
0
 10
806.7412782204
 20
128.3313018939
 10
807.3394356148
 20
128.2077930768
 10
776.669032333
 20
127.8500062316
 10
776.3154044714
 20
128.2359216253
 10
805.5285001151
 20
128.4730544795
 10
806.1369514451
 20
128.4198222018
 10
806.7412782204
 20
128.3313018939
  0
HATCH
  5
2BD
100
AcDbEntity
  8
ALL_DETAIL_ITEM
100
AcDbHatch
 62
4
  6
CONTINUOUS
 10
0.0
 20
0.0
 30
0.0
210
0.0
220
0.0
230
1.0
  2
SOLID
 70
1
 71
1
 91
1
 92
1
 93
6
 72
1
 10
806.7412782204
 20
128.3313018939
 11
807.3394356148
 21
128.2077930768
 72
1
 10
807.3394356148
 20
128.2077930768
 11
776.669032333
 21
127.8500062316
 72
1
 10
776.669032333
 20
127.8500062316
 11
776.3154044714
 21
128.2359216253
 72
1
 10
776.3154044714
 20
128.2359216253
 11
805.5285001151
 21
128.4730544795
 72
1
 10
805.5285001151
 20
128.4730544795
 11
806.1369514451
 21
128.4198222018
 72
1
 10
806.1369514451
 20
128.4198222018
 11
806.7412782204
 21
128.3313018939
 97
1
330
2BC
 75
0
 76
1
 98
1
 10
0.0
 20
0.0
  0
LWPOLYLINE
  5
2BE
100
AcDbEntity
  8
ALL_DETAIL_ITEM
100
AcDbPolyline
 62
4
  6
CONTINUOUS
 90
50
 70
0
 10
808.5091741785
 20
127.8575985293
 10
809.0767973694
 20
127.6320977323
 10
809.6303486152
 20
127.3739742839
 10
810.1679548957
 20
127.0841015817
 10
810.6094156503
 20
126.8028619024
 10
811.0246847783
 20
126.4842164784
 10
811.4106018121
 20
126.1305904078
 10
811.7642296727
 20
125.7446750143
 10
812.0828770229
 20
125.3294073644
 10
812.3641187494
 20
124.8879479143
 10
812.6058144204
 20
124.4236564569
 10
812.8061245749
 20
123.9400665513
 10
812.9635247228
 20
123.4408586304
 10
813.0768169467
 20
122.9298319904
 10
813.1451390194
 20
122.4108758755
 10
810.1223939525
 20
122.4088859341
 10
810.0657478405
 20
122.6643992539
 10
809.9870477666
 20
122.9140032142
 10
809.8868926894
 20
123.1557981669
 10
809.766044854
 20
123.3879438954
 10
809.6254239909
 20
123.6086736203
 10
809.4661003159
 20
123.8163074451
 10
809.2892863857
 20
124.0092651418
 10
809.0963278689
 20
124.186078177
 10
808.888693305
 20
124.3454008889
 10
808.6679629279
 20
124.4860207282
 10
808.2839584419
 20
124.6930726587
 10
807.8885646951
 20
124.8774465504
 10
807.4831195588
 20
125.0385185482
 10
807.068994915
 20
125.1757436419
 10
806.6475920137
 20
125.2886575106
 10
806.2203367321
 20
125.3768780942
 10
805.7886747499
 20
125.4401068856
 10
805.3540666572
 20
125.478129941
 10
804.9179830129
 20
125.490800031
 10
782.5511340209
 20
125.5075421682
 10
781.9426826926
 20
125.5607744456
 10
781.3383559189
 20
125.6492947531
 10
780.7401985261
 20
125.7728035694
 10
780.1502344656
 20
125.9308829849
 10
779.5704599655
 20
126.122998115
 10
779.0028367759
 20
126.3484989108
 10
778.4492855314
 20
126.6066223578
 10
777.911679252
 20
126.8964950585
 10
777.4702184966
 20
127.1777347371
 10
777.0549493677
 20
127.4963801609
 10
776.669032333
 20
127.8500062316
 10
807.3394356148
 20
128.2077930768
 10
807.9293996769
 20
128.0497136605
 10
808.5091741785
 20
127.8575985293
  0
HATCH
  5
2BF
100
AcDbEntity
  8
ALL_DETAIL_ITEM
100
AcDbHatch
 62
4
  6
CONTINUOUS
 10
0.0
 20
0.0
 30
0.0
210
0.0
220
0.0
230
1.0
  2
SOLID
 70
1
 71
1
 91
1
 92
1
 93
49
 72
1
 10
808.5091741785
 20
127.8575985293
 11
809.0767973694
 21
127.6320977323
 72
1
 10
809.0767973694
 20
127.6320977323
 11
809.6303486152
 21
127.3739742839
 72
1
 10
809.6303486152
 20
127.3739742839
 11
810.1679548957
 21
127.0841015817
 72
1
 10
810.1679548957
 20
127.0841015817
 11
810.6094156503
 21
126.8028619024
 72
1
 10
810.6094156503
 20
126.8028619024
 11
811.0246847783
 21
126.4842164784
 72
1
 10
811.0246847783
 20
126.4842164784
 11
811.4106018121
 21
126.1305904078
 72
1
 10
811.4106018121
 20
126.1305904078
 11
811.7642296727
 21
125.7446750143
 72
1
 10
811.7642296727
 20
125.7446750143
 11
812.0828770229
 21
125.3294073644
 72
1
 10
812.0828770229
 20
125.3294073644
 11
812.3641187494
 21
124.8879479143
 72
1
 10
812.3641187494
 20
124.8879479143
 11
812.6058144204
 21
124.4236564569
 72
1
 10
812.6058144204
 20
124.4236564569
 11
812.8061245749
 21
123.9400665513
 72
1
 10
812.8061245749
 20
123.9400665513
 11
812.9635247228
 21
123.4408586304
 72
1
 10
812.9635247228
 20
123.4408586304
 11
813.0768169467
 21
122.9298319904
 72
1
 10
813.0768169467
 20
122.9298319904
 11
813.1451390194
 21
122.4108758755
 72
1
 10
813.1451390194
 20
122.4108758755
 11
810.1223939525
 21
122.4088859341
 72
1
 10
810.1223939525
 20
122.4088859341
 11
810.0657478405
 21
122.6643992539
 72
1
 10
810.0657478405
 20
122.6643992539
 11
809.9870477666
 21
122.9140032142
 72
1
 10
809.9870477666
 20
122.9140032142
 11
809.8868926894
 21
123.1557981669
 72
1
 10
809.8868926894
 20
123.1557981669
 11
809.766044854
 21
123.3879438954
 72
1
 10
809.766044854
 20
123.3879438954
 11
809.6254239909
 21
123.6086736203
 72
1
 10
809.6254239909
 20
123.6086736203
 11
809.4661003159
 21
123.8163074451
 72
1
 10
809.4661003159
 20
123.8163074451
 11
809.2892863857
 21
124.0092651418
 72
1
 10
809.2892863857
 20
124.0092651418
 11
809.0963278689
 21
124.186078177
 72
1
 10
809.0963278689
 20
124.186078177
 11
808.888693305
 21
124.3454008889
 72
1
 10
808.888693305
 20
124.3454008889
 11
808.6679629279
 21
124.4860207282
 72
1
 10
808.6679629279
 20
124.4860207282
 11
808.2839584419
 21
124.6930726587
 72
1
 10
808.2839584419
 20
124.6930726587
 11
807.8885646951
 21
124.8774465504
 72
1
 10
807.8885646951
 20
124.8774465504
 11
807.4831195588
 21
125.0385185482
 72
1
 10
807.4831195588
 20
125.0385185482
 11
807.068994915
 21
125.1757436419
 72
1
 10
807.068994915
 20
125.1757436419
 11
806.6475920137
 21
125.2886575106
 72
1
 10
806.6475920137
 20
125.2886575106
 11
806.2203367321
 21
125.3768780942
 72
1
 10
806.2203367321
 20
125.3768780942
 11
805.7886747499
 21
125.4401068856
 72
1
 10
805.7886747499
 20
125.4401068856
 11
805.3540666572
 21
125.478129941
 72
1
 10
805.3540666572
 20
125.478129941
 11
804.9179830129
 21
125.490800031
 72
1
 10
804.9179830129
 20
125.490800031
 11
782.5511340209
 21
125.5075421682
 72
1
 10
782.5511340209
 20
125.5075421682
 11
781.9426826926
 21
125.5607744456
 72
1
 10
781.9426826926
 20
125.5607744456
 11
781.3383559189
 21
125.6492947531
 72
1
 10
781.3383559189
 20
125.6492947531
 11
780.7401985261
 21
125.7728035694
 72
1
 10
780.7401985261
 20
125.7728035694
 11
780.1502344656
 21
125.9308829849
 72
1
 10
780.1502344656
 20
125.9308829849
 11
779.5704599655
 21
126.122998115
 72
1
 10
779.5704599655
 20
126.122998115
 11
779.0028367759
 21
126.3484989108
 72
1
 10
779.0028367759
 20
126.3484989108
 11
778.4492855314
 21
126.6066223578
 72
1
 10
778.4492855314
 20
126.6066223578
 11
777.911679252
 21
126.8964950585
 72
1
 10
777.911679252
 20
126.8964950585
 11
777.4702184966
 21
127.1777347371
 72
1
 10
777.4702184966
 20
127.1777347371
 11
777.0549493677
 21
127.4963801609
 72
1
 10
777.0549493677
 20
127.4963801609
 11
776.669032333
 21
127.8500062316
 72
1
 10
776.669032333
 20
127.8500062316
 11
807.3394356148
 21
128.2077930768
 72
1
 10
807.3394356148
 20
128.2077930768
 11
807.9293996769
 21
128.0497136605
 72
1
 10
807.9293996769
 20
128.0497136605
 11
808.5091741785
 21
127.8575985293
 97
1
330
2BE
 75
0
 76
1
 98
1
 10
0.0
 20
0.0
  0
LWPOLYLINE
  5
2C0
100
AcDbEntity
  8
ALL_DETAIL_ITEM
100
AcDbPolyline
 62
4
  6
CONTINUOUS
 90
30
 70
0
 10
716.3597683667
 20
125.5036486204
 10
716.1639790782
 20
125.490800031
 10
689.0081536159
 20
125.490800031
 10
686.0081536159
 20
112.2857954544
 10
689.0081536159
 20
140.1977248817
 10
689.0081536159
 20
128.490815536
 10
716.1639790782
 20
128.490815536
 10
716.3597683667
 20
128.4779832075
 10
716.5522076462
 20
128.4397046548
 10
716.7380042273
 20
128.3766352141
 10
716.9139790789
 20
128.2898540209
 10
717.0771212226
 20
128.1808459255
 10
717.224639251
 20
128.0514760868
 10
717.3540090898
 20
127.9039580583
 10
717.4630171851
 20
127.7408159147
 10
717.5497983783
 20
127.564841063
 10
717.612867819
 20
127.379044482
 10
717.6511463717
 20
127.1866052024
 10
717.6639790797
 20
126.9908159139
 10
717.6511463717
 20
126.7950266254
 10
717.612867819
 20
126.6025873459
 10
717.5497983783
 20
126.4167907648
 10
717.4630171851
 20
126.2408159132
 10
717.3540090898
 20
126.0776737695
 10
717.224639251
 20
125.9301557411
 10
717.0771212226
 20
125.8007859023
 10
716.9139790789
 20
125.6917778069
 10
716.7380042273
 20
125.6049966138
 10
716.5522076462
 20
125.541927173
 10
716.3597683667
 20
125.5036486204
  0
HATCH
  5
2C1
100
AcDbEntity
  8
ALL_DETAIL_ITEM
100
AcDbHatch
 62
4
  6
CONTINUOUS
 10
0.0
 20
0.0
 30
0.0
210
0.0
220
0.0
230
1.0
  2
SOLID
 70
1
 71
1
 91
1
 92
1
 93
29
 72
1
 10
716.3597683667
 20
125.5036486204
 11
716.1639790782
 21
125.490800031
 72
1
 10
716.1639790782
 20
125.490800031
 11
689.0081536159
 21
125.490800031
 72
1
 10
689.0081536159
 20
125.490800031
 11
686.0081536159
 21
112.2857954544
 72
1
 10
686.0081536159
 20
112.2857954544
 11
689.0081536159
 21
140.1977248817
 72
1
 10
689.0081536159
 20
140.1977248817
 11
689.0081536159
 21
128.490815536
 72
1
 10
689.0081536159
 20
128.490815536
 11
716.1639790782
 21
128.490815536
 72
1
 10
716.1639790782
 20
128.490815536
 11
716.3597683667
 21
128.4779832075
 72
1
 10
716.3597683667
 20
128.4779832075
 11
716.5522076462
 21
128.4397046548
 72
1
 10
716.5522076462
 20
128.4397046548
 11
716.7380042273
 21
128.3766352141
 72
1
 10
716.7380042273
 20
128.3766352141
 11
716.9139790789
 21
128.2898540209
 72
1
 10
716.9139790789
 20
128.2898540209
 11
717.0771212226
 21
128.1808459255
 72
1
 10
717.0771212226
 20
128.1808459255
 11
717.224639251
 21
128.0514760868
 72
1
 10
717.224639251
 20
128.0514760868
 11
717.3540090898
 21
127.9039580583
 72
1
 10
717.3540090898
 20
127.9039580583
 11
717.4630171851
 21
127.7408159147
 72
1
 10
717.4630171851
 20
127.7408159147
 11
717.5497983783
 21
127.564841063
 72
1
 10
717.5497983783
 20
127.564841063
 11
717.612867819
 21
127.379044482
 72
1
 10
717.612867819
 20
127.379044482
 11
717.6511463717
 21
127.1866052024
 72
1
 10
717.6511463717
 20
127.1866052024
 11
717.6639790797
 21
126.9908159139
 72
1
 10
717.6639790797
 20
126.9908159139
 11
717.6511463717
 21
126.7950266254
 72
1
 10
717.6511463717
 20
126.7950266254
 11
717.612867819
 21
126.6025873459
 72
1
 10
717.612867819
 20
126.6025873459
 11
717.5497983783
 21
126.4167907648
 72
1
 10
717.5497983783
 20
126.4167907648
 11
717.4630171851
 21
126.2408159132
 72
1
 10
717.4630171851
 20
126.2408159132
 11
717.3540090898
 21
126.0776737695
 72
1
 10
717.3540090898
 20
126.0776737695
 11
717.224639251
 21
125.9301557411
 72
1
 10
717.224639251
 20
125.9301557411
 11
717.0771212226
 21
125.8007859023
 72
1
 10
717.0771212226
 20
125.8007859023
 11
716.9139790789
 21
125.6917778069
 72
1
 10
716.9139790789
 20
125.6917778069
 11
716.7380042273
 21
125.6049966138
 72
1
 10
716.7380042273
 20
125.6049966138
 11
716.5522076462
 21
125.541927173
 72
1
 10
716.5522076462
 20
125.541927173
 11
716.3597683667
 21
125.5036486204
 97
1
330
2C0
 75
0
 76
1
 98
1
 10
0.0
 20
0.0
  0
SOLID
  5
2C2
100
AcDbEntity
  8
ALL_DETAIL_ITEM
100
AcDbTrace
 62
4
  6
CONTINUOUS
 10
783.1616511214
 20
125.4897780407
 11
782.5511340209
 21
125.5075421682
 12
804.9179830129
 22
125.490800031
 13
804.9179830129
 23
125.490800031
  0
LWPOLYLINE
  5
2C3
100
AcDbEntity
  8
ALL_DETAIL_ITEM
100
AcDbPolyline
 62
4
  6
CONTINUOUS
 90
37
 70
0
 10
810.1223939525
 20
122.4088859341
 10
813.1451390194
 20
122.4108758755
 10
813.1679709657
 20
121.8879481107
 10
813.1679709657
 20
117.3857039654
 10
813.1451390194
 20
116.8627650841
 10
813.0768169467
 20
116.3438089692
 10
812.9635247228
 20
115.8327823292
 10
812.8061245749
 20
115.3335744083
 10
812.6058144204
 20
114.8499845027
 10
812.3641187494
 20
114.3856930453
 10
812.0828770229
 20
113.9442335952
 10
811.7642296727
 20
113.5289659453
 10
804.9179830129
 20
113.7828183953
 10
805.3540666572
 20
113.7955110193
 10
805.7886747499
 20
113.8335340748
 10
806.2203367321
 20
113.8967628662
 10
806.6475920137
 20
113.9849834497
 10
807.068994915
 20
114.0978973185
 10
807.4831195588
 20
114.2351224122
 10
807.8885646951
 20
114.3961944099
 10
808.2839584419
 20
114.5805683016
 10
808.6679629278
 20
114.7876202317
 10
808.888693305
 20
114.9282400707
 10
809.0963278689
 20
115.0875627826
 10
809.2892863857
 20
115.2643758178
 10
809.4661003159
 20
115.4573335144
 10
809.6254239909
 20
115.6649673393
 10
809.766044854
 20
115.8856970642
 10
809.8868926894
 20
116.1178427927
 10
809.9870477666
 20
116.3596377454
 10
810.0657478405
 20
116.6092417057
 10
810.1223939525
 20
116.8647550255
 10
810.1565549888
 20
117.1242330828
 10
810.1679709619
 20
117.3857039654
 10
810.1679709619
 20
121.8879481107
 10
810.1565549888
 20
122.1494078768
 10
810.1223939525
 20
122.4088859341
  0
HATCH
  5
2C4
100
AcDbEntity
  8
ALL_DETAIL_ITEM
100
AcDbHatch
 62
4
  6
CONTINUOUS
 10
0.0
 20
0.0
 30
0.0
210
0.0
220
0.0
230
1.0
  2
SOLID
 70
1
 71
1
 91
1
 92
1
 93
36
 72
1
 10
810.1223939525
 20
122.4088859341
 11
813.1451390194
 21
122.4108758755
 72
1
 10
813.1451390194
 20
122.4108758755
 11
813.1679709657
 21
121.8879481107
 72
1
 10
813.1679709657
 20
121.8879481107
 11
813.1679709657
 21
117.3857039654
 72
1
 10
813.1679709657
 20
117.3857039654
 11
813.1451390194
 21
116.8627650841
 72
1
 10
813.1451390194
 20
116.8627650841
 11
813.0768169467
 21
116.3438089692
 72
1
 10
813.0768169467
 20
116.3438089692
 11
812.9635247228
 21
115.8327823292
 72
1
 10
812.9635247228
 20
115.8327823292
 11
812.8061245749
 21
115.3335744083
 72
1
 10
812.8061245749
 20
115.3335744083
 11
812.6058144204
 21
114.8499845027
 72
1
 10
812.6058144204
 20
114.8499845027
 11
812.3641187494
 21
114.3856930453
 72
1
 10
812.3641187494
 20
114.3856930453
 11
812.0828770229
 21
113.9442335952
 72
1
 10
812.0828770229
 20
113.9442335952
 11
811.7642296727
 21
113.5289659453
 72
1
 10
811.7642296727
 20
113.5289659453
 11
804.9179830129
 21
113.7828183953
 72
1
 10
804.9179830129
 20
113.7828183953
 11
805.3540666572
 21
113.7955110193
 72
1
 10
805.3540666572
 20
113.7955110193
 11
805.7886747499
 21
113.8335340748
 72
1
 10
805.7886747499
 20
113.8335340748
 11
806.2203367321
 21
113.8967628662
 72
1
 10
806.2203367321
 20
113.8967628662
 11
806.6475920137
 21
113.9849834497
 72
1
 10
806.6475920137
 20
113.9849834497
 11
807.068994915
 21
114.0978973185
 72
1
 10
807.068994915
 20
114.0978973185
 11
807.4831195588
 21
114.2351224122
 72
1
 10
807.4831195588
 20
114.2351224122
 11
807.8885646951
 21
114.3961944099
 72
1
 10
807.8885646951
 20
114.3961944099
 11
808.2839584419
 21
114.5805683016
 72
1
 10
808.2839584419
 20
114.5805683016
 11
808.6679629278
 21
114.7876202317
 72
1
 10
808.6679629278
 20
114.7876202317
 11
808.888693305
 21
114.9282400707
 72
1
 10
808.888693305
 20
114.9282400707
 11
809.0963278689
 21
115.0875627826
 72
1
 10
809.0963278689
 20
115.0875627826
 11
809.2892863857
 21
115.2643758178
 72
1
 10
809.2892863857
 20
115.2643758178
 11
809.4661003159
 21
115.4573335144
 72
1
 10
809.4661003159
 20
115.4573335144
 11
809.6254239909
 21
115.6649673393
 72
1
 10
809.6254239909
 20
115.6649673393
 11
809.766044854
 21
115.8856970642
 72
1
 10
809.766044854
 20
115.8856970642
 11
809.8868926894
 21
116.1178427927
 72
1
 10
809.8868926894
 20
116.1178427927
 11
809.9870477666
 21
116.3596377454
 72
1
 10
809.9870477666
 20
116.3596377454
 11
810.0657478405
 21
116.6092417057
 72
1
 10
810.0657478405
 20
116.6092417057
 11
810.1223939525
 21
116.8647550255
 72
1
 10
810.1223939525
 20
116.8647550255
 11
810.1565549888
 21
117.1242330828
 72
1
 10
810.1565549888
 20
117.1242330828
 11
810.1679709619
 21
117.3857039654
 72
1
 10
810.1679709619
 20
117.3857039654
 11
810.1679709619
 21
121.8879481107
 72
1
 10
810.1679709619
 20
121.8879481107
 11
810.1565549888
 21
122.1494078768
 72
1
 10
810.1565549888
 20
122.1494078768
 11
810.1223939525
 21
122.4088859341
 97
1
330
2C3
 75
0
 76
1
 98
1
 10
0.0
 20
0.0
  0
LWPOLYLINE
  5
2C5
100
AcDbEntity
  8
ALL_DETAIL_ITEM
100
AcDbPolyline
 62
4
  6
CONTINUOUS
 90
6
 70
0
 10
730.7377516581
 20
117.3963373066
 10
730.7491604111
 20
117.1350128522
 10
727.7605691613
 20
116.8736547479
 10
727.7377516557
 20
117.396270007
 10
730.7371463787
 20
142.155500198
 10
730.7377516581
 20
117.3963373066
  0
HATCH
  5
2C6
100
AcDbEntity
  8
ALL_DETAIL_ITEM
100
AcDbHatch
 62
4
  6
CONTINUOUS
 10
0.0
 20
0.0
 30
0.0
210
0.0
220
0.0
230
1.0
  2
SOLID
 70
1
 71
1
 91
1
 92
1
 93
5
 72
1
 10
730.7377516581
 20
117.3963373066
 11
730.7491604111
 21
117.1350128522
 72
1
 10
730.7491604111
 20
117.1350128522
 11
727.7605691613
 21
116.8736547479
 72
1
 10
727.7605691613
 20
116.8736547479
 11
727.7377516557
 21
117.396270007
 72
1
 10
727.7377516557
 20
117.396270007
 11
730.7371463787
 21
142.155500198
 72
1
 10
730.7371463787
 20
142.155500198
 11
730.7377516581
 21
117.3963373066
 97
1
330
2C5
 75
0
 76
1
 98
1
 10
0.0
 20
0.0
  0
LWPOLYLINE
  5
2C7
100
AcDbEntity
  8
ALL_DETAIL_ITEM
100
AcDbPolyline
 62
4
  6
CONTINUOUS
 90
6
 70
0
 10
730.7832871693
 20
116.8757073866
 10
730.8398725155
 20
116.6203389492
 10
727.8288226777
 20
116.3549765171
 10
727.7605691613
 20
116.8736547479
 10
730.7491604111
 20
117.1350128522
 10
730.7832871693
 20
116.8757073866
  0
HATCH
  5
2C8
100
AcDbEntity
  8
ALL_DETAIL_ITEM
100
AcDbHatch
 62
4
  6
CONTINUOUS
 10
0.0
 20
0.0
 30
0.0
210
0.0
220
0.0
230
1.0
  2
SOLID
 70
1
 71
1
 91
1
 92
1
 93
5
 72
1
 10
730.7832871693
 20
116.8757073866
 11
730.8398725155
 21
116.6203389492
 72
1
 10
730.8398725155
 20
116.6203389492
 11
727.8288226777
 21
116.3549765171
 72
1
 10
727.8288226777
 20
116.3549765171
 11
727.7605691613
 21
116.8736547479
 72
1
 10
727.7605691613
 20
116.8736547479
 11
730.7491604111
 21
117.1350128522
 72
1
 10
730.7491604111
 20
117.1350128522
 11
730.7832871693
 21
116.8757073866
 97
1
330
2C7
 75
0
 76
1
 98
1
 10
0.0
 20
0.0
  0
LWPOLYLINE
  5
2C9
100
AcDbEntity
  8
ALL_DETAIL_ITEM
100
AcDbPolyline
 62
4
  6
CONTINUOUS
 90
6
 70
0
 10
730.9184863118
 20
116.3708592292
 10
731.0185309695
 20
116.129186266
 10
727.9419933702
 20
115.8442732921
 10
727.8288226777
 20
116.3549765171
 10
730.8398725155
 20
116.6203389492
 10
730.9184863118
 20
116.3708592292
  0
HATCH
  5
2CA
100
AcDbEntity
  8
ALL_DETAIL_ITEM
100
AcDbHatch
 62
4
  6
CONTINUOUS
 10
0.0
 20
0.0
 30
0.0
210
0.0
220
0.0
230
1.0
  2
SOLID
 70
1
 71
1
 91
1
 92
1
 93
5
 72
1
 10
730.9184863118
 20
116.3708592292
 11
731.0185309695
 21
116.129186266
 72
1
 10
731.0185309695
 20
116.129186266
 11
727.9419933702
 21
115.8442732921
 72
1
 10
727.9419933702
 20
115.8442732921
 11
727.8288226777
 21
116.3549765171
 72
1
 10
727.8288226777
 20
116.3549765171
 11
730.8398725155
 21
116.6203389492
 72
1
 10
730.8398725155
 20
116.6203389492
 11
730.9184863118
 21
116.3708592292
 97
1
330
2C9
 75
0
 76
1
 98
1
 10
0.0
 20
0.0
  0
LWPOLYLINE
  5
2CB
100
AcDbEntity
  8
ALL_DETAIL_ITEM
100
AcDbPolyline
 62
4
  6
CONTINUOUS
 90
6
 70
0
 10
731.1392459914
 20
115.8971707995
 10
731.2797137531
 20
115.67652897
 10
728.0992209629
 20
115.3453138521
 10
727.9419933702
 20
115.8442732921
 10
731.0185309695
 20
116.129186266
 10
731.1392459914
 20
115.8971707995
  0
HATCH
  5
2CC
100
AcDbEntity
  8
ALL_DETAIL_ITEM
100
AcDbHatch
 62
4
  6
CONTINUOUS
 10
0.0
 20
0.0
 30
0.0
210
0.0
220
0.0
230
1.0
  2
SOLID
 70
1
 71
1
 91
1
 92
1
 93
5
 72
1
 10
731.1392459914
 20
115.8971707995
 11
731.2797137531
 21
115.67652897
 72
1
 10
731.2797137531
 20
115.67652897
 11
728.0992209629
 21
115.3453138521
 72
1
 10
728.0992209629
 20
115.3453138521
 11
727.9419933702
 21
115.8442732921
 72
1
 10
727.9419933702
 20
115.8442732921
 11
731.0185309695
 21
116.129186266
 72
1
 10
731.0185309695
 20
116.129186266
 11
731.1392459914
 21
115.8971707995
 97
1
330
2CB
 75
0
 76
1
 98
1
 10
0.0
 20
0.0
  0
LWPOLYLINE
  5
2CD
100
AcDbEntity
  8
ALL_DETAIL_ITEM
100
AcDbPolyline
 62
4
  6
CONTINUOUS
 90
6
 70
0
 10
731.438866478
 20
115.4689432683
 10
731.6154943546
 20
115.2760288854
 10
728.2993102784
 20
114.8619679258
 10
728.0992209629
 20
115.3453138521
 10
731.2797137531
 20
115.67652897
 10
731.438866478
 20
115.4689432683
  0
HATCH
  5
2CE
100
AcDbEntity
  8
ALL_DETAIL_ITEM
100
AcDbHatch
 62
4
  6
CONTINUOUS
 10
0.0
 20
0.0
 30
0.0
210
0.0
220
0.0
230
1.0
  2
SOLID
 70
1
 71
1
 91
1
 92
1
 93
5
 72
1
 10
731.438866478
 20
115.4689432683
 11
731.6154943546
 21
115.2760288854
 72
1
 10
731.6154943546
 20
115.2760288854
 11
728.2993102784
 21
114.8619679258
 72
1
 10
728.2993102784
 20
114.8619679258
 11
728.0992209629
 21
115.3453138521
 72
1
 10
728.0992209629
 20
115.3453138521
 11
731.2797137531
 21
115.67652897
 72
1
 10
731.2797137531
 20
115.67652897
 11
731.438866478
 21
115.4689432683
 97
1
330
2CD
 75
0
 76
1
 98
1
 10
0.0
 20
0.0
  0
LWPOLYLINE
  5
2CF
100
AcDbEntity
  8
ALL_DETAIL_ITEM
100
AcDbPolyline
 62
4
  6
CONTINUOUS
 90
7
 70
0
 10
732.0156823292
 20
114.9399008947
 10
732.2362003678
 20
114.7992446728
 10
728.5407403223
 20
114.3979033429
 10
728.2993102784
 20
114.8619679258
 10
731.6154943546
 20
115.2760288854
 10
731.8082547326
 20
115.0992327634
 10
732.0156823292
 20
114.9399008947
  0
HATCH
  5
2D0
100
AcDbEntity
  8
ALL_DETAIL_ITEM
100
AcDbHatch
 62
4
  6
CONTINUOUS
 10
0.0
 20
0.0
 30
0.0
210
0.0
220
0.0
230
1.0
  2
SOLID
 70
1
 71
1
 91
1
 92
1
 93
6
 72
1
 10
732.0156823292
 20
114.9399008947
 11
732.2362003678
 21
114.7992446728
 72
1
 10
732.2362003678
 20
114.7992446728
 11
728.5407403223
 21
114.3979033429
 72
1
 10
728.5407403223
 20
114.3979033429
 11
728.2993102784
 21
114.8619679258
 72
1
 10
728.2993102784
 20
114.8619679258
 11
731.6154943546
 21
115.2760288854
 72
1
 10
731.6154943546
 20
115.2760288854
 11
731.8082547326
 21
115.0992327634
 72
1
 10
731.8082547326
 20
115.0992327634
 11
732.0156823292
 21
114.9399008947
 97
1
330
2CF
 75
0
 76
1
 98
1
 10
0.0
 20
0.0
  0
LWPOLYLINE
  5
2D1
100
AcDbEntity
  8
ALL_DETAIL_ITEM
100
AcDbPolyline
 62
4
  6
CONTINUOUS
 90
10
 70
0
 10
677.339830607
 20
141.4411482995
 10
657.9249574639
 20
114.7070922602
 10
677.4213753477
 20
142.8189399281
 10
677.4917021073
 20
142.6266648917
 10
677.5351932066
 20
142.4266167482
 10
677.5510384887
 20
142.2224969774
 10
677.538942786
 20
142.0181416578
 10
677.4991314186
 20
141.8173195687
 10
677.4323459969
 20
141.6237994891
 10
677.339830607
 20
141.4411482995
  0
HATCH
  5
2D2
100
AcDbEntity
  8
ALL_DETAIL_ITEM
100
AcDbHatch
 62
4
  6
CONTINUOUS
 10
0.0
 20
0.0
 30
0.0
210
0.0
220
0.0
230
1.0
  2
SOLID
 70
1
 71
1
 91
1
 92
1
 93
9
 72
1
 10
677.339830607
 20
141.4411482995
 11
657.9249574639
 21
114.7070922602
 72
1
 10
657.9249574639
 20
114.7070922602
 11
677.4213753477
 21
142.8189399281
 72
1
 10
677.4213753477
 20
142.8189399281
 11
677.4917021073
 21
142.6266648917
 72
1
 10
677.4917021073
 20
142.6266648917
 11
677.5351932066
 21
142.4266167482
 72
1
 10
677.5351932066
 20
142.4266167482
 11
677.5510384887
 21
142.2224969774
 72
1
 10
677.5510384887
 20
142.2224969774
 11
677.538942786
 21
142.0181416578
 72
1
 10
677.538942786
 20
142.0181416578
 11
677.4991314186
 21
141.8173195687
 72
1
 10
677.4991314186
 20
141.8173195687
 11
677.4323459969
 21
141.6237994891
 72
1
 10
677.4323459969
 20
141.6237994891
 11
677.339830607
 21
141.4411482995
 97
1
330
2D1
 75
0
 76
1
 98
1
 10
0.0
 20
0.0
  0
LWPOLYLINE
  5
2D3
100
AcDbEntity
  8
ALL_DETAIL_ITEM
100
AcDbPolyline
 62
4
  6
CONTINUOUS
 90
7
 70
0
 10
733.0157989755
 20
114.4071906915
 10
733.4213875996
 20
114.245839834
 10
728.8216758458
 20
113.9566196839
 10
728.5407403223
 20
114.3979033429
 10
732.2362003678
 20
114.7992446728
 10
732.6202894541
 20
114.59186087
 10
733.0157989755
 20
114.4071906915
  0
HATCH
  5
2D4
100
AcDbEntity
  8
ALL_DETAIL_ITEM
100
AcDbHatch
 62
4
  6
CONTINUOUS
 10
0.0
 20
0.0
 30
0.0
210
0.0
220
0.0
230
1.0
  2
SOLID
 70
1
 71
1
 91
1
 92
1
 93
6
 72
1
 10
733.0157989755
 20
114.4071906915
 11
733.4213875996
 21
114.245839834
 72
1
 10
733.4213875996
 20
114.245839834
 11
728.8216758458
 21
113.9566196839
 72
1
 10
728.8216758458
 20
113.9566196839
 11
728.5407403223
 21
114.3979033429
 72
1
 10
728.5407403223
 20
114.3979033429
 11
732.2362003678
 21
114.7992446728
 72
1
 10
732.2362003678
 20
114.7992446728
 11
732.6202894541
 21
114.59186087
 72
1
 10
732.6202894541
 20
114.59186087
 11
733.0157989755
 21
114.4071906915
 97
1
330
2D3
 75
0
 76
1
 98
1
 10
0.0
 20
0.0
  0
LWPOLYLINE
  5
2D5
100
AcDbEntity
  8
ALL_DETAIL_ITEM
100
AcDbPolyline
 62
4
  6
CONTINUOUS
 90
7
 70
0
 10
734.2572705783
 20
113.9953169698
 10
734.6847301158
 20
113.9069525586
 10
729.1399812959
 20
113.5414819303
 10
728.8216758458
 20
113.9566196839
 10
733.4213875996
 20
114.245839834
 10
733.8356798113
 20
114.1084139942
 10
734.2572705783
 20
113.9953169698
  0
HATCH
  5
2D6
100
AcDbEntity
  8
ALL_DETAIL_ITEM
100
AcDbHatch
 62
4
  6
CONTINUOUS
 10
0.0
 20
0.0
 30
0.0
210
0.0
220
0.0
230
1.0
  2
SOLID
 70
1
 71
1
 91
1
 92
1
 93
6
 72
1
 10
734.2572705783
 20
113.9953169698
 11
734.6847301158
 21
113.9069525586
 72
1
 10
734.6847301158
 20
113.9069525586
 11
729.1399812959
 21
113.5414819303
 72
1
 10
729.1399812959
 20
113.5414819303
 11
728.8216758458
 21
113.9566196839
 72
1
 10
728.8216758458
 20
113.9566196839
 11
733.4213875996
 21
114.245839834
 72
1
 10
733.4213875996
 20
114.245839834
 11
733.8356798113
 21
114.1084139942
 72
1
 10
733.8356798113
 20
114.1084139942
 11
734.2572705783
 21
113.9953169698
 97
1
330
2D5
 75
0
 76
1
 98
1
 10
0.0
 20
0.0
  0
LWPOLYLINE
  5
2D7
100
AcDbEntity
  8
ALL_DETAIL_ITEM
100
AcDbPolyline
 62
4
  6
CONTINUOUS
 90
10
 70
0
 10
759.5418338402
 20
114.1084139942
 10
764.8367733291
 20
114.3979033429
 10
764.5558378056
 20
113.9566196839
 10
764.2375323555
 20
113.5414819303
 10
757.3897591482
 20
113.79281239
 10
757.8260718884
 20
113.8055320197
 10
758.2609049158
 20
113.8435899591
 10
758.6927835358
 20
113.9069525586
 10
759.1202430733
 20
113.9953169698
 10
759.5418338402
 20
114.1084139942
  0
HATCH
  5
2D8
100
AcDbEntity
  8
ALL_DETAIL_ITEM
100
AcDbHatch
 62
4
  6
CONTINUOUS
 10
0.0
 20
0.0
 30
0.0
210
0.0
220
0.0
230
1.0
  2
SOLID
 70
1
 71
1
 91
1
 92
1
 93
9
 72
1
 10
759.5418338402
 20
114.1084139942
 11
764.8367733291
 21
114.3979033429
 72
1
 10
764.8367733291
 20
114.3979033429
 11
764.5558378056
 21
113.9566196839
 72
1
 10
764.5558378056
 20
113.9566196839
 11
764.2375323555
 21
113.5414819303
 72
1
 10
764.2375323555
 20
113.5414819303
 11
757.3897591482
 21
113.79281239
 72
1
 10
757.3897591482
 20
113.79281239
 11
757.8260718884
 21
113.8055320197
 72
1
 10
757.8260718884
 20
113.8055320197
 11
758.2609049158
 21
113.8435899591
 72
1
 10
758.2609049158
 20
113.8435899591
 11
758.6927835358
 21
113.9069525586
 72
1
 10
758.6927835358
 20
113.9069525586
 11
759.1202430733
 21
113.9953169698
 72
1
 10
759.1202430733
 20
113.9953169698
 11
759.5418338402
 21
114.1084139942
 97
1
330
2D7
 75
0
 76
1
 98
1
 10
0.0
 20
0.0
  0
LWPOLYLINE
  5
2D9
100
AcDbEntity
  8
ALL_DETAIL_ITEM
100
AcDbPolyline
 62
4
  6
CONTINUOUS
 90
6
 70
0
 10
717.6043530863
 20
113.7886133771
 10
717.8001435755
 20
113.775799001
 10
686.0081536159
 20
112.2857954544
 10
689.0081536159
 20
125.490800031
 10
689.0081536159
 20
113.7859359077
 10
717.6043530863
 20
113.7886133771
  0
HATCH
  5
2DA
100
AcDbEntity
  8
ALL_DETAIL_ITEM
100
AcDbHatch
 62
4
  6
CONTINUOUS
 10
0.0
 20
0.0
 30
0.0
210
0.0
220
0.0
230
1.0
  2
SOLID
 70
1
 71
1
 91
1
 92
1
 93
5
 72
1
 10
717.6043530863
 20
113.7886133771
 11
717.8001435755
 21
113.775799001
 72
1
 10
717.8001435755
 20
113.775799001
 11
686.0081536159
 21
112.2857954544
 72
1
 10
686.0081536159
 20
112.2857954544
 11
689.0081536159
 21
125.490800031
 72
1
 10
689.0081536159
 20
125.490800031
 11
689.0081536159
 21
113.7859359077
 72
1
 10
689.0081536159
 20
113.7859359077
 11
717.6043530863
 21
113.7886133771
 97
1
330
2D9
 75
0
 76
1
 98
1
 10
0.0
 20
0.0
  0
LWPOLYLINE
  5
2DB
100
AcDbEntity
  8
ALL_DETAIL_ITEM
100
AcDbPolyline
 62
4
  6
CONTINUOUS
 90
41
 70
0
 10
776.6053944134
 20
113.7699896482
 10
776.8011837019
 20
113.7828183953
 10
804.9179830129
 20
113.7828183953
 10
811.7642296727
 20
113.5289659453
 10
811.4106018121
 20
113.1430505518
 10
811.0246847783
 20
112.7894244811
 10
810.6094156503
 20
112.4707790572
 10
810.1679548957
 20
112.1895393784
 10
809.6303486152
 20
111.8996666765
 10
809.0767973694
 20
111.641543228
 10
808.5091741785
 20
111.416042431
 10
807.9293996769
 20
111.2239272998
 10
807.3394356148
 20
111.0658478835
 10
806.7412782205
 20
110.9423390665
 10
806.1369514451
 20
110.8538187585
 10
805.5285001151
 20
110.8005864808
 10
804.9179830129
 20
110.7828365401
 10
776.8011837019
 20
110.7828365401
 10
776.6053944134
 20
110.7956550611
 10
776.4129551339
 20
110.8339336138
 10
776.2271585528
 20
110.8970030545
 10
776.0511837012
 20
110.9837842477
 10
775.8880415575
 20
111.092792343
 10
775.7405235291
 20
111.2221621818
 10
775.6111536903
 20
111.3696802102
 10
775.5021455949
 20
111.5328223539
 10
775.4153644018
 20
111.7087972055
 10
775.352294961
 20
111.8945937866
 10
775.3140164084
 20
112.0870330661
 10
775.3011837004
 20
112.2828223547
 10
775.3140164084
 20
112.4786116432
 10
775.352294961
 20
112.6710509227
 10
775.4153644018
 20
112.8568475038
 10
775.5021455949
 20
113.0328223554
 10
775.6111536903
 20
113.1959644991
 10
775.7405235291
 20
113.3434825275
 10
775.8880415575
 20
113.4728523663
 10
776.0511837012
 20
113.5818604616
 10
776.2271585528
 20
113.6686416548
 10
776.4129551339
 20
113.7317110955
 10
776.6053944134
 20
113.7699896482
  0
HATCH
  5
2DC
100
AcDbEntity
  8
ALL_DETAIL_ITEM
100
AcDbHatch
 62
4
  6
CONTINUOUS
 10
0.0
 20
0.0
 30
0.0
210
0.0
220
0.0
230
1.0
  2
SOLID
 70
1
 71
1
 91
1
 92
1
 93
40
 72
1
 10
776.6053944134
 20
113.7699896482
 11
776.8011837019
 21
113.7828183953
 72
1
 10
776.8011837019
 20
113.7828183953
 11
804.9179830129
 21
113.7828183953
 72
1
 10
804.9179830129
 20
113.7828183953
 11
811.7642296727
 21
113.5289659453
 72
1
 10
811.7642296727
 20
113.5289659453
 11
811.4106018121
 21
113.1430505518
 72
1
 10
811.4106018121
 20
113.1430505518
 11
811.0246847783
 21
112.7894244811
 72
1
 10
811.0246847783
 20
112.7894244811
 11
810.6094156503
 21
112.4707790572
 72
1
 10
810.6094156503
 20
112.4707790572
 11
810.1679548957
 21
112.1895393784
 72
1
 10
810.1679548957
 20
112.1895393784
 11
809.6303486152
 21
111.8996666765
 72
1
 10
809.6303486152
 20
111.8996666765
 11
809.0767973694
 21
111.641543228
 72
1
 10
809.0767973694
 20
111.641543228
 11
808.5091741785
 21
111.416042431
 72
1
 10
808.5091741785
 20
111.416042431
 11
807.9293996769
 21
111.2239272998
 72
1
 10
807.9293996769
 20
111.2239272998
 11
807.3394356148
 21
111.0658478835
 72
1
 10
807.3394356148
 20
111.0658478835
 11
806.7412782205
 21
110.9423390665
 72
1
 10
806.7412782205
 20
110.9423390665
 11
806.1369514451
 21
110.8538187585
 72
1
 10
806.1369514451
 20
110.8538187585
 11
805.5285001151
 21
110.8005864808
 72
1
 10
805.5285001151
 20
110.8005864808
 11
804.9179830129
 21
110.7828365401
 72
1
 10
804.9179830129
 20
110.7828365401
 11
776.8011837019
 21
110.7828365401
 72
1
 10
776.8011837019
 20
110.7828365401
 11
776.6053944134
 21
110.7956550611
 72
1
 10
776.6053944134
 20
110.7956550611
 11
776.4129551339
 21
110.8339336138
 72
1
 10
776.4129551339
 20
110.8339336138
 11
776.2271585528
 21
110.8970030545
 72
1
 10
776.2271585528
 20
110.8970030545
 11
776.0511837012
 21
110.9837842477
 72
1
 10
776.0511837012
 20
110.9837842477
 11
775.8880415575
 21
111.092792343
 72
1
 10
775.8880415575
 20
111.092792343
 11
775.7405235291
 21
111.2221621818
 72
1
 10
775.7405235291
 20
111.2221621818
 11
775.6111536903
 21
111.3696802102
 72
1
 10
775.6111536903
 20
111.3696802102
 11
775.5021455949
 21
111.5328223539
 72
1
 10
775.5021455949
 20
111.5328223539
 11
775.4153644018
 21
111.7087972055
 72
1
 10
775.4153644018
 20
111.7087972055
 11
775.352294961
 21
111.8945937866
 72
1
 10
775.352294961
 20
111.8945937866
 11
775.3140164084
 21
112.0870330661
 72
1
 10
775.3140164084
 20
112.0870330661
 11
775.3011837004
 21
112.2828223547
 72
1
 10
775.3011837004
 20
112.2828223547
 11
775.3140164084
 21
112.4786116432
 72
1
 10
775.3140164084
 20
112.4786116432
 11
775.352294961
 21
112.6710509227
 72
1
 10
775.352294961
 20
112.6710509227
 11
775.4153644018
 21
112.8568475038
 72
1
 10
775.4153644018
 20
112.8568475038
 11
775.5021455949
 21
113.0328223554
 72
1
 10
775.5021455949
 20
113.0328223554
 11
775.6111536903
 21
113.1959644991
 72
1
 10
775.6111536903
 20
113.1959644991
 11
775.7405235291
 21
113.3434825275
 72
1
 10
775.7405235291
 20
113.3434825275
 11
775.8880415575
 21
113.4728523663
 72
1
 10
775.8880415575
 20
113.4728523663
 11
776.0511837012
 21
113.5818604616
 72
1
 10
776.0511837012
 20
113.5818604616
 11
776.2271585528
 21
113.6686416548
 72
1
 10
776.2271585528
 20
113.6686416548
 11
776.4129551339
 21
113.7317110955
 72
1
 10
776.4129551339
 20
113.7317110955
 11
776.6053944134
 21
113.7699896482
 97
1
330
2DB
 75
0
 76
1
 98
1
 10
0.0
 20
0.0
  0
LWPOLYLINE
  5
2DD
100
AcDbEntity
  8
ALL_DETAIL_ITEM
100
AcDbPolyline
 62
4
  6
CONTINUOUS
 90
34
 70
0
 10
757.3897591482
 20
113.79281239
 10
764.2375323555
 20
113.5414819303
 10
763.884276602
 20
113.1556531645
 10
763.4987558458
 20
112.8020609205
 10
763.0839006525
 20
112.4833635334
 10
762.6428645752
 20
112.2020510895
 10
762.105044677
 20
111.9116868457
 10
761.5512333394
 20
111.6530880262
 10
760.9833087606
 20
111.4271968257
 10
760.4031970024
 20
111.2347198904
 10
759.8128654582
 20
111.0763638664
 10
759.214316181
 20
110.9526335008
 10
758.6095790933
 20
110.8639325915
 10
758.0007051031
 20
110.8105976365
 10
757.3897591482
 20
110.792796885
 10
735.9877545034
 20
110.792796885
 10
735.3768085485
 20
110.8105976365
 10
734.7679345583
 20
110.8639325915
 10
734.1631974706
 20
110.9526335008
 10
733.5646481934
 20
111.0763638664
 10
732.9743166492
 20
111.2347198904
 10
732.394204891
 20
111.4271968257
 10
731.8262803122
 20
111.6530880262
 10
731.2724689746
 20
111.9116868457
 10
730.7346490762
 20
112.2020510895
 10
730.2936129991
 20
112.4833635334
 10
729.8787578057
 20
112.8020609205
 10
729.4932370494
 20
113.1556531645
 10
729.1399812959
 20
113.5414819303
 10
734.6847301158
 20
113.9069525586
 10
735.1166087357
 20
113.8435899591
 10
735.5514417631
 20
113.8055320197
 10
735.9877545034
 20
113.79281239
 10
757.3897591482
 20
113.79281239
  0
HATCH
  5
2DE
100
AcDbEntity
  8
ALL_DETAIL_ITEM
100
AcDbHatch
 62
4
  6
CONTINUOUS
 10
0.0
 20
0.0
 30
0.0
210
0.0
220
0.0
230
1.0
  2
SOLID
 70
1
 71
1
 91
1
 92
1
 93
33
 72
1
 10
757.3897591482
 20
113.79281239
 11
764.2375323555
 21
113.5414819303
 72
1
 10
764.2375323555
 20
113.5414819303
 11
763.884276602
 21
113.1556531645
 72
1
 10
763.884276602
 20
113.1556531645
 11
763.4987558458
 21
112.8020609205
 72
1
 10
763.4987558458
 20
112.8020609205
 11
763.0839006525
 21
112.4833635334
 72
1
 10
763.0839006525
 20
112.4833635334
 11
762.6428645752
 21
112.2020510895
 72
1
 10
762.6428645752
 20
112.2020510895
 11
762.105044677
 21
111.9116868457
 72
1
 10
762.105044677
 20
111.9116868457
 11
761.5512333394
 21
111.6530880262
 72
1
 10
761.5512333394
 20
111.6530880262
 11
760.9833087606
 21
111.4271968257
 72
1
 10
760.9833087606
 20
111.4271968257
 11
760.4031970024
 21
111.2347198904
 72
1
 10
760.4031970024
 20
111.2347198904
 11
759.8128654582
 21
111.0763638664
 72
1
 10
759.8128654582
 20
111.0763638664
 11
759.214316181
 21
110.9526335008
 72
1
 10
759.214316181
 20
110.9526335008
 11
758.6095790933
 21
110.8639325915
 72
1
 10
758.6095790933
 20
110.8639325915
 11
758.0007051031
 21
110.8105976365
 72
1
 10
758.0007051031
 20
110.8105976365
 11
757.3897591482
 21
110.792796885
 72
1
 10
757.3897591482
 20
110.792796885
 11
735.9877545034
 21
110.792796885
 72
1
 10
735.9877545034
 20
110.792796885
 11
735.3768085485
 21
110.8105976365
 72
1
 10
735.3768085485
 20
110.8105976365
 11
734.7679345583
 21
110.8639325915
 72
1
 10
734.7679345583
 20
110.8639325915
 11
734.1631974706
 21
110.9526335008
 72
1
 10
734.1631974706
 20
110.9526335008
 11
733.5646481934
 21
111.0763638664
 72
1
 10
733.5646481934
 20
111.0763638664
 11
732.9743166492
 21
111.2347198904
 72
1
 10
732.9743166492
 20
111.2347198904
 11
732.394204891
 21
111.4271968257
 72
1
 10
732.394204891
 20
111.4271968257
 11
731.8262803122
 21
111.6530880262
 72
1
 10
731.8262803122
 20
111.6530880262
 11
731.2724689746
 21
111.9116868457
 72
1
 10
731.2724689746
 20
111.9116868457
 11
730.7346490762
 21
112.2020510895
 72
1
 10
730.7346490762
 20
112.2020510895
 11
730.2936129991
 21
112.4833635334
 72
1
 10
730.2936129991
 20
112.4833635334
 11
729.8787578057
 21
112.8020609205
 72
1
 10
729.8787578057
 20
112.8020609205
 11
729.4932370494
 21
113.1556531645
 72
1
 10
729.4932370494
 20
113.1556531645
 11
729.1399812959
 21
113.5414819303
 72
1
 10
729.1399812959
 20
113.5414819303
 11
734.6847301158
 21
113.9069525586
 72
1
 10
734.6847301158
 20
113.9069525586
 11
735.1166087357
 21
113.8435899591
 72
1
 10
735.1166087357
 20
113.8435899591
 11
735.5514417631
 21
113.8055320197
 72
1
 10
735.5514417631
 20
113.8055320197
 11
735.9877545034
 21
113.79281239
 72
1
 10
735.9877545034
 20
113.79281239
 11
757.3897591482
 21
113.79281239
 97
1
330
2DD
 75
0
 76
1
 98
1
 10
0.0
 20
0.0
  0
LWPOLYLINE
  5
2DF
100
AcDbEntity
  8
ALL_DETAIL_ITEM
100
AcDbPolyline
 62
4
  6
CONTINUOUS
 90
29
 70
0
 10
583.2799951887
 20
139.4808455402
 10
566.4938177454
 20
111.1222958623
 10
566.3777545486
 20
110.9536429953
 10
566.2398079643
 20
110.802387082
 10
566.0825476763
 20
110.6712874071
 10
565.9089031464
 20
110.5628340571
 10
565.7221090435
 20
110.4790460206
 10
565.5256449883
 20
110.421471189
 10
565.3231707345
 20
110.3911863566
 10
565.1184579943
 20
110.38876357
 10
564.9153201787
 20
110.4142028292
 10
564.7175413609
 20
110.4671003366
 10
564.5288057861
 20
110.5464129479
 10
564.3526292409
 20
110.6506937211
 10
564.1922935609
 20
110.7780246167
 10
564.0507854967
 20
110.9259491985
 10
563.9307410756
 20
111.091809131
 10
563.8343964981
 20
111.2724413318
 10
563.7635464813
 20
111.4645144693
 10
563.7195108271
 20
111.6644616633
 10
563.7031098363
 20
111.8685141345
 10
563.7146490284
 20
112.0729031039
 10
563.7539134501
 20
112.2738597923
 10
563.8201716794
 20
112.4675481209
 10
563.9121894514
 20
112.6504348592
 10
584.5708093362
 20
143.1896599274
 10
602.6478009256
 20
112.6504348592
 10
600.0661726309
 20
111.1222958623
 10
583.2799951887
 20
139.4808455402
  0
HATCH
  5
2E0
100
AcDbEntity
  8
ALL_DETAIL_ITEM
100
AcDbHatch
 62
4
  6
CONTINUOUS
 10
0.0
 20
0.0
 30
0.0
210
0.0
220
0.0
230
1.0
  2
SOLID
 70
1
 71
1
 91
1
 92
1
 93
28
 72
1
 10
583.2799951887
 20
139.4808455402
 11
566.4938177454
 21
111.1222958623
 72
1
 10
566.4938177454
 20
111.1222958623
 11
566.3777545486
 21
110.9536429953
 72
1
 10
566.3777545486
 20
110.9536429953
 11
566.2398079643
 21
110.802387082
 72
1
 10
566.2398079643
 20
110.802387082
 11
566.0825476763
 21
110.6712874071
 72
1
 10
566.0825476763
 20
110.6712874071
 11
565.9089031464
 21
110.5628340571
 72
1
 10
565.9089031464
 20
110.5628340571
 11
565.7221090435
 21
110.4790460206
 72
1
 10
565.7221090435
 20
110.4790460206
 11
565.5256449883
 21
110.421471189
 72
1
 10
565.5256449883
 20
110.421471189
 11
565.3231707345
 21
110.3911863566
 72
1
 10
565.3231707345
 20
110.3911863566
 11
565.1184579943
 21
110.38876357
 72
1
 10
565.1184579943
 20
110.38876357
 11
564.9153201787
 21
110.4142028292
 72
1
 10
564.9153201787
 20
110.4142028292
 11
564.7175413609
 21
110.4671003366
 72
1
 10
564.7175413609
 20
110.4671003366
 11
564.5288057861
 21
110.5464129479
 72
1
 10
564.5288057861
 20
110.5464129479
 11
564.3526292409
 21
110.6506937211
 72
1
 10
564.3526292409
 20
110.6506937211
 11
564.1922935609
 21
110.7780246167
 72
1
 10
564.1922935609
 20
110.7780246167
 11
564.0507854967
 21
110.9259491985
 72
1
 10
564.0507854967
 20
110.9259491985
 11
563.9307410756
 21
111.091809131
 72
1
 10
563.9307410756
 20
111.091809131
 11
563.8343964981
 21
111.2724413318
 72
1
 10
563.8343964981
 20
111.2724413318
 11
563.7635464813
 21
111.4645144693
 72
1
 10
563.7635464813
 20
111.4645144693
 11
563.7195108271
 21
111.6644616633
 72
1
 10
563.7195108271
 20
111.6644616633
 11
563.7031098363
 21
111.8685141345
 72
1
 10
563.7031098363
 20
111.8685141345
 11
563.7146490284
 21
112.0729031039
 72
1
 10
563.7146490284
 20
112.0729031039
 11
563.7539134501
 21
112.2738597923
 72
1
 10
563.7539134501
 20
112.2738597923
 11
563.8201716794
 21
112.4675481209
 72
1
 10
563.8201716794
 20
112.4675481209
 11
563.9121894514
 21
112.6504348592
 72
1
 10
563.9121894514
 20
112.6504348592
 11
584.5708093362
 21
143.1896599274
 72
1
 10
584.5708093362
 20
143.1896599274
 11
602.6478009256
 21
112.6504348592
 72
1
 10
602.6478009256
 20
112.6504348592
 11
600.0661726309
 21
111.1222958623
 72
1
 10
600.0661726309
 20
111.1222958623
 11
583.2799951887
 21
139.4808455402
 97
1
330
2DF
 75
0
 76
1
 98
1
 10
0.0
 20
0.0
  0
LWPOLYLINE
  5
2E1
100
AcDbEntity
  8
ALL_DETAIL_ITEM
100
AcDbPolyline
 62
4
  6
CONTINUOUS
 90
41
 70
0
 10
719.1044935266
 20
112.2887538275
 10
719.0916791505
 20
112.0929633383
 10
719.0534186161
 20
111.9005204756
 10
718.9903665719
 20
111.7147179902
 10
718.9036018556
 20
111.538735014
 10
718.7946090358
 20
111.3755826646
 10
718.6652530097
 20
111.2280525239
 10
718.5177470949
 20
111.0986688735
 10
718.3546151584
 20
110.9896455036
 10
718.1786484329
 20
110.9028478342
 10
717.9928577578
 20
110.8397609976
 10
717.8004220632
 20
110.8014644269
 10
717.6046339767
 20
110.7886133867
 10
687.5082940628
 20
110.7857954595
 10
687.3514912872
 20
110.7939989137
 10
687.1964051414
 20
110.8185487498
 10
687.0447349839
 20
110.8591759625
 10
686.8981427427
 20
110.9154353787
 10
686.7582347043
 20
110.9867105348
 10
686.6265439131
 20
111.0722204325
 10
686.5045133728
 20
111.1710280958
 10
686.3934802348
 20
111.2820508382
 10
686.2946611462
 20
111.4040721266
 10
686.2091389186
 20
111.5357549109
 10
686.1378506632
 20
111.6756562752
 10
686.0815775218
 20
111.8222432482
 10
686.0409361083
 20
111.9739096011
 10
686.0163717516
 20
112.1289934476
 10
686.0081536159
 20
112.2857954544
 10
717.8001435755
 20
113.775799001
 10
717.9925864382
 20
113.7375384666
 10
718.1783889237
 20
113.6744864224
 10
718.3543718999
 20
113.5877217061
 10
718.5175242493
 20
113.4787288863
 10
718.66505439
 20
113.3493728602
 10
718.7944380404
 20
113.2018669454
 10
718.9034614103
 20
113.0387350089
 10
718.9902590796
 20
112.8627682834
 10
719.0533459163
 20
112.6769776083
 10
719.0916424869
 20
112.4845419137
 10
719.1044935266
 20
112.2887538275
  0
HATCH
  5
2E2
100
AcDbEntity
  8
ALL_DETAIL_ITEM
100
AcDbHatch
 62
4
  6
CONTINUOUS
 10
0.0
 20
0.0
 30
0.0
210
0.0
220
0.0
230
1.0
  2
SOLID
 70
1
 71
1
 91
1
 92
1
 93
40
 72
1
 10
719.1044935266
 20
112.2887538275
 11
719.0916791505
 21
112.0929633383
 72
1
 10
719.0916791505
 20
112.0929633383
 11
719.0534186161
 21
111.9005204756
 72
1
 10
719.0534186161
 20
111.9005204756
 11
718.9903665719
 21
111.7147179902
 72
1
 10
718.9903665719
 20
111.7147179902
 11
718.9036018556
 21
111.538735014
 72
1
 10
718.9036018556
 20
111.538735014
 11
718.7946090358
 21
111.3755826646
 72
1
 10
718.7946090358
 20
111.3755826646
 11
718.6652530097
 21
111.2280525239
 72
1
 10
718.6652530097
 20
111.2280525239
 11
718.5177470949
 21
111.0986688735
 72
1
 10
718.5177470949
 20
111.0986688735
 11
718.3546151584
 21
110.9896455036
 72
1
 10
718.3546151584
 20
110.9896455036
 11
718.1786484329
 21
110.9028478342
 72
1
 10
718.1786484329
 20
110.9028478342
 11
717.9928577578
 21
110.8397609976
 72
1
 10
717.9928577578
 20
110.8397609976
 11
717.8004220632
 21
110.8014644269
 72
1
 10
717.8004220632
 20
110.8014644269
 11
717.6046339767
 21
110.7886133867
 72
1
 10
717.6046339767
 20
110.7886133867
 11
687.5082940628
 21
110.7857954595
 72
1
 10
687.5082940628
 20
110.7857954595
 11
687.3514912872
 21
110.7939989137
 72
1
 10
687.3514912872
 20
110.7939989137
 11
687.1964051414
 21
110.8185487498
 72
1
 10
687.1964051414
 20
110.8185487498
 11
687.0447349839
 21
110.8591759625
 72
1
 10
687.0447349839
 20
110.8591759625
 11
686.8981427427
 21
110.9154353787
 72
1
 10
686.8981427427
 20
110.9154353787
 11
686.7582347043
 21
110.9867105348
 72
1
 10
686.7582347043
 20
110.9867105348
 11
686.6265439131
 21
111.0722204325
 72
1
 10
686.6265439131
 20
111.0722204325
 11
686.5045133728
 21
111.1710280958
 72
1
 10
686.5045133728
 20
111.1710280958
 11
686.3934802348
 21
111.2820508382
 72
1
 10
686.3934802348
 20
111.2820508382
 11
686.2946611462
 21
111.4040721266
 72
1
 10
686.2946611462
 20
111.4040721266
 11
686.2091389186
 21
111.5357549109
 72
1
 10
686.2091389186
 20
111.5357549109
 11
686.1378506632
 21
111.6756562752
 72
1
 10
686.1378506632
 20
111.6756562752
 11
686.0815775218
 21
111.8222432482
 72
1
 10
686.0815775218
 20
111.8222432482
 11
686.0409361083
 21
111.9739096011
 72
1
 10
686.0409361083
 20
111.9739096011
 11
686.0163717516
 21
112.1289934476
 72
1
 10
686.0163717516
 20
112.1289934476
 11
686.0081536159
 21
112.2857954544
 72
1
 10
686.0081536159
 20
112.2857954544
 11
717.8001435755
 21
113.775799001
 72
1
 10
717.8001435755
 20
113.775799001
 11
717.9925864382
 21
113.7375384666
 72
1
 10
717.9925864382
 20
113.7375384666
 11
718.1783889237
 21
113.6744864224
 72
1
 10
718.1783889237
 20
113.6744864224
 11
718.3543718999
 21
113.5877217061
 72
1
 10
718.3543718999
 20
113.5877217061
 11
718.5175242493
 21
113.4787288863
 72
1
 10
718.5175242493
 20
113.4787288863
 11
718.66505439
 21
113.3493728602
 72
1
 10
718.66505439
 20
113.3493728602
 11
718.7944380404
 21
113.2018669454
 72
1
 10
718.7944380404
 20
113.2018669454
 11
718.9034614103
 21
113.0387350089
 72
1
 10
718.9034614103
 20
113.0387350089
 11
718.9902590796
 21
112.8627682834
 72
1
 10
718.9902590796
 20
112.8627682834
 11
719.0533459163
 21
112.6769776083
 72
1
 10
719.0533459163
 20
112.6769776083
 11
719.0916424869
 21
112.4845419137
 72
1
 10
719.0916424869
 20
112.4845419137
 11
719.1044935266
 21
112.2887538275
 97
1
330
2E1
 75
0
 76
1
 98
1
 10
0.0
 20
0.0
  0
LWPOLYLINE
  5
2E3
100
AcDbEntity
  8
ALL_DETAIL_ITEM
100
AcDbPolyline
 62
4
  6
CONTINUOUS
 90
44
 70
0
 10
642.197508052
 20
112.4779778992
 10
642.2103407599
 20
112.2822049461
 10
642.197508052
 20
112.0863993221
 10
642.1592294993
 20
111.8939600426
 10
642.0961600586
 20
111.7081634615
 10
642.0093788654
 20
111.532184245
 10
641.90037077
 20
111.3690464662
 10
641.7710009313
 20
111.2215284378
 10
641.6234829028
 20
111.092158599
 10
641.4603407592
 20
110.983153882
 10
641.2843659075
 20
110.8963693105
 10
641.0985693265
 20
110.8332998698
 10
640.9061300469
 20
110.7950213171
 10
640.7103407584
 20
110.7821971936
 10
613.8323405247
 20
110.7821971936
 10
613.6755478296
 20
110.7904057661
 10
613.5204729881
 20
110.8149672081
 10
613.3688150326
 20
110.8556038348
 10
613.2222355594
 20
110.9118704228
 10
613.0823405239
 20
110.983153882
 10
612.9506626453
 20
111.0686631179
 10
612.8286446141
 20
111.1674713713
 10
612.7176232853
 20
111.2784927001
 10
612.6188150319
 20
111.4005107313
 10
612.5333024177
 20
111.532184245
 10
612.4620223368
 20
111.6720836454
 10
612.4057557488
 20
111.8186631186
 10
612.3651191221
 20
111.9703210741
 10
612.3405576801
 20
112.1253959156
 10
612.3323405232
 20
112.2822049461
 10
615.3323405262
 20
142.1289841446
 10
615.3323405262
 20
113.7821790488
 10
640.7103407584
 20
113.7821790488
 10
640.9061300469
 20
113.7693559042
 10
641.0985693265
 20
113.7310773515
 10
641.2843659075
 20
113.6680079108
 10
641.4603407592
 20
113.5812267176
 10
641.6234829028
 20
113.4722186223
 10
641.7710009313
 20
113.3428487835
 10
641.90037077
 20
113.1953307551
 10
642.0093788654
 20
113.0321886114
 10
642.0961600586
 20
112.8562137598
 10
642.1592294993
 20
112.6704171787
 10
642.197508052
 20
112.4779778992
  0
HATCH
  5
2E4
100
AcDbEntity
  8
ALL_DETAIL_ITEM
100
AcDbHatch
 62
4
  6
CONTINUOUS
 10
0.0
 20
0.0
 30
0.0
210
0.0
220
0.0
230
1.0
  2
SOLID
 70
1
 71
1
 91
1
 92
1
 93
43
 72
1
 10
642.197508052
 20
112.4779778992
 11
642.2103407599
 21
112.2822049461
 72
1
 10
642.2103407599
 20
112.2822049461
 11
642.197508052
 21
112.0863993221
 72
1
 10
642.197508052
 20
112.0863993221
 11
642.1592294993
 21
111.8939600426
 72
1
 10
642.1592294993
 20
111.8939600426
 11
642.0961600586
 21
111.7081634615
 72
1
 10
642.0961600586
 20
111.7081634615
 11
642.0093788654
 21
111.532184245
 72
1
 10
642.0093788654
 20
111.532184245
 11
641.90037077
 21
111.3690464662
 72
1
 10
641.90037077
 20
111.3690464662
 11
641.7710009313
 21
111.2215284378
 72
1
 10
641.7710009313
 20
111.2215284378
 11
641.6234829028
 21
111.092158599
 72
1
 10
641.6234829028
 20
111.092158599
 11
641.4603407592
 21
110.983153882
 72
1
 10
641.4603407592
 20
110.983153882
 11
641.2843659075
 21
110.8963693105
 72
1
 10
641.2843659075
 20
110.8963693105
 11
641.0985693265
 21
110.8332998698
 72
1
 10
641.0985693265
 20
110.8332998698
 11
640.9061300469
 21
110.7950213171
 72
1
 10
640.9061300469
 20
110.7950213171
 11
640.7103407584
 21
110.7821971936
 72
1
 10
640.7103407584
 20
110.7821971936
 11
613.8323405247
 21
110.7821971936
 72
1
 10
613.8323405247
 20
110.7821971936
 11
613.6755478296
 21
110.7904057661
 72
1
 10
613.6755478296
 20
110.7904057661
 11
613.5204729881
 21
110.8149672081
 72
1
 10
613.5204729881
 20
110.8149672081
 11
613.3688150326
 21
110.8556038348
 72
1
 10
613.3688150326
 20
110.8556038348
 11
613.2222355594
 21
110.9118704228
 72
1
 10
613.2222355594
 20
110.9118704228
 11
613.0823405239
 21
110.983153882
 72
1
 10
613.0823405239
 20
110.983153882
 11
612.9506626453
 21
111.0686631179
 72
1
 10
612.9506626453
 20
111.0686631179
 11
612.8286446141
 21
111.1674713713
 72
1
 10
612.8286446141
 20
111.1674713713
 11
612.7176232853
 21
111.2784927001
 72
1
 10
612.7176232853
 20
111.2784927001
 11
612.6188150319
 21
111.4005107313
 72
1
 10
612.6188150319
 20
111.4005107313
 11
612.5333024177
 21
111.532184245
 72
1
 10
612.5333024177
 20
111.532184245
 11
612.4620223368
 21
111.6720836454
 72
1
 10
612.4620223368
 20
111.6720836454
 11
612.4057557488
 21
111.8186631186
 72
1
 10
612.4057557488
 20
111.8186631186
 11
612.3651191221
 21
111.9703210741
 72
1
 10
612.3651191221
 20
111.9703210741
 11
612.3405576801
 21
112.1253959156
 72
1
 10
612.3405576801
 20
112.1253959156
 11
612.3323405232
 21
112.2822049461
 72
1
 10
612.3323405232
 20
112.2822049461
 11
615.3323405262
 21
142.1289841446
 72
1
 10
615.3323405262
 20
142.1289841446
 11
615.3323405262
 21
113.7821790488
 72
1
 10
615.3323405262
 20
113.7821790488
 11
640.7103407584
 21
113.7821790488
 72
1
 10
640.7103407584
 20
113.7821790488
 11
640.9061300469
 21
113.7693559042
 72
1
 10
640.9061300469
 20
113.7693559042
 11
641.0985693265
 21
113.7310773515
 72
1
 10
641.0985693265
 20
113.7310773515
 11
641.2843659075
 21
113.6680079108
 72
1
 10
641.2843659075
 20
113.6680079108
 11
641.4603407592
 21
113.5812267176
 72
1
 10
641.4603407592
 20
113.5812267176
 11
641.6234829028
 21
113.4722186223
 72
1
 10
641.6234829028
 20
113.4722186223
 11
641.7710009313
 21
113.3428487835
 72
1
 10
641.7710009313
 20
113.3428487835
 11
641.90037077
 21
113.1953307551
 72
1
 10
641.90037077
 20
113.1953307551
 11
642.0093788654
 21
113.0321886114
 72
1
 10
642.0093788654
 20
113.0321886114
 11
642.0961600586
 21
112.8562137598
 72
1
 10
642.0961600586
 20
112.8562137598
 11
642.1592294993
 21
112.6704171787
 72
1
 10
642.1592294993
 20
112.6704171787
 11
642.197508052
 21
112.4779778992
 97
1
330
2E3
 75
0
 76
1
 98
1
 10
0.0
 20
0.0
  0
LWPOLYLINE
  5
2E5
100
AcDbEntity
  8
ALL_DETAIL_ITEM
100
AcDbPolyline
 62
4
  6
CONTINUOUS
 90
25
 70
0
 10
602.7255938785
 20
111.2724413318
 10
602.629249301
 20
111.091809131
 10
602.5092048799
 20
110.9259491985
 10
602.3676968156
 20
110.7780246167
 10
602.2073611357
 20
110.6506937211
 10
602.0311845905
 20
110.5464129479
 10
601.8424490157
 20
110.4671003366
 10
601.6446701979
 20
110.4142028292
 10
601.4415323823
 20
110.38876357
 10
601.2368196421
 20
110.3911863566
 10
601.0343453883
 20
110.421471189
 10
600.8378813331
 20
110.4790460206
 10
600.6510872302
 20
110.5628340571
 10
600.4774427003
 20
110.6712874071
 10
600.3201824123
 20
110.802387082
 10
600.182235828
 20
110.9536429953
 10
600.0661726309
 20
111.1222958623
 10
602.6478009256
 20
112.6504348592
 10
602.7398186972
 20
112.4675481209
 10
602.8060769265
 20
112.2738597923
 10
602.8453413482
 20
112.0729031039
 10
602.8568805403
 20
111.8685141345
 10
602.8404795495
 20
111.6644616633
 10
602.7964438953
 20
111.4645144693
 10
602.7255938785
 20
111.2724413318
  0
HATCH
  5
2E6
100
AcDbEntity
  8
ALL_DETAIL_ITEM
100
AcDbHatch
 62
4
  6
CONTINUOUS
 10
0.0
 20
0.0
 30
0.0
210
0.0
220
0.0
230
1.0
  2
SOLID
 70
1
 71
1
 91
1
 92
1
 93
24
 72
1
 10
602.7255938785
 20
111.2724413318
 11
602.629249301
 21
111.091809131
 72
1
 10
602.629249301
 20
111.091809131
 11
602.5092048799
 21
110.9259491985
 72
1
 10
602.5092048799
 20
110.9259491985
 11
602.3676968156
 21
110.7780246167
 72
1
 10
602.3676968156
 20
110.7780246167
 11
602.2073611357
 21
110.6506937211
 72
1
 10
602.2073611357
 20
110.6506937211
 11
602.0311845905
 21
110.5464129479
 72
1
 10
602.0311845905
 20
110.5464129479
 11
601.8424490157
 21
110.4671003366
 72
1
 10
601.8424490157
 20
110.4671003366
 11
601.6446701979
 21
110.4142028292
 72
1
 10
601.6446701979
 20
110.4142028292
 11
601.4415323823
 21
110.38876357
 72
1
 10
601.4415323823
 20
110.38876357
 11
601.2368196421
 21
110.3911863566
 72
1
 10
601.2368196421
 20
110.3911863566
 11
601.0343453883
 21
110.421471189
 72
1
 10
601.0343453883
 20
110.421471189
 11
600.8378813331
 21
110.4790460206
 72
1
 10
600.8378813331
 20
110.4790460206
 11
600.6510872302
 21
110.5628340571
 72
1
 10
600.6510872302
 20
110.5628340571
 11
600.4774427003
 21
110.6712874071
 72
1
 10
600.4774427003
 20
110.6712874071
 11
600.3201824123
 21
110.802387082
 72
1
 10
600.3201824123
 20
110.802387082
 11
600.182235828
 21
110.9536429953
 72
1
 10
600.182235828
 20
110.9536429953
 11
600.0661726309
 21
111.1222958623
 72
1
 10
600.0661726309
 20
111.1222958623
 11
602.6478009256
 21
112.6504348592
 72
1
 10
602.6478009256
 20
112.6504348592
 11
602.7398186972
 21
112.4675481209
 72
1
 10
602.7398186972
 20
112.4675481209
 11
602.8060769265
 21
112.2738597923
 72
1
 10
602.8060769265
 20
112.2738597923
 11
602.8453413482
 21
112.0729031039
 72
1
 10
602.8453413482
 20
112.0729031039
 11
602.8568805403
 21
111.8685141345
 72
1
 10
602.8568805403
 20
111.8685141345
 11
602.8404795495
 21
111.6644616633
 72
1
 10
602.8404795495
 20
111.6644616633
 11
602.7964438953
 21
111.4645144693
 72
1
 10
602.7964438953
 20
111.4645144693
 11
602.7255938785
 21
111.2724413318
 97
1
330
2E5
 75
0
 76
1
 98
1
 10
0.0
 20
0.0
  0
LINE
  5
2E7
100
AcDbEntity
  8
ALL_DETAIL_ITEM
100
AcDbLine
 62
4
  6
CONTINUOUS
 10
810.0443381761
 20
112.1228863019
 11
812.4259812324
 21
114.5045293582
  0
LINE
  5
2E8
100
AcDbEntity
  8
ALL_DETAIL_ITEM
100
AcDbLine
 62
4
  6
CONTINUOUS
 10
801.6332064147
 20
110.7828223524
 11
804.6332064185
 21
113.7828223562
  0
LINE
  5
2E9
100
AcDbEntity
  8
ALL_DETAIL_ITEM
100
AcDbLine
 62
4
  6
CONTINUOUS
 10
810.1679709619
 20
119.3175868996
 11
813.1499968837
 21
122.2996128213
  0
LINE
  5
2EA
100
AcDbEntity
  8
ALL_DETAIL_ITEM
100
AcDbLine
 62
4
  6
CONTINUOUS
 10
794.5621386029
 20
110.7828223524
 11
797.5621386066
 21
113.7828223562
  0
LINE
  5
2EB
100
AcDbEntity
  8
ALL_DETAIL_ITEM
100
AcDbLine
 62
4
  6
CONTINUOUS
 10
808.4063801646
 20
124.6270639141
 11
810.5927776553
 21
126.8134614049
  0
LINE
  5
2EC
100
AcDbEntity
  8
ALL_DETAIL_ITEM
100
AcDbLine
 62
4
  6
CONTINUOUS
 10
787.491070791
 20
110.7828223524
 11
790.4910707948
 21
113.7828223562
  0
LINE
  5
2ED
100
AcDbEntity
  8
ALL_DETAIL_ITEM
100
AcDbLine
 62
4
  6
CONTINUOUS
 10
802.198936996
 20
125.4906885574
 11
805.1911196292
 21
128.4828711906
  0
LINE
  5
2EE
100
AcDbEntity
  8
ALL_DETAIL_ITEM
100
AcDbLine
 62
4
  6
CONTINUOUS
 10
780.4200029792
 20
110.7828223524
 11
783.4200029829
 21
113.7828223562
  0
LINE
  5
2EF
100
AcDbEntity
  8
ALL_DETAIL_ITEM
100
AcDbLine
 62
4
  6
CONTINUOUS
 10
795.1275309724
 20
125.4903503457
 11
798.1276744665
 21
128.4904938398
  0
LINE
  5
2F0
100
AcDbEntity
  8
ALL_DETAIL_ITEM
100
AcDbLine
 62
4
  6
CONTINUOUS
 10
809.8349549124
 20
140.1977742857
 11
811.3353944909
 21
141.6982138642
  0
LINE
  5
2F1
100
AcDbEntity
  8
ALL_DETAIL_ITEM
100
AcDbLine
 62
4
  6
CONTINUOUS
 10
775.4158501133
 20
112.8497372984
 11
776.2364242313
 21
113.6703114165
  0
LINE
  5
2F2
100
AcDbEntity
  8
ALL_DETAIL_ITEM
100
AcDbLine
 62
4
  6
CONTINUOUS
 10
788.0561249488
 20
125.4900121339
 11
791.0562684429
 21
128.490155628
  0
LINE
  5
2F3
100
AcDbEntity
  8
ALL_DETAIL_ITEM
100
AcDbLine
 62
4
  6
CONTINUOUS
 10
802.7638871003
 20
140.1977742855
 11
805.7638871035
 21
143.1977742887
  0
LINE
  5
2F4
100
AcDbEntity
  8
ALL_DETAIL_ITEM
100
AcDbLine
 62
4
  6
CONTINUOUS
 10
781.1775444514
 20
125.6824994484
 11
783.9848624193
 21
128.4898174163
  0
LINE
  5
2F5
100
AcDbEntity
  8
ALL_DETAIL_ITEM
100
AcDbLine
 62
4
  6
CONTINUOUS
 10
795.6928192883
 20
140.1977742853
 11
798.6928192917
 21
143.1977742887
  0
LINE
  5
2F6
100
AcDbEntity
  8
ALL_DETAIL_ITEM
100
AcDbLine
 62
4
  6
CONTINUOUS
 10
759.4188842623
 20
110.9949070711
 11
765.6315225285
 21
117.2075453373
  0
LINE
  5
2F7
100
AcDbEntity
  8
ALL_DETAIL_ITEM
100
AcDbLine
 62
4
  6
CONTINUOUS
 10
776.4801315481
 20
128.056154357
 11
778.6025633429
 21
130.1785861518
  0
LINE
  5
2F8
100
AcDbEntity
  8
ALL_DETAIL_ITEM
100
AcDbLine
 62
4
  6
CONTINUOUS
 10
788.6217514762
 20
140.1977742851
 11
791.6217514798
 21
143.1977742887
  0
LINE
  5
2F9
100
AcDbEntity
  8
ALL_DETAIL_ITEM
100
AcDbLine
 62
4
  6
CONTINUOUS
 10
752.1457159514
 20
110.7928065722
 11
755.1457159552
 21
113.7928065759
  0
LINE
  5
2FA
100
AcDbEntity
  8
ALL_DETAIL_ITEM
100
AcDbLine
 62
4
  6
CONTINUOUS
 10
762.6398571067
 20
121.2869477274
 11
765.6399304531
 21
124.2870210738
  0
LINE
  5
2FB
100
AcDbEntity
  8
ALL_DETAIL_ITEM
100
AcDbLine
 62
4
  6
CONTINUOUS
 10
774.9116631747
 20
133.5587537954
 11
777.9116631784
 21
136.5587537991
  0
LINE
  5
2FC
100
AcDbEntity
  8
ALL_DETAIL_ITEM
100
AcDbLine
 62
4
  6
CONTINUOUS
 10
781.3179525518
 20
139.9650431725
 11
784.5506836679
 21
143.1977742887
  0
LINE
  5
2FD
100
AcDbEntity
  8
ALL_DETAIL_ITEM
100
AcDbLine
 62
4
  6
CONTINUOUS
 10
745.0746481396
 20
110.7928065722
 11
748.0746481433
 21
113.7928065759
  0
LINE
  5
2FE
100
AcDbEntity
  8
ALL_DETAIL_ITEM
100
AcDbLine
 62
4
  6
CONTINUOUS
 10
762.6400299761
 20
128.3581884087
 11
765.6401033221
 21
131.3582617547
  0
LINE
  5
2FF
100
AcDbEntity
  8
ALL_DETAIL_ITEM
100
AcDbLine
 62
4
  6
CONTINUOUS
 10
738.0035803277
 20
110.7928065722
 11
741.0035803315
 21
113.7928065759
  0
LINE
  5
300
100
AcDbEntity
  8
ALL_DETAIL_ITEM
100
AcDbLine
 62
4
  6
CONTINUOUS
 10
762.6402028456
 20
135.42942909
 11
765.6402761911
 21
138.4295024355
  0
LINE
  5
301
100
AcDbEntity
  8
ALL_DETAIL_ITEM
100
AcDbLine
 62
4
  6
CONTINUOUS
 10
731.8034536316
 20
111.6637476879
 11
734.1608709356
 21
114.0211649919
  0
LINE
  5
302
100
AcDbEntity
  8
ALL_DETAIL_ITEM
100
AcDbLine
 62
4
  6
CONTINUOUS
 10
762.6949658226
 20
142.5552598789
 11
763.7360584053
 21
143.5963524616
  0
LINE
  5
303
100
AcDbEntity
  8
ALL_DETAIL_ITEM
100
AcDbLine
 62
4
  6
CONTINUOUS
 10
728.1913676906
 20
115.1227295588
 11
730.7377449898
 21
117.669106858
  0
LINE
  5
304
100
AcDbEntity
  8
ALL_DETAIL_ITEM
100
AcDbLine
 62
4
  6
CONTINUOUS
 10
716.7861070677
 20
110.7885367478
 11
718.948417122
 21
112.9508468021
  0
LINE
  5
305
100
AcDbEntity
  8
ALL_DETAIL_ITEM
100
AcDbLine
 62
4
  6
CONTINUOUS
 10
727.7376454642
 20
121.7400751442
 11
730.7375721299
 21
124.7400018099
  0
LINE
  5
306
100
AcDbEntity
  8
ALL_DETAIL_ITEM
100
AcDbLine
 62
4
  6
CONTINUOUS
 10
709.7143771282
 20
110.7878746201
 11
712.7146580618
 21
113.7881555537
  0
LINE
  5
307
100
AcDbEntity
  8
ALL_DETAIL_ITEM
100
AcDbLine
 62
4
  6
CONTINUOUS
 10
727.7374726045
 20
128.8109700965
 11
730.7373992699
 21
131.8108967618
  0
LINE
  5
308
100
AcDbEntity
  8
ALL_DETAIL_ITEM
100
AcDbLine
 62
4
  6
CONTINUOUS
 10
702.6426471886
 20
110.7872124924
 11
705.642928122
 21
113.7874934258
  0
LINE
  5
309
100
AcDbEntity
  8
ALL_DETAIL_ITEM
100
AcDbLine
 62
4
  6
CONTINUOUS
 10
727.7372997449
 20
135.8818650487
 11
730.73722641
 21
138.8817917138
  0
LINE
  5
30A
100
AcDbEntity
  8
ALL_DETAIL_ITEM
100
AcDbLine
 62
4
  6
CONTINUOUS
 10
695.5709172491
 20
110.7865503647
 11
698.5711981823
 21
113.786831298
  0
LINE
  5
30B
100
AcDbEntity
  8
ALL_DETAIL_ITEM
100
AcDbLine
 62
4
  6
CONTINUOUS
 10
710.2751827968
 20
125.4908159124
 11
713.2751827998
 21
128.4908159154
  0
LINE
  5
30C
100
AcDbEntity
  8
ALL_DETAIL_ITEM
100
AcDbLine
 62
4
  6
CONTINUOUS
 10
688.4991873095
 20
110.7858882371
 11
691.4994682426
 21
113.7861691701
  0
LINE
  5
30D
100
AcDbEntity
  8
ALL_DETAIL_ITEM
100
AcDbLine
 62
4
  6
CONTINUOUS
 10
703.2041149849
 20
125.4908159124
 11
706.2041149879
 21
128.4908159154
  0
LINE
  5
30E
100
AcDbEntity
  8
ALL_DETAIL_ITEM
100
AcDbLine
 62
4
  6
CONTINUOUS
 10
717.9538381613
 20
140.2405390889
 11
719.0632610218
 21
141.3499619493
  0
LINE
  5
30F
100
AcDbEntity
  8
ALL_DETAIL_ITEM
100
AcDbLine
 62
4
  6
CONTINUOUS
 10
686.0081536159
 20
115.3659223553
 11
689.0081536159
 21
118.3659223553
  0
LINE
  5
310
100
AcDbEntity
  8
ALL_DETAIL_ITEM
100
AcDbLine
 62
4
  6
CONTINUOUS
 10
696.133047173
 20
125.4908159124
 11
699.133047176
 21
128.4908159154
  0
LINE
  5
311
100
AcDbEntity
  8
ALL_DETAIL_ITEM
100
AcDbLine
 62
4
  6
CONTINUOUS
 10
710.8392457604
 20
140.1970144998
 11
713.8391481485
 21
143.1969168878
  0
LINE
  5
312
100
AcDbEntity
  8
ALL_DETAIL_ITEM
100
AcDbLine
 62
4
  6
CONTINUOUS
 10
686.0081536159
 20
122.4369901672
 11
689.0081536159
 21
125.4369901672
  0
LINE
  5
313
100
AcDbEntity
  8
ALL_DETAIL_ITEM
100
AcDbLine
 62
4
  6
CONTINUOUS
 10
689.0619793612
 20
125.4908159124
 11
692.0619793642
 21
128.4908159154
  0
LINE
  5
314
100
AcDbEntity
  8
ALL_DETAIL_ITEM
100
AcDbLine
 62
4
  6
CONTINUOUS
 10
703.768408033
 20
140.1972445843
 11
706.7683104211
 21
143.1971469723
  0
LINE
  5
315
100
AcDbEntity
  8
ALL_DETAIL_ITEM
100
AcDbLine
 62
4
  6
CONTINUOUS
 10
686.0081536159
 20
129.508057979
 11
689.0081536159
 21
132.508057979
  0
LINE
  5
316
100
AcDbEntity
  8
ALL_DETAIL_ITEM
100
AcDbLine
 62
4
  6
CONTINUOUS
 10
696.6975703056
 20
140.1974746687
 11
699.6974726937
 21
143.1973770568
  0
LINE
  5
317
100
AcDbEntity
  8
ALL_DETAIL_ITEM
100
AcDbLine
 62
4
  6
CONTINUOUS
 10
686.0081536159
 20
136.5791257909
 11
689.0081536159
 21
139.5791257909
  0
LINE
  5
318
100
AcDbEntity
  8
ALL_DETAIL_ITEM
100
AcDbLine
 62
4
  6
CONTINUOUS
 10
689.6267325782
 20
140.1977047532
 11
692.6266349663
 21
143.1976071413
  0
LINE
  5
319
100
AcDbEntity
  8
ALL_DETAIL_ITEM
100
AcDbLine
 62
4
  6
CONTINUOUS
 10
655.4155838165
 20
113.0576238034
 11
657.6039718578
 21
115.2460118446
  0
LINE
  5
31A
100
AcDbEntity
  8
ALL_DETAIL_ITEM
100
AcDbLine
 62
4
  6
CONTINUOUS
 10
659.1914749245
 20
116.8335149114
 11
667.8262286695
 21
125.4682686563
  0
LINE
  5
31B
100
AcDbEntity
  8
ALL_DETAIL_ITEM
100
AcDbLine
 62
4
  6
CONTINUOUS
 10
652.7760940072
 20
117.4892018059
 11
654.9644820484
 21
119.6775898471
  0
LINE
  5
31C
100
AcDbEntity
  8
ALL_DETAIL_ITEM
100
AcDbLine
 62
4
  6
CONTINUOUS
 10
669.6061473174
 20
134.3192551161
 11
677.5472267631
 21
142.2603345618
  0
LINE
  5
31D
100
AcDbEntity
  8
ALL_DETAIL_ITEM
100
AcDbLine
 62
4
  6
CONTINUOUS
 10
638.9980129986
 20
110.7821886092
 11
641.659355001
 21
113.4435306115
  0
LINE
  5
31E
100
AcDbEntity
  8
ALL_DETAIL_ITEM
100
AcDbLine
 62
4
  6
CONTINUOUS
 10
650.1366041979
 20
121.9207798085
 11
652.3249922391
 21
124.1091678496
  0
LINE
  5
31F
100
AcDbEntity
  8
ALL_DETAIL_ITEM
100
AcDbLine
 62
4
  6
CONTINUOUS
 10
631.9269451867
 20
110.7821886092
 11
634.9269451899
 21
113.7821886123
  0
LINE
  5
320
100
AcDbEntity
  8
ALL_DETAIL_ITEM
100
AcDbLine
 62
4
  6
CONTINUOUS
 10
647.4971143887
 20
126.3523578111
 11
649.6855024297
 21
128.5407458521
  0
LINE
  5
321
100
AcDbEntity
  8
ALL_DETAIL_ITEM
100
AcDbLine
 62
4
  6
CONTINUOUS
 10
624.8558773749
 20
110.7821886092
 11
627.8558773782
 21
113.7821886125
  0
LINE
  5
322
100
AcDbEntity
  8
ALL_DETAIL_ITEM
100
AcDbLine
 62
4
  6
CONTINUOUS
 10
644.8576245794
 20
130.7839358137
 11
647.0460126203
 21
132.9723238547
  0
LINE
  5
323
100
AcDbEntity
  8
ALL_DETAIL_ITEM
100
AcDbLine
 62
4
  6
CONTINUOUS
 10
617.784809563
 20
110.7821886092
 11
620.7848095666
 21
113.7821886128
  0
LINE
  5
324
100
AcDbEntity
  8
ALL_DETAIL_ITEM
100
AcDbLine
 62
4
  6
CONTINUOUS
 10
642.2181347701
 20
135.2155138163
 11
644.406522811
 21
137.4039018572
  0
LINE
  5
325
100
AcDbEntity
  8
ALL_DETAIL_ITEM
100
AcDbLine
 62
4
  6
CONTINUOUS
 10
612.3323405232
 20
112.4007873812
 11
615.3323405262
 21
115.4007873842
  0
LINE
  5
326
100
AcDbEntity
  8
ALL_DETAIL_ITEM
100
AcDbLine
 62
4
  6
CONTINUOUS
 10
639.5786449608
 20
139.6470918188
 11
641.7670330016
 21
141.8354798597
  0
LINE
  5
327
100
AcDbEntity
  8
ALL_DETAIL_ITEM
100
AcDbLine
 62
4
  6
CONTINUOUS
 10
612.3323405232
 20
119.4718551931
 11
615.3323405262
 21
122.4718551961
  0
LINE
  5
328
100
AcDbEntity
  8
ALL_DETAIL_ITEM
100
AcDbLine
 62
4
  6
CONTINUOUS
 10
598.8932514629
 20
113.1038339447
 11
601.0831588228
 21
115.2937413046
  0
LINE
  5
329
100
AcDbEntity
  8
ALL_DETAIL_ITEM
100
AcDbLine
 62
4
  6
CONTINUOUS
 10
612.3323405232
 20
126.5429230049
 11
615.3323405262
 21
129.5429230079
  0
LINE
  5
32A
100
AcDbEntity
  8
ALL_DETAIL_ITEM
100
AcDbLine
 62
4
  6
CONTINUOUS
 10
596.2640137972
 20
117.5456640908
 11
598.4539211571
 21
119.7355714507
  0
LINE
  5
32B
100
AcDbEntity
  8
ALL_DETAIL_ITEM
100
AcDbLine
 62
4
  6
CONTINUOUS
 10
612.3323405232
 20
133.6139908168
 11
615.3323405262
 21
136.6139908198
  0
LINE
  5
32C
100
AcDbEntity
  8
ALL_DETAIL_ITEM
100
AcDbLine
 62
4
  6
CONTINUOUS
 10
593.6347761314
 20
121.9874942369
 11
595.8246834914
 21
124.1774015969
  0
LINE
  5
32D
100
AcDbEntity
  8
ALL_DETAIL_ITEM
100
AcDbLine
 62
4
  6
CONTINUOUS
 10
612.3323405232
 20
140.6850586287
 11
614.8640739524
 21
143.2167920579
  0
LINE
  5
32E
100
AcDbEntity
  8
ALL_DETAIL_ITEM
100
AcDbLine
 62
4
  6
CONTINUOUS
 10
591.0055384656
 20
126.429324383
 11
593.1954458257
 21
128.6192317431
  0
LINE
  5
32F
100
AcDbEntity
  8
ALL_DETAIL_ITEM
100
AcDbLine
 62
4
  6
CONTINUOUS
 10
588.3763007998
 20
130.871154529
 11
590.56620816
 21
133.0610618893
  0
LINE
  5
330
100
AcDbEntity
  8
ALL_DETAIL_ITEM
100
AcDbLine
 62
4
  6
CONTINUOUS
 10
565.1127631489
 20
114.67868469
 11
573.6557663951
 21
123.2216879362
  0
LINE
  5
331
100
AcDbEntity
  8
ALL_DETAIL_ITEM
100
AcDbLine
 62
4
  6
CONTINUOUS
 10
585.747063134
 20
135.3129846751
 11
587.9369704943
 21
137.5028920354
  0
LINE
  5
332
100
AcDbEntity
  8
ALL_DETAIL_ITEM
100
AcDbLine
 62
4
  6
CONTINUOUS
 10
575.3696289531
 20
132.0066183061
 11
585.3077328287
 21
141.9447221816
  0
ENDBLK
  5
333
100
AcDbEntity
  8
0
  6
BYBLOCK
 62
0
100
AcDbBlockEnd
  0
BLOCK
  5
334
100
AcDbEntity
  8
ALL_DETAIL_ITEM
100
AcDbBlockBegin
 62
2
  6
CONTINUOUS
  2
I_GRANITAL_B2B_BL0
 70
64
 10
315.0571720548
 20
519.1407188549
  3
I_GRANITAL_B2B_BL0
  1

  0
TEXT
  5
335
100
AcDbEntity
  8
ALL_DETAIL_ITEM
100
AcDbText
 62
5
  6
CONTINUOUS
 10
265.5440442279
 20
647.1927942252
  7
TEXTSTYLE_2
 40
25.0
  1
1
 41
0.7619047619
 72
0
100
AcDbText
  0
CIRCLE
  5
336
100
AcDbEntity
  8
ALL_DETAIL_ITEM
100
AcDbCircle
 62
2
  6
CONTINUOUS
 10
274.1059032759
 20
659.2899462252
 40
23.2719072505
  0
LINE
  5
337
100
AcDbEntity
  8
ALL_DETAIL_ITEM
100
AcDbLine
 62
2
  6
CONTINUOUS
 10
323.5793845946
 20
546.0634215456
 11
281.5820160603
 21
637.2516169685
  0
CIRCLE
  5
338
100
AcDbEntity
  8
ALL_DETAIL_ITEM
100
AcDbCircle
 62
2
  6
CONTINUOUS
 10
323.5661746793
 20
546.0848699589
 40
1.9328519331
  0
LINE
  5
339
100
AcDbEntity
  8
ALL_DETAIL_ITEM
100
AcDbLine
 62
9
  6
CONTINUOUS
 10
269.0041184242
 20
356.923061886
 11
269.2695448302
 21
356.852108756
  0
LINE
  5
33A
100
AcDbEntity
  8
ALL_DETAIL_ITEM
100
AcDbLine
 62
9
  6
CONTINUOUS
 10
269.2695448302
 20
356.852108756
 11
269.4943955192
 21
356.802632734
  0
LINE
  5
33B
100
AcDbEntity
  8
ALL_DETAIL_ITEM
100
AcDbLine
 62
9
  6
CONTINUOUS
 10
269.4943955192
 20
356.802632734
 11
269.6737687087
 21
356.7724077555
  0
LINE
  5
33C
100
AcDbEntity
  8
ALL_DETAIL_ITEM
100
AcDbLine
 62
9
  6
CONTINUOUS
 10
269.6737687087
 20
356.7724077555
 11
269.8091082257
 21
356.7581893945
  0
LINE
  5
33D
100
AcDbEntity
  8
ALL_DETAIL_ITEM
100
AcDbLine
 62
9
  6
CONTINUOUS
 10
269.8091082257
 20
356.7581893945
 11
269.9049146852
 21
356.7566114755
  0
LINE
  5
33E
100
AcDbEntity
  8
ALL_DETAIL_ITEM
100
AcDbLine
 62
9
  6
CONTINUOUS
 10
269.9049146852
 20
356.7566114755
 11
269.9669600302
 21
356.7645906235
  0
LINE
  5
33F
100
AcDbEntity
  8
ALL_DETAIL_ITEM
100
AcDbLine
 62
9
  6
CONTINUOUS
 10
269.9669600302
 20
356.7645906235
 11
270.0012177472
 21
356.779493055
  0
LINE
  5
340
100
AcDbEntity
  8
ALL_DETAIL_ITEM
100
AcDbLine
 62
9
  6
CONTINUOUS
 10
270.0012177472
 20
356.779493055
 11
270.0132530907
 21
356.799155729
  0
LINE
  5
341
100
AcDbEntity
  8
ALL_DETAIL_ITEM
100
AcDbLine
 62
9
  6
CONTINUOUS
 10
270.0132530907
 20
356.799155729
 11
270.2920082352
 21
356.808330673
  0
LINE
  5
342
100
AcDbEntity
  8
ALL_DETAIL_ITEM
100
AcDbLine
 62
9
  6
CONTINUOUS
 10
270.2920082352
 20
356.808330673
 11
270.5219209337
 21
356.963590793
  0
LINE
  5
343
100
AcDbEntity
  8
ALL_DETAIL_ITEM
100
AcDbLine
 62
9
  6
CONTINUOUS
 10
270.5219209337
 20
356.963590793
 11
270.6306016912
 21
357.2103619625
  0
LINE
  5
344
100
AcDbEntity
  8
ALL_DETAIL_ITEM
100
AcDbLine
 62
9
  6
CONTINUOUS
 10
270.1474034272
 20
357.891722542
 11
270.4259648797
 21
357.899317546
  0
LINE
  5
345
100
AcDbEntity
  8
ALL_DETAIL_ITEM
100
AcDbLine
 62
9
  6
CONTINUOUS
 10
270.7492975297
 20
358.0577798025
 11
270.8904290847
 21
358.0458998755
  0
LINE
  5
346
100
AcDbEntity
  8
ALL_DETAIL_ITEM
100
AcDbLine
 62
9
  6
CONTINUOUS
 10
276.8904864607
 20
357.307434388
 11
277.0278817952
 21
357.2923654145
  0
LINE
  5
347
100
AcDbEntity
  8
ALL_DETAIL_ITEM
100
AcDbLine
 62
9
  6
CONTINUOUS
 10
277.0278817952
 20
357.2923654145
 11
277.1532436107
 21
357.272669534
  0
LINE
  5
348
100
AcDbEntity
  8
ALL_DETAIL_ITEM
100
AcDbLine
 62
9
  6
CONTINUOUS
 10
255.5821624032
 20
365.0818318795
 11
293.5879494257
 21
360.415308008
  0
LINE
  5
349
100
AcDbEntity
  8
ALL_DETAIL_ITEM
100
AcDbLine
 62
9
  6
CONTINUOUS
 10
255.0061500812
 20
366.16954202
 11
294.4099926192
 21
361.331358516
  0
LINE
  5
34A
100
AcDbEntity
  8
ALL_DETAIL_ITEM
100
AcDbLine
 62
9
  6
CONTINUOUS
 10
270.8904290847
 20
358.0458998755
 11
271.0366555967
 21
358.0260134445
  0
LINE
  5
34B
100
AcDbEntity
  8
ALL_DETAIL_ITEM
100
AcDbLine
 62
9
  6
CONTINUOUS
 10
271.1848766417
 20
357.998615337
 11
273.0185231617
 21
357.668638654
  0
LINE
  5
34C
100
AcDbEntity
  8
ALL_DETAIL_ITEM
100
AcDbLine
 62
9
  6
CONTINUOUS
 10
273.0185231617
 20
357.668638654
 11
274.8863904232
 21
357.439586202
  0
LINE
  5
34D
100
AcDbEntity
  8
ALL_DETAIL_ITEM
100
AcDbLine
 62
9
  6
CONTINUOUS
 10
274.8863904232
 20
357.439586202
 11
276.8904864607
 21
357.307434388
  0
LINE
  5
34E
100
AcDbEntity
  8
ALL_DETAIL_ITEM
100
AcDbLine
 62
9
  6
CONTINUOUS
 10
271.0366555967
 20
358.0260134445
 11
271.1848766417
 21
357.998615337
  0
LINE
  5
34F
100
AcDbEntity
  8
ALL_DETAIL_ITEM
100
AcDbLine
 62
9
  6
CONTINUOUS
 10
277.1532436107
 20
357.272669534
 11
277.2703405207
 21
357.248194835
  0
LINE
  5
350
100
AcDbEntity
  8
ALL_DETAIL_ITEM
100
AcDbLine
 62
9
  6
CONTINUOUS
 10
277.2703405207
 20
357.248194835
 11
277.3786693202
 21
357.218926668
  0
LINE
  5
351
100
AcDbEntity
  8
ALL_DETAIL_ITEM
100
AcDbLine
 62
9
  6
CONTINUOUS
 10
277.7159134277
 20
356.962426365
 11
277.4474641252
 21
357.0371857045
  0
LINE
  5
352
100
AcDbEntity
  8
ALL_DETAIL_ITEM
100
AcDbLine
 62
9
  6
CONTINUOUS
 10
277.5817630912
 20
355.869859552
 11
277.3135166362
 21
355.9461932585
  0
LINE
  5
353
100
AcDbEntity
  8
ALL_DETAIL_ITEM
100
AcDbLine
 62
9
  6
CONTINUOUS
 10
277.3135166362
 20
355.9461932585
 11
277.1279890027
 21
356.152460204
  0
LINE
  5
354
100
AcDbEntity
  8
ALL_DETAIL_ITEM
100
AcDbLine
 62
9
  6
CONTINUOUS
 10
277.1279890027
 20
356.152460204
 11
277.0829579642
 21
356.424445173
  0
LINE
  5
355
100
AcDbEntity
  8
ALL_DETAIL_ITEM
100
AcDbLine
 62
9
  6
CONTINUOUS
 10
277.3786693202
 20
357.218926668
 11
277.4766087422
 21
357.1849044595
  0
LINE
  5
356
100
AcDbEntity
  8
ALL_DETAIL_ITEM
100
AcDbLine
 62
9
  6
CONTINUOUS
 10
277.4766087422
 20
357.1849044595
 11
277.5620572697
 21
357.1461587485
  0
LINE
  5
357
100
AcDbEntity
  8
ALL_DETAIL_ITEM
100
AcDbLine
 62
9
  6
CONTINUOUS
 10
277.5620572697
 20
357.1461587485
 11
277.6316686917
 21
357.103232211
  0
LINE
  5
358
100
AcDbEntity
  8
ALL_DETAIL_ITEM
100
AcDbLine
 62
9
  6
CONTINUOUS
 10
277.6316686917
 20
357.103232211
 11
277.6818906412
 21
357.0573128075
  0
LINE
  5
359
100
AcDbEntity
  8
ALL_DETAIL_ITEM
100
AcDbLine
 62
9
  6
CONTINUOUS
 10
277.6818906412
 20
357.0573128075
 11
277.7102860517
 21
357.0099091325
  0
LINE
  5
35A
100
AcDbEntity
  8
ALL_DETAIL_ITEM
100
AcDbLine
 62
9
  6
CONTINUOUS
 10
277.7102860517
 20
357.0099091325
 11
277.7159134277
 21
356.962426365
  0
LINE
  5
35B
100
AcDbEntity
  8
ALL_DETAIL_ITEM
100
AcDbLine
 62
9
  6
CONTINUOUS
 10
255.4723307122
 20
365.222564127
 11
255.5821624032
 21
365.0818318795
  0
LINE
  5
35C
100
AcDbEntity
  8
ALL_DETAIL_ITEM
100
AcDbLine
 62
9
  6
CONTINUOUS
 10
273.9036263272
 20
373.319329465
 11
278.3700840097
 21
372.77091742
  0
LINE
  5
35D
100
AcDbEntity
  8
ALL_DETAIL_ITEM
100
AcDbLine
 62
9
  6
CONTINUOUS
 10
363.7348390277
 20
365.891136705
 11
359.4941524877
 21
366.4118275395
  0
LINE
  5
35E
100
AcDbEntity
  8
ALL_DETAIL_ITEM
100
AcDbLine
 62
9
  6
CONTINUOUS
 10
277.4474641252
 20
357.0371857045
 11
277.2611214437
 21
357.236774914
  0
LINE
  5
35F
100
AcDbEntity
  8
ALL_DETAIL_ITEM
100
AcDbLine
 62
9
  6
CONTINUOUS
 10
277.5817630912
 20
355.869859552
 11
277.6137008042
 21
355.827679281
  0
LINE
  5
360
100
AcDbEntity
  8
ALL_DETAIL_ITEM
100
AcDbLine
 62
9
  6
CONTINUOUS
 10
277.6137008042
 20
355.827679281
 11
277.7049698117
 21
355.794592998
  0
LINE
  5
361
100
AcDbEntity
  8
ALL_DETAIL_ITEM
100
AcDbLine
 62
9
  6
CONTINUOUS
 10
277.7049698117
 20
355.794592998
 11
277.8340441517
 21
355.7704704395
  0
LINE
  5
362
100
AcDbEntity
  8
ALL_DETAIL_ITEM
100
AcDbLine
 62
9
  6
CONTINUOUS
 10
277.8340441517
 20
355.7704704395
 11
277.9839025207
 21
355.754400482
  0
LINE
  5
363
100
AcDbEntity
  8
ALL_DETAIL_ITEM
100
AcDbLine
 62
9
  6
CONTINUOUS
 10
277.9839025207
 20
355.754400482
 11
278.1418623152
 21
355.7451551685
  0
LINE
  5
364
100
AcDbEntity
  8
ALL_DETAIL_ITEM
100
AcDbLine
 62
9
  6
CONTINUOUS
 10
278.1418623152
 20
355.7451551685
 11
278.2990992012
 21
355.741444661
  0
LINE
  5
365
100
AcDbEntity
  8
ALL_DETAIL_ITEM
100
AcDbLine
 62
9
  6
CONTINUOUS
 10
278.2990992012
 20
355.741444661
 11
278.4499116597
 21
355.742061556
  0
LINE
  5
366
100
AcDbEntity
  8
ALL_DETAIL_ITEM
100
AcDbLine
 62
9
  6
CONTINUOUS
 10
278.4499116597
 20
355.742061556
 11
278.5908977577
 21
355.745953395
  0
LINE
  5
367
100
AcDbEntity
  8
ALL_DETAIL_ITEM
100
AcDbLine
 62
9
  6
CONTINUOUS
 10
239.5529930647
 20
478.9118275395
 11
239.5529930647
 21
485.8886539865
  0
LINE
  5
368
100
AcDbEntity
  8
ALL_DETAIL_ITEM
100
AcDbLine
 62
9
  6
CONTINUOUS
 10
255.3420677657
 20
365.523303572
 11
255.3930987072
 21
365.3714987645
  0
LINE
  5
369
100
AcDbEntity
  8
ALL_DETAIL_ITEM
100
AcDbLine
 62
9
  6
CONTINUOUS
 10
255.3930987072
 20
365.3714987645
 11
255.4723307122
 21
365.222564127
  0
LINE
  5
36A
100
AcDbEntity
  8
ALL_DETAIL_ITEM
100
AcDbLine
 62
9
  6
CONTINUOUS
 10
251.4758287402
 20
478.9118275395
 11
251.4758287402
 21
485.8886539865
  0
LINE
  5
36B
100
AcDbEntity
  8
ALL_DETAIL_ITEM
100
AcDbLine
 62
9
  6
CONTINUOUS
 10
273.6948819972
 20
546.9350010925
 11
270.7746856397
 21
538.9118275395
  0
LINE
  5
36C
100
AcDbEntity
  8
ALL_DETAIL_ITEM
100
AcDbLine
 62
9
  6
CONTINUOUS
 10
266.7710130627
 20
527.9118275395
 11
251.4758287402
 21
485.8886539865
  0
LINE
  5
36D
100
AcDbEntity
  8
ALL_DETAIL_ITEM
100
AcDbLine
 62
9
  6
CONTINUOUS
 10
237.6118502262
 20
479.1673838425
 11
237.6399415412
 21
479.211717953
  0
LINE
  5
36E
100
AcDbEntity
  8
ALL_DETAIL_ITEM
100
AcDbLine
 62
9
  6
CONTINUOUS
 10
237.6399415412
 20
479.211717953
 11
237.6935884827
 21
479.3522349295
  0
LINE
  5
36F
100
AcDbEntity
  8
ALL_DETAIL_ITEM
100
AcDbLine
 62
9
  6
CONTINUOUS
 10
237.6935884827
 20
479.3522349295
 11
237.7720743377
 21
479.58705769
  0
LINE
  5
370
100
AcDbEntity
  8
ALL_DETAIL_ITEM
100
AcDbLine
 62
9
  6
CONTINUOUS
 10
237.7720743377
 20
479.58705769
 11
237.8743506782
 21
479.913049439
  0
LINE
  5
371
100
AcDbEntity
  8
ALL_DETAIL_ITEM
100
AcDbLine
 62
9
  6
CONTINUOUS
 10
237.8743506782
 20
479.913049439
 11
237.9990512252
 21
480.3258553575
  0
LINE
  5
372
100
AcDbEntity
  8
ALL_DETAIL_ITEM
100
AcDbLine
 62
9
  6
CONTINUOUS
 10
237.9990512252
 20
480.3258553575
 11
238.1445101612
 21
480.819960957
  0
LINE
  5
373
100
AcDbEntity
  8
ALL_DETAIL_ITEM
100
AcDbLine
 62
9
  6
CONTINUOUS
 10
238.1445101612
 20
480.819960957
 11
238.3087843642
 21
481.388765701
  0
LINE
  5
374
100
AcDbEntity
  8
ALL_DETAIL_ITEM
100
AcDbLine
 62
9
  6
CONTINUOUS
 10
238.3087843642
 20
481.388765701
 11
238.4896793697
 21
482.0246711825
  0
LINE
  5
375
100
AcDbEntity
  8
ALL_DETAIL_ITEM
100
AcDbLine
 62
9
  6
CONTINUOUS
 10
238.4896793697
 20
482.0246711825
 11
238.6847786857
 21
482.719182636
  0
LINE
  5
376
100
AcDbEntity
  8
ALL_DETAIL_ITEM
100
AcDbLine
 62
9
  6
CONTINUOUS
 10
238.6847786857
 20
482.719182636
 11
238.8914760677
 21
483.463022394
  0
LINE
  5
377
100
AcDbEntity
  8
ALL_DETAIL_ITEM
100
AcDbLine
 62
9
  6
CONTINUOUS
 10
238.8914760677
 20
483.463022394
 11
239.1070103557
 21
484.2462538965
  0
LINE
  5
378
100
AcDbEntity
  8
ALL_DETAIL_ITEM
100
AcDbLine
 62
9
  6
CONTINUOUS
 10
239.1070103557
 20
484.2462538965
 11
239.3285022762
 21
485.0584141335
  0
LINE
  5
379
100
AcDbEntity
  8
ALL_DETAIL_ITEM
100
AcDbLine
 62
9
  6
CONTINUOUS
 10
239.3285022762
 20
485.0584141335
 11
239.5529930647
 21
485.8886539865
  0
LINE
  5
37A
100
AcDbEntity
  8
ALL_DETAIL_ITEM
100
AcDbLine
 62
9
  6
CONTINUOUS
 10
293.5879494262
 20
360.415308008
 11
293.5900613002
 21
360.4119775545
  0
LINE
  5
37B
100
AcDbEntity
  8
ALL_DETAIL_ITEM
100
AcDbLine
 62
9
  6
CONTINUOUS
 10
278.5908977577
 20
355.745953395
 11
278.5910497642
 21
355.7420127315
  0
LINE
  5
37C
100
AcDbEntity
  8
ALL_DETAIL_ITEM
100
AcDbLine
 62
9
  6
CONTINUOUS
 10
271.1848766417
 20
357.998615337
 11
271.1852395472
 21
357.9678417625
  0
LINE
  5
37D
100
AcDbEntity
  8
ALL_DETAIL_ITEM
100
AcDbLine
 62
9
  6
CONTINUOUS
 10
273.6948819972
 20
553.9118275395
 11
273.6948819972
 21
546.9350010925
  0
LINE
  5
37E
100
AcDbEntity
  8
ALL_DETAIL_ITEM
100
AcDbLine
 62
9
  6
CONTINUOUS
 10
282.2290108307
 20
548.976980251
 11
282.2402018772
 21
549.1418859055
  0
LINE
  5
37F
100
AcDbEntity
  8
ALL_DETAIL_ITEM
100
AcDbLine
 62
9
  6
CONTINUOUS
 10
282.2402018772
 20
549.1418859055
 11
282.1691535587
 21
549.3335871105
  0
LINE
  5
380
100
AcDbEntity
  8
ALL_DETAIL_ITEM
100
AcDbLine
 62
9
  6
CONTINUOUS
 10
282.1691535587
 20
549.3335871105
 11
282.0413853472
 21
549.557911034
  0
LINE
  5
381
100
AcDbEntity
  8
ALL_DETAIL_ITEM
100
AcDbLine
 62
9
  6
CONTINUOUS
 10
282.0413853472
 20
549.557911034
 11
281.8753244487
 21
549.825964754
  0
LINE
  5
382
100
AcDbEntity
  8
ALL_DETAIL_ITEM
100
AcDbLine
 62
9
  6
CONTINUOUS
 10
281.8753244487
 20
549.825964754
 11
281.6826605267
 21
550.142371753
  0
LINE
  5
383
100
AcDbEntity
  8
ALL_DETAIL_ITEM
100
AcDbLine
 62
9
  6
CONTINUOUS
 10
281.6826605267
 20
550.142371753
 11
281.4722517207
 21
550.5057793675
  0
LINE
  5
384
100
AcDbEntity
  8
ALL_DETAIL_ITEM
100
AcDbLine
 62
9
  6
CONTINUOUS
 10
281.4722517207
 20
550.5057793675
 11
281.2494500877
 21
550.9135700935
  0
LINE
  5
385
100
AcDbEntity
  8
ALL_DETAIL_ITEM
100
AcDbLine
 62
9
  6
CONTINUOUS
 10
281.2494500877
 20
550.9135700935
 11
281.0228552882
 21
551.350849419
  0
LINE
  5
386
100
AcDbEntity
  8
ALL_DETAIL_ITEM
100
AcDbLine
 62
9
  6
CONTINUOUS
 10
281.0228552882
 20
551.350849419
 11
280.8040548117
 21
551.788520086
  0
LINE
  5
387
100
AcDbEntity
  8
ALL_DETAIL_ITEM
100
AcDbLine
 62
9
  6
CONTINUOUS
 10
280.8040548117
 20
551.788520086
 11
280.5990624402
 21
552.202270759
  0
LINE
  5
388
100
AcDbEntity
  8
ALL_DETAIL_ITEM
100
AcDbLine
 62
9
  6
CONTINUOUS
 10
280.5990624402
 20
552.202270759
 11
280.4067258427
 21
552.5808600815
  0
LINE
  5
389
100
AcDbEntity
  8
ALL_DETAIL_ITEM
100
AcDbLine
 62
9
  6
CONTINUOUS
 10
280.4067258427
 20
552.5808600815
 11
280.2235219752
 21
552.91875661
  0
LINE
  5
38A
100
AcDbEntity
  8
ALL_DETAIL_ITEM
100
AcDbLine
 62
9
  6
CONTINUOUS
 10
280.2235219752
 20
552.91875661
 11
280.0459836287
 21
553.2117729325
  0
LINE
  5
38B
100
AcDbEntity
  8
ALL_DETAIL_ITEM
100
AcDbLine
 62
9
  6
CONTINUOUS
 10
280.0459836287
 20
553.2117729325
 11
279.8708636187
 21
553.4564798725
  0
LINE
  5
38C
100
AcDbEntity
  8
ALL_DETAIL_ITEM
100
AcDbLine
 62
9
  6
CONTINUOUS
 10
279.8708636187
 20
553.4564798725
 11
279.6950138372
 21
553.6506760615
  0
LINE
  5
38D
100
AcDbEntity
  8
ALL_DETAIL_ITEM
100
AcDbLine
 62
9
  6
CONTINUOUS
 10
279.6950138372
 20
553.6506760615
 11
279.5134990582
 21
553.7936650915
  0
LINE
  5
38E
100
AcDbEntity
  8
ALL_DETAIL_ITEM
100
AcDbLine
 62
9
  6
CONTINUOUS
 10
279.5134990582
 20
553.7936650915
 11
279.3230688212
 21
553.882034155
  0
LINE
  5
38F
100
AcDbEntity
  8
ALL_DETAIL_ITEM
100
AcDbLine
 62
9
  6
CONTINUOUS
 10
279.3230688212
 20
553.882034155
 11
279.1236962752
 21
553.911827665
  0
LINE
  5
390
100
AcDbEntity
  8
ALL_DETAIL_ITEM
100
AcDbLine
 62
9
  6
CONTINUOUS
 10
258.5235233957
 20
483.8466764645
 11
258.4537496142
 21
483.809962324
  0
LINE
  5
391
100
AcDbEntity
  8
ALL_DETAIL_ITEM
100
AcDbLine
 62
9
  6
CONTINUOUS
 10
258.4537496142
 20
483.809962324
 11
258.2852787442
 21
483.8100324545
  0
LINE
  5
392
100
AcDbEntity
  8
ALL_DETAIL_ITEM
100
AcDbLine
 62
9
  6
CONTINUOUS
 10
258.2852787442
 20
483.8100324545
 11
258.0204989742
 21
483.846900858
  0
LINE
  5
393
100
AcDbEntity
  8
ALL_DETAIL_ITEM
100
AcDbLine
 62
9
  6
CONTINUOUS
 10
258.0204989742
 20
483.846900858
 11
257.6631498402
 21
483.920047303
  0
LINE
  5
394
100
AcDbEntity
  8
ALL_DETAIL_ITEM
100
AcDbLine
 62
9
  6
CONTINUOUS
 10
257.6631498402
 20
483.920047303
 11
257.2182893327
 21
484.0284367625
  0
LINE
  5
395
100
AcDbEntity
  8
ALL_DETAIL_ITEM
100
AcDbLine
 62
9
  6
CONTINUOUS
 10
257.2182893327
 20
484.0284367625
 11
256.6922083697
 21
484.170536451
  0
LINE
  5
396
100
AcDbEntity
  8
ALL_DETAIL_ITEM
100
AcDbLine
 62
9
  6
CONTINUOUS
 10
256.6922083697
 20
484.170536451
 11
256.0923479117
 21
484.3443365135
  0
LINE
  5
397
100
AcDbEntity
  8
ALL_DETAIL_ITEM
100
AcDbLine
 62
9
  6
CONTINUOUS
 10
256.0923479117
 20
484.3443365135
 11
255.4271918597
 21
484.5473788915
  0
LINE
  5
398
100
AcDbEntity
  8
ALL_DETAIL_ITEM
100
AcDbLine
 62
9
  6
CONTINUOUS
 10
255.4271918597
 20
484.5473788915
 11
254.7061479832
 21
484.776791835
  0
LINE
  5
399
100
AcDbEntity
  8
ALL_DETAIL_ITEM
100
AcDbLine
 62
9
  6
CONTINUOUS
 10
254.7061479832
 20
484.776791835
 11
253.9394146457
 21
485.0293305675
  0
LINE
  5
39A
100
AcDbEntity
  8
ALL_DETAIL_ITEM
100
AcDbLine
 62
9
  6
CONTINUOUS
 10
253.9394146457
 20
485.0293305675
 11
253.1378362492
 21
485.3014232855
  0
LINE
  5
39B
100
AcDbEntity
  8
ALL_DETAIL_ITEM
100
AcDbLine
 62
9
  6
CONTINUOUS
 10
253.1378362492
 20
485.3014232855
 11
252.3127511752
 21
485.5892212185
  0
LINE
  5
39C
100
AcDbEntity
  8
ALL_DETAIL_ITEM
100
AcDbLine
 62
9
  6
CONTINUOUS
 10
252.3127511752
 20
485.5892212185
 11
251.4758287402
 21
485.8886539865
  0
LINE
  5
39D
100
AcDbEntity
  8
ALL_DETAIL_ITEM
100
AcDbLine
 62
9
  6
CONTINUOUS
 10
270.0132530907
 20
356.799155729
 11
270.1474034272
 21
357.891722542
  0
LINE
  5
39E
100
AcDbEntity
  8
ALL_DETAIL_ITEM
100
AcDbLine
 62
9
  6
CONTINUOUS
 10
278.2570103687
 20
367.74725199
 11
278.8054224137
 21
372.2137096725
  0
LINE
  5
39F
100
AcDbEntity
  8
ALL_DETAIL_ITEM
100
AcDbLine
 62
9
  6
CONTINUOUS
 10
277.7159134277
 20
356.962426365
 11
277.5817630912
 21
355.869859552
  0
LINE
  5
3A0
100
AcDbEntity
  8
ALL_DETAIL_ITEM
100
AcDbLine
 62
9
  6
CONTINUOUS
 10
298.5655993327
 20
562.3058135615
 11
298.5655993327
 21
542.856538103
  0
LINE
  5
3A1
100
AcDbEntity
  8
ALL_DETAIL_ITEM
100
AcDbLine
 62
9
  6
CONTINUOUS
 10
298.5655993327
 20
444.704921458
 11
298.5655993327
 21
366.7923891135
  0
LINE
  5
3A2
100
AcDbEntity
  8
ALL_DETAIL_ITEM
100
AcDbLine
 62
9
  6
CONTINUOUS
 10
287.6510644982
 20
366.5938071785
 11
288.1994765437
 21
371.060264861
  0
LINE
  5
3A3
100
AcDbEntity
  8
ALL_DETAIL_ITEM
100
AcDbLine
 62
9
  6
CONTINUOUS
 10
269.0041184242
 20
356.923061886
 11
269.0030178912
 21
356.919274967
  0
LINE
  5
3A4
100
AcDbEntity
  8
ALL_DETAIL_ITEM
100
AcDbLine
 62
9
  6
CONTINUOUS
 10
314.1393848652
 20
357.0858051175
 11
313.9038730622
 21
361.579638024
  0
LINE
  5
3A5
100
AcDbEntity
  8
ALL_DETAIL_ITEM
100
AcDbLine
 62
9
  6
CONTINUOUS
 10
305.8639134907
 20
566.4118275395
 11
305.8639134627
 21
569.1395637435
  0
LINE
  5
3A6
100
AcDbEntity
  8
ALL_DETAIL_ITEM
100
AcDbLine
 62
9
  6
CONTINUOUS
 10
276.7351173087
 20
357.317131474
 11
276.7273210382
 21
357.2873597835
  0
LINE
  5
3A7
100
AcDbEntity
  8
ALL_DETAIL_ITEM
100
AcDbLine
 62
9
  6
CONTINUOUS
 10
270.1474034272
 20
357.891722542
 11
270.1616460677
 21
357.9321836185
  0
LINE
  5
3A8
100
AcDbEntity
  8
ALL_DETAIL_ITEM
100
AcDbLine
 62
9
  6
CONTINUOUS
 10
270.1616460677
 20
357.9321836185
 11
270.1931615297
 21
357.9676788145
  0
LINE
  5
3A9
100
AcDbEntity
  8
ALL_DETAIL_ITEM
100
AcDbLine
 62
9
  6
CONTINUOUS
 10
270.1931615297
 20
357.9676788145
 11
270.2421299302
 21
357.998486049
  0
LINE
  5
3AA
100
AcDbEntity
  8
ALL_DETAIL_ITEM
100
AcDbLine
 62
9
  6
CONTINUOUS
 10
270.2421299302
 20
357.998486049
 11
270.3089058847
 21
358.024061511
  0
LINE
  5
3AB
100
AcDbEntity
  8
ALL_DETAIL_ITEM
100
AcDbLine
 62
9
  6
CONTINUOUS
 10
270.3089058847
 20
358.024061511
 11
270.3939863162
 21
358.0436878505
  0
LINE
  5
3AC
100
AcDbEntity
  8
ALL_DETAIL_ITEM
100
AcDbLine
 62
9
  6
CONTINUOUS
 10
270.3939863162
 20
358.0436878505
 11
270.4972739137
 21
358.05641743
  0
LINE
  5
3AD
100
AcDbEntity
  8
ALL_DETAIL_ITEM
100
AcDbLine
 62
9
  6
CONTINUOUS
 10
270.4972739137
 20
358.05641743
 11
270.6168722267
 21
358.061291386
  0
LINE
  5
3AE
100
AcDbEntity
  8
ALL_DETAIL_ITEM
100
AcDbLine
 62
9
  6
CONTINUOUS
 10
270.6168722267
 20
358.061291386
 11
270.7492975297
 21
358.0577798025
  0
LINE
  5
3AF
100
AcDbEntity
  8
ALL_DETAIL_ITEM
100
AcDbLine
 62
9
  6
CONTINUOUS
 10
239.5529930647
 20
485.8886539865
 11
205.8447945317
 21
494.9207385615
  0
LINE
  5
3B0
100
AcDbEntity
  8
ALL_DETAIL_ITEM
100
AcDbLine
 62
9
  6
CONTINUOUS
 10
251.4758287402
 20
485.8886539865
 11
239.5529930647
 21
485.8886539865
  0
LINE
  5
3B1
100
AcDbEntity
  8
ALL_DETAIL_ITEM
100
AcDbLine
 62
9
  6
CONTINUOUS
 10
348.9580292482
 20
363.416748504
 11
349.1935410512
 21
358.922915598
  0
LINE
  5
3B2
100
AcDbEntity
  8
ALL_DETAIL_ITEM
100
AcDbLine
 62
9
  6
CONTINUOUS
 10
356.6832625622
 20
359.3154352695
 11
356.4477507592
 21
363.809268176
  0
LINE
  5
3B3
100
AcDbEntity
  8
ALL_DETAIL_ITEM
100
AcDbLine
 62
9
  6
CONTINUOUS
 10
293.8573730992
 20
360.672191523
 11
293.9277142122
 21
360.785582129
  0
LINE
  5
3B4
100
AcDbEntity
  8
ALL_DETAIL_ITEM
100
AcDbLine
 62
9
  6
CONTINUOUS
 10
293.9758382712
 20
364.3540873185
 11
296.3604749602
 21
368.170303751
  0
LINE
  5
3B5
100
AcDbEntity
  8
ALL_DETAIL_ITEM
100
AcDbLine
 62
9
  6
CONTINUOUS
 10
255.5821624032
 20
365.0818318795
 11
255.5793075562
 21
365.079111258
  0
LINE
  5
3B6
100
AcDbEntity
  8
ALL_DETAIL_ITEM
100
AcDbLine
 62
9
  6
CONTINUOUS
 10
299.5830043537
 20
360.8503410825
 11
301.9676410427
 21
364.666557515
  0
LINE
  5
3B7
100
AcDbEntity
  8
ALL_DETAIL_ITEM
100
AcDbLine
 62
9
  6
CONTINUOUS
 10
270.4259648797
 20
357.899317546
 11
270.6550572552
 21
358.0478978485
  0
LINE
  5
3B8
100
AcDbEntity
  8
ALL_DETAIL_ITEM
100
AcDbLine
 62
9
  6
CONTINUOUS
 10
293.5879494257
 20
360.415308008
 11
293.6867031662
 21
360.488191691
  0
LINE
  5
3B9
100
AcDbEntity
  8
ALL_DETAIL_ITEM
100
AcDbLine
 62
9
  6
CONTINUOUS
 10
293.6867031662
 20
360.488191691
 11
293.7764375022
 21
360.5733163565
  0
LINE
  5
3BA
100
AcDbEntity
  8
ALL_DETAIL_ITEM
100
AcDbLine
 62
9
  6
CONTINUOUS
 10
293.7764375022
 20
360.5733163565
 11
293.8573730992
 21
360.672191523
  0
LINE
  5
3BB
100
AcDbEntity
  8
ALL_DETAIL_ITEM
100
AcDbLine
 62
9
  6
CONTINUOUS
 10
194.6424415057
 20
546.9350010925
 11
273.6948819972
 21
546.9350010925
  0
LINE
  5
3BC
100
AcDbEntity
  8
ALL_DETAIL_ITEM
100
AcDbLine
 62
9
  6
CONTINUOUS
 10
273.6948819972
 20
546.9350010925
 11
274.8325246187
 21
547.2576706565
  0
LINE
  5
3BD
100
AcDbEntity
  8
ALL_DETAIL_ITEM
100
AcDbLine
 62
9
  6
CONTINUOUS
 10
274.8325246187
 20
547.2576706565
 11
275.9257607182
 21
547.5610926305
  0
LINE
  5
3BE
100
AcDbEntity
  8
ALL_DETAIL_ITEM
100
AcDbLine
 62
9
  6
CONTINUOUS
 10
275.9257607182
 20
547.5610926305
 11
276.9538112207
 21
547.839899986
  0
LINE
  5
3BF
100
AcDbEntity
  8
ALL_DETAIL_ITEM
100
AcDbLine
 62
9
  6
CONTINUOUS
 10
276.9538112207
 20
547.839899986
 11
277.9010887912
 21
548.0903983595
  0
LINE
  5
3C0
100
AcDbEntity
  8
ALL_DETAIL_ITEM
100
AcDbLine
 62
9
  6
CONTINUOUS
 10
277.9010887912
 20
548.0903983595
 11
278.7573666747
 21
548.31044788
  0
LINE
  5
3C1
100
AcDbEntity
  8
ALL_DETAIL_ITEM
100
AcDbLine
 62
9
  6
CONTINUOUS
 10
278.7573666747
 20
548.31044788
 11
279.5173194867
 21
548.4992938345
  0
LINE
  5
3C2
100
AcDbEntity
  8
ALL_DETAIL_ITEM
100
AcDbLine
 62
9
  6
CONTINUOUS
 10
279.5173194867
 20
548.4992938345
 11
280.1794307532
 21
548.657194687
  0
LINE
  5
3C3
100
AcDbEntity
  8
ALL_DETAIL_ITEM
100
AcDbLine
 62
9
  6
CONTINUOUS
 10
280.1794307532
 20
548.657194687
 11
280.7447087087
 21
548.785025686
  0
LINE
  5
3C4
100
AcDbEntity
  8
ALL_DETAIL_ITEM
100
AcDbLine
 62
9
  6
CONTINUOUS
 10
280.7447087087
 20
548.785025686
 11
281.2155158412
 21
548.8839413575
  0
LINE
  5
3C5
100
AcDbEntity
  8
ALL_DETAIL_ITEM
100
AcDbLine
 62
9
  6
CONTINUOUS
 10
281.2155158412
 20
548.8839413575
 11
281.5946319182
 21
548.9551000295
  0
LINE
  5
3C6
100
AcDbEntity
  8
ALL_DETAIL_ITEM
100
AcDbLine
 62
9
  6
CONTINUOUS
 10
281.5946319182
 20
548.9551000295
 11
281.8834781612
 21
548.999341632
  0
LINE
  5
3C7
100
AcDbEntity
  8
ALL_DETAIL_ITEM
100
AcDbLine
 62
9
  6
CONTINUOUS
 10
281.8834781612
 20
548.999341632
 11
282.0860431062
 21
549.017696192
  0
LINE
  5
3C8
100
AcDbEntity
  8
ALL_DETAIL_ITEM
100
AcDbLine
 62
9
  6
CONTINUOUS
 10
282.0860431062
 20
549.017696192
 11
282.2014164342
 21
549.0102556495
  0
LINE
  5
3C9
100
AcDbEntity
  8
ALL_DETAIL_ITEM
100
AcDbLine
 62
9
  6
CONTINUOUS
 10
282.2014164342
 20
549.0102556495
 11
282.2290147972
 21
548.976978807
  0
ARC
  5
3CA
100
AcDbEntity
  8
ALL_DETAIL_ITEM
100
AcDbCircle
 62
9
  6
CONTINUOUS
 10
277.4277300052
 20
385.9002925215
 40
30.1767646935
100
AcDbArc
 50
223.620910138
 51
253.790978674
  0
ARC
  5
3CB
100
AcDbEntity
  8
ALL_DETAIL_ITEM
100
AcDbCircle
 62
9
  6
CONTINUOUS
 10
277.4277300052
 20
385.9002925215
 40
30.1767646935
100
AcDbArc
 50
272.209021326
 51
302.379089862
  0
LINE
  5
3CC
100
AcDbEntity
  8
ALL_DETAIL_ITEM
100
AcDbLine
 62
2
  6
CONTINUOUS
 10
323.5655993327
 20
566.4118275395
 11
430.0620774952
 21
566.4118275395
  0
SPLINE
  5
3CD
100
AcDbEntity
  8
ALL_DETAIL_ITEM
100
AcDbSpline
 62
2
  6
CONTINUOUS
 70
0
 71
3
 72
38
 73
34
 74
0
 42
0.0000001
 43
0.0000001
 44
0.0000000001
 40
0.0
 40
0.0
 40
0.0
 40
0.0
 40
0.0322580645
 40
0.064516129
 40
0.0967741935
 40
0.1290322581
 40
0.1612903226
 40
0.1935483871
 40
0.2258064516
 40
0.2580645161
 40
0.2903225806
 40
0.3225806452
 40
0.3548387097
 40
0.3870967742
 40
0.4193548387
 40
0.4516129032
 40
0.4838709677
 40
0.5161290323
 40
0.5483870968
 40
0.5806451613
 40
0.6129032258
 40
0.6451612903
 40
0.6774193548
 40
0.7096774194
 40
0.7419354839
 40
0.7741935484
 40
0.8064516129
 40
0.8387096774
 40
0.8709677419
 40
0.9032258065
 40
0.935483871
 40
0.9677419355
 40
1.0
 40
1.0
 40
1.0
 40
1.0
 10
430.0620774952
 20
566.4118275395
 30
0.0
 10
430.5127471942
 20
563.8229753115
 30
0.0
 10
431.2653836307
 20
558.5745838145
 30
0.0
 10
431.9524338652
 20
550.448073145
 30
0.0
 10
432.1849662832
 20
542.1932259515
 30
0.0
 10
432.2979575687
 20
534.7085477375
 30
0.0
 10
432.6378883112
 20
528.280275619
 30
0.0
 10
433.3964694207
 20
521.7972057755
 30
0.0
 10
434.7620223192
 20
514.328387539
 30
0.0
 10
436.3375121307
 20
506.8747761545
 30
0.0
 10
437.6262488767
 20
500.4054258075
 30
0.0
 10
438.5337572887
 20
494.7632864
 30
0.0
 10
439.0612542972
 20
489.7185088115
 30
0.0
 10
439.2184248422
 20
485.4171319795
 30
0.0
 10
439.0935937947
 20
481.661340594
 30
0.0
 10
438.6995807337
 20
478.0383032065
 30
0.0
 10
437.9602706387
 20
474.269062972
 30
0.0
 10
436.8298481577
 20
470.0478672545
 30
0.0
 10
435.3106509842
 20
465.271658439
 30
0.0
 10
433.5353483367
 20
459.915094258
 30
0.0
 10
431.9351188872
 20
454.4263711465
 30
0.0
 10
430.8168300177
 20
449.024577078
 30
0.0
 10
430.0846276367
 20
443.682763354
 30
0.0
 10
429.6408519862
 20
437.601259504
 30
0.0
 10
429.5598980047
 20
430.554871247
 30
0.0
 10
429.8906305067
 20
422.667307533
 30
0.0
 10
430.6351855147
 20
413.8273629655
 30
0.0
 10
431.7264825077
 20
404.1758434875
 30
0.0
 10
432.8334516787
 20
395.0373619005
 30
0.0
 10
433.7320272752
 20
386.902474412
 30
0.0
 10
434.3807950467
 20
379.4941033635
 30
0.0
 10
434.7853051352
 20
372.640800336
 30
0.0
 10
434.8962408997
 20
368.4280275225
 30
0.0
 10
434.9116826387
 20
366.4118275395
 30
0.0
  0
LINE
  5
3CE
100
AcDbEntity
  8
ALL_DETAIL_ITEM
100
AcDbLine
 62
2
  6
CONTINUOUS
 10
434.9116826387
 20
366.4118275395
 11
323.5655993327
 21
366.4118275395
  0
LINE
  5
3CF
100
AcDbEntity
  8
ALL_DETAIL_ITEM
100
AcDbLine
 62
2
  6
CONTINUOUS
 10
323.5655993327
 20
366.4118275395
 11
323.5655993327
 21
566.4118275395
  0
LINE
  5
3D0
100
AcDbEntity
  8
ALL_DETAIL_ITEM
100
AcDbLine
 62
2
  6
CONTINUOUS
 10
414.3964417352
 20
366.4118275395
 11
433.7962652436
 21
385.8116510479
  0
LINE
  5
3D1
100
AcDbEntity
  8
ALL_DETAIL_ITEM
100
AcDbLine
 62
2
  6
CONTINUOUS
 10
393.1832382992
 20
366.4118275395
 11
431.6601642181
 21
404.8887534584
  0
LINE
  5
3D2
100
AcDbEntity
  8
ALL_DETAIL_ITEM
100
AcDbLine
 62
2
  6
CONTINUOUS
 10
371.9700348632
 20
366.4118275395
 11
429.8835203725
 21
424.3253130488
  0
LINE
  5
3D3
100
AcDbEntity
  8
ALL_DETAIL_ITEM
100
AcDbLine
 62
2
  6
CONTINUOUS
 10
350.7568314272
 20
366.4118275395
 11
430.485545662
 21
446.1405417743
  0
LINE
  5
3D4
100
AcDbEntity
  8
ALL_DETAIL_ITEM
100
AcDbLine
 62
2
  6
CONTINUOUS
 10
329.5436279912
 20
366.4118275395
 11
438.033512305
 21
474.9017118534
  0
LINE
  5
3D5
100
AcDbEntity
  8
ALL_DETAIL_ITEM
100
AcDbLine
 62
2
  6
CONTINUOUS
 10
323.5655993327
 20
381.647002317
 11
438.2377159755
 21
496.3191189599
  0
LINE
  5
3D6
100
AcDbEntity
  8
ALL_DETAIL_ITEM
100
AcDbLine
 62
2
  6
CONTINUOUS
 10
323.5655993327
 20
402.860205753
 11
434.8376741179
 21
514.1322805382
  0
LINE
  5
3D7
100
AcDbEntity
  8
ALL_DETAIL_ITEM
100
AcDbLine
 62
2
  6
CONTINUOUS
 10
323.5655993327
 20
424.073409189
 11
432.4444397811
 21
532.9522496374
  0
LINE
  5
3D8
100
AcDbEntity
  8
ALL_DETAIL_ITEM
100
AcDbLine
 62
2
  6
CONTINUOUS
 10
323.5655993327
 20
445.286612625
 11
431.6295993326
 21
553.350612625
  0
LINE
  5
3D9
100
AcDbEntity
  8
ALL_DETAIL_ITEM
100
AcDbLine
 62
2
  6
CONTINUOUS
 10
323.5655993327
 20
466.499816061
 11
423.4776108112
 21
566.4118275395
  0
LINE
  5
3DA
100
AcDbEntity
  8
ALL_DETAIL_ITEM
100
AcDbLine
 62
2
  6
CONTINUOUS
 10
323.5655993327
 20
487.713019497
 11
402.2644073752
 21
566.4118275395
  0
LINE
  5
3DB
100
AcDbEntity
  8
ALL_DETAIL_ITEM
100
AcDbLine
 62
2
  6
CONTINUOUS
 10
323.5655993327
 20
508.926222933
 11
381.0512039392
 21
566.4118275395
  0
LINE
  5
3DC
100
AcDbEntity
  8
ALL_DETAIL_ITEM
100
AcDbLine
 62
2
  6
CONTINUOUS
 10
323.5655993327
 20
530.139426369
 11
359.8380005032
 21
566.4118275395
  0
LINE
  5
3DD
100
AcDbEntity
  8
ALL_DETAIL_ITEM
100
AcDbLine
 62
2
  6
CONTINUOUS
 10
323.5655993327
 20
551.352629805
 11
338.6247970672
 21
566.4118275395
  0
LINE
  5
3DE
100
AcDbEntity
  8
ALL_DETAIL_ITEM
100
AcDbLine
 62
2
  6
CONTINUOUS
 10
430.8285977649
 20
561.0652008107
 11
425.4819710362
 21
566.4118275395
  0
LINE
  5
3DF
100
AcDbEntity
  8
ALL_DETAIL_ITEM
100
AcDbLine
 62
2
  6
CONTINUOUS
 10
432.2544749222
 20
538.4261202174
 11
404.2687676002
 21
566.4118275395
  0
LINE
  5
3E0
100
AcDbEntity
  8
ALL_DETAIL_ITEM
100
AcDbLine
 62
2
  6
CONTINUOUS
 10
434.7235296385
 20
514.7438620652
 11
383.0555641642
 21
566.4118275395
  0
LINE
  5
3E1
100
AcDbEntity
  8
ALL_DETAIL_ITEM
100
AcDbLine
 62
2
  6
CONTINUOUS
 10
439.0238049108
 20
489.2303833568
 11
361.8423607282
 21
566.4118275395
  0
LINE
  5
3E2
100
AcDbEntity
  8
ALL_DETAIL_ITEM
100
AcDbLine
 62
2
  6
CONTINUOUS
 10
436.8325308332
 20
470.2084539984
 11
340.6291572922
 21
566.4118275395
  0
LINE
  5
3E3
100
AcDbEntity
  8
ALL_DETAIL_ITEM
100
AcDbLine
 62
2
  6
CONTINUOUS
 10
431.9064441102
 20
453.9213372855
 11
323.5655993327
 21
562.262182063
  0
LINE
  5
3E4
100
AcDbEntity
  8
ALL_DETAIL_ITEM
100
AcDbLine
 62
2
  6
CONTINUOUS
 10
429.6754009818
 20
434.9391769778
 11
323.5655993327
 21
541.048978627
  0
LINE
  5
3E5
100
AcDbEntity
  8
ALL_DETAIL_ITEM
100
AcDbLine
 62
2
  6
CONTINUOUS
 10
430.8143905574
 20
412.5869839662
 11
323.5655993327
 21
519.835775191
  0
LINE
  5
3E6
100
AcDbEntity
  8
ALL_DETAIL_ITEM
100
AcDbLine
 62
2
  6
CONTINUOUS
 10
433.5100593062
 20
388.6781117815
 11
323.5655993327
 21
498.622571755
  0
LINE
  5
3E7
100
AcDbEntity
  8
ALL_DETAIL_ITEM
100
AcDbLine
 62
2
  6
CONTINUOUS
 10
434.5631401122
 20
366.4118275395
 11
323.5655993327
 21
477.409368319
  0
LINE
  5
3E8
100
AcDbEntity
  8
ALL_DETAIL_ITEM
100
AcDbLine
 62
2
  6
CONTINUOUS
 10
413.3499366762
 20
366.4118275395
 11
323.5655993327
 21
456.196164883
  0
LINE
  5
3E9
100
AcDbEntity
  8
ALL_DETAIL_ITEM
100
AcDbLine
 62
2
  6
CONTINUOUS
 10
392.1367332402
 20
366.4118275395
 11
323.5655993327
 21
434.982961447
  0
LINE
  5
3EA
100
AcDbEntity
  8
ALL_DETAIL_ITEM
100
AcDbLine
 62
2
  6
CONTINUOUS
 10
370.9235298042
 20
366.4118275395
 11
323.5655993327
 21
413.769758011
  0
LINE
  5
3EB
100
AcDbEntity
  8
ALL_DETAIL_ITEM
100
AcDbLine
 62
2
  6
CONTINUOUS
 10
349.7103263682
 20
366.4118275395
 11
323.5655993327
 21
392.556554575
  0
LINE
  5
3EC
100
AcDbEntity
  8
ALL_DETAIL_ITEM
100
AcDbLine
 62
2
  6
CONTINUOUS
 10
328.4971229322
 20
366.4118275395
 11
323.5655993327
 21
371.343351139
  0
ARC
  5
3ED
100
AcDbEntity
  8
ALL_DETAIL_ITEM
100
AcDbCircle
 62
2
  6
CONTINUOUS
 10
315.2608392747
 20
555.4118275395
 40
15.0
100
AcDbArc
 50
47.1665719339
 51
90.0
  0
LINE
  5
3EE
100
AcDbEntity
  8
ALL_DETAIL_ITEM
100
AcDbLine
 62
2
  6
CONTINUOUS
 10
315.2608392747
 20
570.4118275395
 11
311.8703593907
 21
570.4118275395
  0
ARC
  5
3EF
100
AcDbEntity
  8
ALL_DETAIL_ITEM
100
AcDbCircle
 62
2
  6
CONTINUOUS
 10
311.8703593907
 20
555.4118275395
 40
15.0
100
AcDbArc
 50
90.0
 51
160.0
  0
LINE
  5
3F0
100
AcDbEntity
  8
ALL_DETAIL_ITEM
100
AcDbLine
 62
2
  6
CONTINUOUS
 10
297.7749700787
 20
560.5421296895
 11
297.0381330302
 21
558.517686536
  0
ARC
  5
3F1
100
AcDbEntity
  8
ALL_DETAIL_ITEM
100
AcDbCircle
 62
2
  6
CONTINUOUS
 10
290.4602846847
 20
560.9118275395
 40
7.0
100
AcDbArc
 50
270.0
 51
340.0
  0
LINE
  5
3F2
100
AcDbEntity
  8
ALL_DETAIL_ITEM
100
AcDbLine
 62
2
  6
CONTINUOUS
 10
290.4602846847
 20
553.9118275395
 11
192.6984022172
 21
553.9118275395
  0
SPLINE
  5
3F3
100
AcDbEntity
  8
ALL_DETAIL_ITEM
100
AcDbSpline
 62
2
  6
CONTINUOUS
 70
0
 71
3
 72
18
 73
14
 74
0
 42
0.0000001
 43
0.0000001
 44
0.0000000001
 40
0.0
 40
0.0
 40
0.0
 40
0.0
 40
0.0909090909
 40
0.1818181818
 40
0.2727272727
 40
0.3636363636
 40
0.4545454545
 40
0.5454545455
 40
0.6363636364
 40
0.7272727273
 40
0.8181818182
 40
0.9090909091
 40
1.0
 40
1.0
 40
1.0
 40
1.0
 10
192.6984022172
 20
553.9118275395
 30
0.0
 10
192.3286365142
 20
555.5037565635
 30
0.0
 10
191.7069253967
 20
558.667558134
 30
0.0
 10
191.1516824547
 20
563.246627956
 30
0.0
 10
190.9021746312
 20
567.978454542
 30
0.0
 10
190.9708243762
 20
572.9688652085
 30
0.0
 10
191.3858111692
 20
578.1786009815
 30
0.0
 10
192.1535041562
 20
583.4871851975
 30
0.0
 10
193.3300131792
 20
589.0309118215
 30
0.0
 10
194.9246069702
 20
594.7081035595
 30
0.0
 10
196.7913565147
 20
600.0938459925
 30
0.0
 10
198.6989145612
 20
604.836166223
 30
0.0
 10
199.9349377297
 20
607.6191651015
 30
0.0
 10
200.5492694202
 20
608.9118275395
 30
0.0
  0
LINE
  5
3F4
100
AcDbEntity
  8
ALL_DETAIL_ITEM
100
AcDbLine
 62
2
  6
CONTINUOUS
 10
200.5492694202
 20
608.9118275395
 11
355.7318983837
 21
608.9118275395
  0
ARC
  5
3F5
100
AcDbEntity
  8
ALL_DETAIL_ITEM
100
AcDbCircle
 62
2
  6
CONTINUOUS
 10
355.7318983837
 20
593.9118275395
 40
15.0
100
AcDbArc
 50
4.0
 51
90.0
  0
LINE
  5
3F6
100
AcDbEntity
  8
ALL_DETAIL_ITEM
100
AcDbLine
 62
2
  6
CONTINUOUS
 10
370.6953591377
 20
594.9581746455
 11
372.6915141832
 21
566.4118275395
  0
LINE
  5
3F7
100
AcDbEntity
  8
ALL_DETAIL_ITEM
100
AcDbLine
 62
2
  6
CONTINUOUS
 10
372.6915141832
 20
566.4118275395
 11
325.4588783017
 21
566.4118275395
  0
LINE
  5
3F8
100
AcDbEntity
  8
ALL_DETAIL_ITEM
100
AcDbLine
 62
2
  6
CONTINUOUS
 10
366.9090683152
 20
566.4118275395
 11
372.3135930018
 21
571.8163522261
  0
LINE
  5
3F9
100
AcDbEntity
  8
ALL_DETAIL_ITEM
100
AcDbLine
 62
2
  6
CONTINUOUS
 10
352.7669326912
 20
566.4118275395
 11
371.389310661
 21
585.0342055094
  0
LINE
  5
3FA
100
AcDbEntity
  8
ALL_DETAIL_ITEM
100
AcDbLine
 62
2
  6
CONTINUOUS
 10
338.6247970672
 20
566.4118275395
 11
370.1728250105
 21
597.9598554828
  0
LINE
  5
3FB
100
AcDbEntity
  8
ALL_DETAIL_ITEM
100
AcDbLine
 62
2
  6
CONTINUOUS
 10
324.9339981917
 20
566.8631642881
 11
364.2932695218
 21
606.2224356182
  0
LINE
  5
3FC
100
AcDbEntity
  8
ALL_DETAIL_ITEM
100
AcDbLine
 62
2
  6
CONTINUOUS
 10
314.3405258192
 20
570.4118275395
 11
352.8405258192
 21
608.9118275395
  0
LINE
  5
3FD
100
AcDbEntity
  8
ALL_DETAIL_ITEM
100
AcDbLine
 62
2
  6
CONTINUOUS
 10
283.6983901952
 20
553.9118275395
 11
338.6983901952
 21
608.9118275395
  0
LINE
  5
3FE
100
AcDbEntity
  8
ALL_DETAIL_ITEM
100
AcDbLine
 62
2
  6
CONTINUOUS
 10
269.5562545712
 20
553.9118275395
 11
324.5562545712
 21
608.9118275395
  0
LINE
  5
3FF
100
AcDbEntity
  8
ALL_DETAIL_ITEM
100
AcDbLine
 62
2
  6
CONTINUOUS
 10
255.4141189472
 20
553.9118275395
 11
310.4141189472
 21
608.9118275395
  0
LINE
  5
400
100
AcDbEntity
  8
ALL_DETAIL_ITEM
100
AcDbLine
 62
2
  6
CONTINUOUS
 10
241.2719833232
 20
553.9118275395
 11
296.2719833232
 21
608.9118275395
  0
LINE
  5
401
100
AcDbEntity
  8
ALL_DETAIL_ITEM
100
AcDbLine
 62
2
  6
CONTINUOUS
 10
227.1298476992
 20
553.9118275395
 11
282.1298476992
 21
608.9118275395
  0
LINE
  5
402
100
AcDbEntity
  8
ALL_DETAIL_ITEM
100
AcDbLine
 62
2
  6
CONTINUOUS
 10
212.9877120752
 20
553.9118275395
 11
267.9877120752
 21
608.9118275395
  0
LINE
  5
403
100
AcDbEntity
  8
ALL_DETAIL_ITEM
100
AcDbLine
 62
2
  6
CONTINUOUS
 10
198.8455764512
 20
553.9118275395
 11
253.8455764512
 21
608.9118275395
  0
LINE
  5
404
100
AcDbEntity
  8
ALL_DETAIL_ITEM
100
AcDbLine
 62
2
  6
CONTINUOUS
 10
191.5147315578
 20
560.7231182701
 11
239.7034408272
 21
608.9118275395
  0
LINE
  5
405
100
AcDbEntity
  8
ALL_DETAIL_ITEM
100
AcDbLine
 62
2
  6
CONTINUOUS
 10
191.1482689954
 20
574.4987913317
 11
225.5613052032
 21
608.9118275395
  0
LINE
  5
406
100
AcDbEntity
  8
ALL_DETAIL_ITEM
100
AcDbLine
 62
2
  6
CONTINUOUS
 10
194.1152456514
 20
591.6079036117
 11
211.4191695792
 21
608.9118275395
  0
LINE
  5
407
100
AcDbEntity
  8
ALL_DETAIL_ITEM
100
AcDbLine
 62
2
  6
CONTINUOUS
 10
200.6177538187
 20
608.9118275395
 11
199.3584416077
 21
606.2858792615
  0
LINE
  5
408
100
AcDbEntity
  8
ALL_DETAIL_ITEM
100
AcDbLine
 62
2
  6
CONTINUOUS
 10
196.1276788587
 20
598.142353842
 11
193.6141809632
 21
589.91346907
  0
LINE
  5
409
100
AcDbEntity
  8
ALL_DETAIL_ITEM
100
AcDbLine
 62
2
  6
CONTINUOUS
 10
199.3584416077
 20
606.2858792615
 11
196.1276788587
 21
598.142353842
  0
LINE
  5
40A
100
AcDbEntity
  8
ALL_DETAIL_ITEM
100
AcDbLine
 62
2
  6
CONTINUOUS
 10
193.6141809632
 20
589.91346907
 11
191.8873376077
 21
581.5132712615
  0
LINE
  5
40B
100
AcDbEntity
  8
ALL_DETAIL_ITEM
100
AcDbLine
 62
2
  6
CONTINUOUS
 10
191.8873376077
 20
581.5132712615
 11
191.0625061897
 21
573.667125264
  0
LINE
  5
40C
100
AcDbEntity
  8
ALL_DETAIL_ITEM
100
AcDbLine
 62
2
  6
CONTINUOUS
 10
199.1775219357
 20
382.5418561205
 11
200.8810141177
 21
374.2720153025
  0
LINE
  5
40D
100
AcDbEntity
  8
ALL_DETAIL_ITEM
100
AcDbLine
 62
2
  6
CONTINUOUS
 10
200.8810141177
 20
374.2720153025
 11
202.3941721392
 21
366.4118275395
  0
LINE
  5
40E
100
AcDbEntity
  8
ALL_DETAIL_ITEM
100
AcDbLine
 62
2
  6
CONTINUOUS
 10
197.7041696077
 20
390.8004392615
 11
199.1775219357
 21
382.5418561205
  0
LINE
  5
40F
100
AcDbEntity
  8
ALL_DETAIL_ITEM
100
AcDbLine
 62
2
  6
CONTINUOUS
 10
196.2597337437
 20
407.0054860585
 11
197.7041696077
 21
390.8004392615
  0
LINE
  5
410
100
AcDbEntity
  8
ALL_DETAIL_ITEM
100
AcDbLine
 62
2
  6
CONTINUOUS
 10
191.0625061897
 20
573.667125264
 11
191.0342290057
 21
565.753875312
  0
LINE
  5
411
100
AcDbEntity
  8
ALL_DETAIL_ITEM
100
AcDbLine
 62
2
  6
CONTINUOUS
 10
196.6402952037
 20
423.425938234
 11
196.2597337437
 21
407.0054860585
  0
LINE
  5
412
100
AcDbEntity
  8
ALL_DETAIL_ITEM
100
AcDbLine
 62
2
  6
CONTINUOUS
 10
191.0342290057
 20
565.753875312
 11
191.8873376077
 21
557.9203112615
  0
LINE
  5
413
100
AcDbEntity
  8
ALL_DETAIL_ITEM
100
AcDbLine
 62
2
  6
CONTINUOUS
 10
204.5561049202
 20
509.685683444
 11
205.6498976077
 21
499.3311272615
  0
LINE
  5
414
100
AcDbEntity
  8
ALL_DETAIL_ITEM
100
AcDbLine
 62
2
  6
CONTINUOUS
 10
205.6498976077
 20
499.3311272615
 11
206.0098655342
 21
491.185290778
  0
LINE
  5
415
100
AcDbEntity
  8
ALL_DETAIL_ITEM
100
AcDbLine
 62
2
  6
CONTINUOUS
 10
206.0098655342
 20
491.185290778
 11
205.8956080922
 21
483.044235601
  0
LINE
  5
416
100
AcDbEntity
  8
ALL_DETAIL_ITEM
100
AcDbLine
 62
2
  6
CONTINUOUS
 10
205.8956080922
 20
483.044235601
 11
205.2566816077
 21
474.9517352615
  0
LINE
  5
417
100
AcDbEntity
  8
ALL_DETAIL_ITEM
100
AcDbLine
 62
2
  6
CONTINUOUS
 10
198.6641696077
 20
439.7604392615
 11
196.6402952037
 21
423.425938234
  0
LINE
  5
418
100
AcDbEntity
  8
ALL_DETAIL_ITEM
100
AcDbLine
 62
2
  6
CONTINUOUS
 10
205.2566816077
 20
474.9517352615
 11
203.4008425302
 21
463.2027217705
  0
LINE
  5
419
100
AcDbEntity
  8
ALL_DETAIL_ITEM
100
AcDbLine
 62
2
  6
CONTINUOUS
 10
200.9787384577
 20
451.5174142925
 11
198.6641696077
 21
439.7604392615
  0
LINE
  5
41A
100
AcDbEntity
  8
ALL_DETAIL_ITEM
100
AcDbLine
 62
2
  6
CONTINUOUS
 10
203.4008425302
 20
463.2027217705
 11
200.9787384577
 21
451.5174142925
  0
LINE
  5
41B
100
AcDbEntity
  8
ALL_DETAIL_ITEM
100
AcDbLine
 62
2
  6
CONTINUOUS
 10
197.1276341987
 20
539.25908141
 11
200.1448736077
 21
530.0019752615
  0
LINE
  5
41C
100
AcDbEntity
  8
ALL_DETAIL_ITEM
100
AcDbLine
 62
2
  6
CONTINUOUS
 10
194.1338008222
 20
548.5060201305
 11
197.1276341987
 21
539.25908141
  0
LINE
  5
41D
100
AcDbEntity
  8
ALL_DETAIL_ITEM
100
AcDbLine
 62
2
  6
CONTINUOUS
 10
200.1448736077
 20
530.0019752615
 11
202.7333611487
 21
519.926113087
  0
LINE
  5
41E
100
AcDbEntity
  8
ALL_DETAIL_ITEM
100
AcDbLine
 62
2
  6
CONTINUOUS
 10
191.8873376077
 20
557.9203112615
 11
194.1338008222
 21
548.5060201305
  0
LINE
  5
41F
100
AcDbEntity
  8
ALL_DETAIL_ITEM
100
AcDbLine
 62
2
  6
CONTINUOUS
 10
202.7333611487
 20
519.926113087
 11
204.5561049202
 21
509.685683444
  0
LINE
  5
420
100
AcDbEntity
  8
ALL_DETAIL_ITEM
100
AcDbLine
 62
2
  6
CONTINUOUS
 10
431.6489212337
 20
404.922731197
 11
430.0241696077
 21
421.5204392615
  0
LINE
  5
421
100
AcDbEntity
  8
ALL_DETAIL_ITEM
100
AcDbLine
 62
2
  6
CONTINUOUS
 10
434.8241696077
 20
370.6404392615
 11
433.5691256222
 21
388.2318652485
  0
LINE
  5
422
100
AcDbEntity
  8
ALL_DETAIL_ITEM
100
AcDbLine
 62
2
  6
CONTINUOUS
 10
430.0241696077
 20
421.5204392615
 11
429.6087825487
 21
432.3923151135
  0
LINE
  5
423
100
AcDbEntity
  8
ALL_DETAIL_ITEM
100
AcDbLine
 62
2
  6
CONTINUOUS
 10
429.6087825487
 20
432.3923151135
 11
430.1134675832
 21
443.3433718815
  0
LINE
  5
424
100
AcDbEntity
  8
ALL_DETAIL_ITEM
100
AcDbLine
 62
2
  6
CONTINUOUS
 10
430.1134675832
 20
443.3433718815
 11
431.9441696077
 21
454.1604392615
  0
LINE
  5
425
100
AcDbEntity
  8
ALL_DETAIL_ITEM
100
AcDbLine
 62
2
  6
CONTINUOUS
 10
431.9441696077
 20
454.1604392615
 11
434.3098269527
 21
462.21777612
  0
LINE
  5
426
100
AcDbEntity
  8
ALL_DETAIL_ITEM
100
AcDbLine
 62
2
  6
CONTINUOUS
 10
434.3098269527
 20
462.21777612
 11
436.8328236837
 21
470.181682397
  0
LINE
  5
427
100
AcDbEntity
  8
ALL_DETAIL_ITEM
100
AcDbLine
 62
2
  6
CONTINUOUS
 10
433.5691256222
 20
388.2318652485
 11
431.6489212337
 21
404.922731197
  0
LINE
  5
428
100
AcDbEntity
  8
ALL_DETAIL_ITEM
100
AcDbLine
 62
2
  6
CONTINUOUS
 10
431.9441696077
 20
549.2004392615
 11
430.6992084927
 21
562.3788058345
  0
LINE
  5
429
100
AcDbEntity
  8
ALL_DETAIL_ITEM
100
AcDbLine
 62
2
  6
CONTINUOUS
 10
432.9041696077
 20
526.1604392615
 11
432.3693671312
 21
533.8714510545
  0
LINE
  5
42A
100
AcDbEntity
  8
ALL_DETAIL_ITEM
100
AcDbLine
 62
2
  6
CONTINUOUS
 10
432.1713424782
 20
541.5564205085
 11
431.9441696077
 21
549.2004392615
  0
LINE
  5
42B
100
AcDbEntity
  8
ALL_DETAIL_ITEM
100
AcDbLine
 62
2
  6
CONTINUOUS
 10
432.3693671312
 20
533.8714510545
 11
432.1713424782
 21
541.5564205085
  0
LINE
  5
42C
100
AcDbEntity
  8
ALL_DETAIL_ITEM
100
AcDbLine
 62
2
  6
CONTINUOUS
 10
438.6641696077
 20
478.1604392615
 11
438.5919716072
 21
493.9248011695
  0
LINE
  5
42D
100
AcDbEntity
  8
ALL_DETAIL_ITEM
100
AcDbLine
 62
2
  6
CONTINUOUS
 10
434.7455652742
 20
366.4118275395
 11
434.8241696077
 21
370.6404392615
  0
LINE
  5
42E
100
AcDbEntity
  8
ALL_DETAIL_ITEM
100
AcDbLine
 62
2
  6
CONTINUOUS
 10
436.8328236837
 20
470.181682397
 11
438.6641696077
 21
478.1604392615
  0
LINE
  5
42F
100
AcDbEntity
  8
ALL_DETAIL_ITEM
100
AcDbLine
 62
2
  6
CONTINUOUS
 10
438.5919716072
 20
493.9248011695
 11
435.6847138077
 21
509.981715881
  0
LINE
  5
430
100
AcDbEntity
  8
ALL_DETAIL_ITEM
100
AcDbLine
 62
2
  6
CONTINUOUS
 10
435.6847138077
 20
509.981715881
 11
432.9041696077
 21
526.1604392615
  0
LINE
  5
431
100
AcDbEntity
  8
ALL_DETAIL_ITEM
100
AcDbLine
 62
2
  6
CONTINUOUS
 10
430.6992084927
 20
562.3788058345
 11
429.9198750562
 21
566.4118275395
  0
LINE
  5
432
100
AcDbEntity
  8
ALL_DETAIL_ITEM
100
AcDbLine
 62
7
  6
CONTINUOUS
 10
269.0030196497
 20
356.919281087
 11
269.1314509847
 21
356.8832928755
  0
LINE
  5
433
100
AcDbEntity
  8
ALL_DETAIL_ITEM
100
AcDbLine
 62
7
  6
CONTINUOUS
 10
269.1314509847
 20
356.8832928755
 11
269.5121319282
 21
356.793531734
  0
LINE
  5
434
100
AcDbEntity
  8
ALL_DETAIL_ITEM
100
AcDbLine
 62
7
  6
CONTINUOUS
 10
269.5121319282
 20
356.793531734
 11
269.8201827277
 21
356.745264708
  0
LINE
  5
435
100
AcDbEntity
  8
ALL_DETAIL_ITEM
100
AcDbLine
 62
7
  6
CONTINUOUS
 10
314.1393848652
 20
357.0858051175
 11
356.6832625622
 21
359.3154352695
  0
LINE
  5
436
100
AcDbEntity
  8
ALL_DETAIL_ITEM
100
AcDbLine
 62
7
  6
CONTINUOUS
 10
278.4349052367
 20
355.7377779535
 11
278.5910497632
 21
355.742012756
  0
LINE
  5
437
100
AcDbEntity
  8
ALL_DETAIL_ITEM
100
AcDbLine
 62
7
  6
CONTINUOUS
 10
270.7128678742
 20
358.01586016
 11
270.8304855057
 21
358.0162832765
  0
LINE
  5
438
100
AcDbEntity
  8
ALL_DETAIL_ITEM
100
AcDbLine
 62
7
  6
CONTINUOUS
 10
270.8304855057
 20
358.0162832765
 11
270.9267125342
 21
358.00523062
  0
LINE
  5
439
100
AcDbEntity
  8
ALL_DETAIL_ITEM
100
AcDbLine
 62
7
  6
CONTINUOUS
 10
278.0489279582
 20
355.7440586015
 11
278.4577060267
 21
355.7381698445
  0
LINE
  5
43A
100
AcDbEntity
  8
ALL_DETAIL_ITEM
100
AcDbLine
 62
7
  6
CONTINUOUS
 10
269.8201827277
 20
356.745264708
 11
270.0650135722
 21
356.7369306985
  0
LINE
  5
43B
100
AcDbEntity
  8
ALL_DETAIL_ITEM
100
AcDbLine
 62
7
  6
CONTINUOUS
 10
270.0650135722
 20
356.7369306985
 11
270.3050544017
 21
356.7899712065
  0
LINE
  5
43C
100
AcDbEntity
  8
ALL_DETAIL_ITEM
100
AcDbLine
 62
7
  6
CONTINUOUS
 10
276.7273210397
 20
357.2873598225
 11
276.8371440342
 21
357.280902258
  0
LINE
  5
43D
100
AcDbEntity
  8
ALL_DETAIL_ITEM
100
AcDbLine
 62
7
  6
CONTINUOUS
 10
276.7273118607
 20
357.2873600805
 11
274.8684502222
 21
357.410846975
  0
LINE
  5
43E
100
AcDbEntity
  8
ALL_DETAIL_ITEM
100
AcDbLine
 62
7
  6
CONTINUOUS
 10
274.8684502222
 20
357.410846975
 11
273.0187624452
 21
357.637960222
  0
LINE
  5
43F
100
AcDbEntity
  8
ALL_DETAIL_ITEM
100
AcDbLine
 62
7
  6
CONTINUOUS
 10
277.7438659122
 20
355.772616418
 11
278.0489279582
 21
355.7440586015
  0
LINE
  5
440
100
AcDbEntity
  8
ALL_DETAIL_ITEM
100
AcDbLine
 62
7
  6
CONTINUOUS
 10
270.8151949397
 20
358.0170761575
 11
271.0574273032
 21
357.9913459345
  0
LINE
  5
441
100
AcDbEntity
  8
ALL_DETAIL_ITEM
100
AcDbLine
 62
7
  6
CONTINUOUS
 10
271.0574273032
 20
357.9913459345
 11
273.0187624452
 21
357.637960222
  0
LINE
  5
442
100
AcDbEntity
  8
ALL_DETAIL_ITEM
100
AcDbLine
 62
7
  6
CONTINUOUS
 10
271.0737849062
 20
357.988337856
 11
271.0807356292
 21
357.9875394945
  0
LINE
  5
443
100
AcDbEntity
  8
ALL_DETAIL_ITEM
100
AcDbLine
 62
7
  6
CONTINUOUS
 10
271.0807356292
 20
357.9875394945
 11
271.1852393672
 21
357.967841843
  0
LINE
  5
444
100
AcDbEntity
  8
ALL_DETAIL_ITEM
100
AcDbLine
 62
7
  6
CONTINUOUS
 10
254.9690990162
 20
365.5690988325
 11
255.3420678212
 21
365.5233040215
  0
LINE
  5
445
100
AcDbEntity
  8
ALL_DETAIL_ITEM
100
AcDbLine
 62
7
  6
CONTINUOUS
 10
293.9277142417
 20
360.7855823685
 11
294.3006827552
 21
360.7397875935
  0
LINE
  5
446
100
AcDbEntity
  8
ALL_DETAIL_ITEM
100
AcDbLine
 62
7
  6
CONTINUOUS
 10
276.8371440342
 20
357.280902258
 11
277.0872655682
 21
357.247770658
  0
LINE
  5
447
100
AcDbEntity
  8
ALL_DETAIL_ITEM
100
AcDbLine
 62
7
  6
CONTINUOUS
 10
277.0872655682
 20
357.247770658
 11
277.2615990857
 21
357.203097546
  0
LINE
  5
448
100
AcDbEntity
  8
ALL_DETAIL_ITEM
100
AcDbLine
 62
7
  6
CONTINUOUS
 10
277.2615990857
 20
357.203097546
 11
277.3123239377
 21
357.1834078235
  0
LINE
  5
449
100
AcDbEntity
  8
ALL_DETAIL_ITEM
100
AcDbLine
 62
7
  6
CONTINUOUS
 10
247.5021866942
 20
535.024918848
 11
249.3146819837
 21
538.9118275395
  0
LINE
  5
44A
100
AcDbEntity
  8
ALL_DETAIL_ITEM
100
AcDbLine
 62
7
  6
CONTINUOUS
 10
434.7455652742
 20
366.4118275395
 11
299.1746251602
 21
366.4118275395
  0
LINE
  5
44B
100
AcDbEntity
  8
ALL_DETAIL_ITEM
100
AcDbLine
 62
7
  6
CONTINUOUS
 10
255.0993306667
 20
366.4118275395
 11
202.3941721392
 21
366.4118275395
  0
LINE
  5
44C
100
AcDbEntity
  8
ALL_DETAIL_ITEM
100
AcDbLine
 62
7
  6
CONTINUOUS
 10
254.1526318802
 20
370.7068975185
 11
287.6510644982
 21
366.5938071785
  0
LINE
  5
44D
100
AcDbEntity
  8
ALL_DETAIL_ITEM
100
AcDbLine
 62
7
  6
CONTINUOUS
 10
264.8093094572
 20
375.443480994
 11
267.1688054927
 21
374.146261484
  0
LINE
  5
44E
100
AcDbEntity
  8
ALL_DETAIL_ITEM
100
AcDbLine
 62
7
  6
CONTINUOUS
 10
266.0588557422
 20
382.5345567515
 11
266.8432708067
 21
382.0901643235
  0
LINE
  5
44F
100
AcDbEntity
  8
ALL_DETAIL_ITEM
100
AcDbLine
 62
7
  6
CONTINUOUS
 10
287.2630821802
 20
376.7764889435
 11
286.4484657412
 21
377.238031242
  0
LINE
  5
450
100
AcDbEntity
  8
ALL_DETAIL_ITEM
100
AcDbLine
 62
7
  6
CONTINUOUS
 10
266.8432708067
 20
382.0901643235
 11
268.0590533497
 21
381.3967484365
  0
LINE
  5
451
100
AcDbEntity
  8
ALL_DETAIL_ITEM
100
AcDbLine
 62
7
  6
CONTINUOUS
 10
286.4484657412
 20
377.238031242
 11
285.2628801827
 21
377.914265709
  0
LINE
  5
452
100
AcDbEntity
  8
ALL_DETAIL_ITEM
100
AcDbLine
 62
7
  6
CONTINUOUS
 10
293.9758382712
 20
364.3540873185
 11
299.5830043537
 21
360.8503410825
  0
LINE
  5
453
100
AcDbEntity
  8
ALL_DETAIL_ITEM
100
AcDbLine
 62
7
  6
CONTINUOUS
 10
266.0588557422
 20
382.5345567515
 11
265.7346105287
 21
382.814227012
  0
LINE
  5
454
100
AcDbEntity
  8
ALL_DETAIL_ITEM
100
AcDbLine
 62
7
  6
CONTINUOUS
 10
265.7346105287
 20
382.814227012
 11
265.9737429032
 21
383.0967135275
  0
LINE
  5
455
100
AcDbEntity
  8
ALL_DETAIL_ITEM
100
AcDbLine
 62
7
  6
CONTINUOUS
 10
265.9737429032
 20
383.0967135275
 11
266.1342920047
 21
383.148940013
  0
LINE
  5
456
100
AcDbEntity
  8
ALL_DETAIL_ITEM
100
AcDbLine
 62
7
  6
CONTINUOUS
 10
255.3332750872
 20
365.5243836335
 11
255.5793086427
 21
365.0791123025
  0
LINE
  5
457
100
AcDbEntity
  8
ALL_DETAIL_ITEM
100
AcDbLine
 62
7
  6
CONTINUOUS
 10
255.3332764472
 20
365.5243834665
 11
255.5459474957
 21
365.115891879
  0
LINE
  5
458
100
AcDbEntity
  8
ALL_DETAIL_ITEM
100
AcDbLine
 62
7
  6
CONTINUOUS
 10
255.5459474957
 20
365.115891879
 11
255.5793070557
 21
365.0791107785
  0
LINE
  5
459
100
AcDbEntity
  8
ALL_DETAIL_ITEM
100
AcDbLine
 62
7
  6
CONTINUOUS
 10
253.6081158467
 20
538.9118275395
 11
253.0722174617
 21
536.9118275395
  0
LINE
  5
45A
100
AcDbEntity
  8
ALL_DETAIL_ITEM
100
AcDbLine
 62
7
  6
CONTINUOUS
 10
266.0722174617
 20
536.9118275395
 11
267.0048327782
 21
538.9118275395
  0
LINE
  5
45B
100
AcDbEntity
  8
ALL_DETAIL_ITEM
100
AcDbLine
 62
7
  6
CONTINUOUS
 10
284.4827162977
 20
375.403287309
 11
285.1584711597
 21
375.5950030675
  0
LINE
  5
45C
100
AcDbEntity
  8
ALL_DETAIL_ITEM
100
AcDbLine
 62
7
  6
CONTINUOUS
 10
285.1584711597
 20
375.5950030675
 11
286.3190220572
 21
375.9206809125
  0
LINE
  5
45D
100
AcDbEntity
  8
ALL_DETAIL_ITEM
100
AcDbLine
 62
7
  6
CONTINUOUS
 10
286.3190220572
 20
375.9206809125
 11
287.1876449002
 21
376.162105807
  0
LINE
  5
45E
100
AcDbEntity
  8
ALL_DETAIL_ITEM
100
AcDbLine
 62
7
  6
CONTINUOUS
 10
265.2202719292
 20
375.7048438755
 11
266.3530115387
 21
375.8776347705
  0
LINE
  5
45F
100
AcDbEntity
  8
ALL_DETAIL_ITEM
100
AcDbLine
 62
7
  6
CONTINUOUS
 10
266.3530115387
 20
375.8776347705
 11
268.1341238262
 21
375.97078996
  0
LINE
  5
460
100
AcDbEntity
  8
ALL_DETAIL_ITEM
100
AcDbLine
 62
7
  6
CONTINUOUS
 10
268.1341238262
 20
375.97078996
 11
270.4471031272
 21
375.998640091
  0
LINE
  5
461
100
AcDbEntity
  8
ALL_DETAIL_ITEM
100
AcDbLine
 62
7
  6
CONTINUOUS
 10
270.4471031272
 20
375.998640091
 11
273.1398172562
 21
375.9798646485
  0
LINE
  5
462
100
AcDbEntity
  8
ALL_DETAIL_ITEM
100
AcDbLine
 62
7
  6
CONTINUOUS
 10
273.1398172562
 20
375.9798646485
 11
274.2282859507
 21
375.9634699095
  0
LINE
  5
463
100
AcDbEntity
  8
ALL_DETAIL_ITEM
100
AcDbLine
 62
7
  6
CONTINUOUS
 10
278.6415589597
 20
374.9819034595
 11
280.5006470917
 21
375.028091731
  0
LINE
  5
464
100
AcDbEntity
  8
ALL_DETAIL_ITEM
100
AcDbLine
 62
7
  6
CONTINUOUS
 10
280.5006470917
 20
375.028091731
 11
282.3374078497
 21
375.1174126885
  0
LINE
  5
465
100
AcDbEntity
  8
ALL_DETAIL_ITEM
100
AcDbLine
 62
7
  6
CONTINUOUS
 10
282.3374078497
 20
375.1174126885
 11
283.7556651082
 21
375.258119414
  0
LINE
  5
466
100
AcDbEntity
  8
ALL_DETAIL_ITEM
100
AcDbLine
 62
7
  6
CONTINUOUS
 10
283.7556651082
 20
375.258119414
 11
284.4827162977
 21
375.403287309
  0
LINE
  5
467
100
AcDbEntity
  8
ALL_DETAIL_ITEM
100
AcDbLine
 62
7
  6
CONTINUOUS
 10
278.8853005147
 20
376.9670191235
 11
280.7518856472
 21
377.0134399475
  0
LINE
  5
468
100
AcDbEntity
  8
ALL_DETAIL_ITEM
100
AcDbLine
 62
7
  6
CONTINUOUS
 10
280.7518856472
 20
377.0134399475
 11
282.5600313247
 21
377.1010648315
  0
LINE
  5
469
100
AcDbEntity
  8
ALL_DETAIL_ITEM
100
AcDbLine
 62
7
  6
CONTINUOUS
 10
282.5600313247
 20
377.1010648315
 11
283.9786548562
 21
377.240220564
  0
LINE
  5
46A
100
AcDbEntity
  8
ALL_DETAIL_ITEM
100
AcDbLine
 62
7
  6
CONTINUOUS
 10
283.9786548562
 20
377.240220564
 11
284.9036980107
 21
377.446320862
  0
LINE
  5
46B
100
AcDbEntity
  8
ALL_DETAIL_ITEM
100
AcDbLine
 62
7
  6
CONTINUOUS
 10
284.9036980107
 20
377.446320862
 11
285.2391118712
 21
377.7206883465
  0
LINE
  5
46C
100
AcDbEntity
  8
ALL_DETAIL_ITEM
100
AcDbLine
 62
7
  6
CONTINUOUS
 10
279.5555790352
 20
382.425999597
 11
281.4146671672
 21
382.4721878685
  0
LINE
  5
46D
100
AcDbEntity
  8
ALL_DETAIL_ITEM
100
AcDbLine
 62
7
  6
CONTINUOUS
 10
281.4146671672
 20
382.4721878685
 11
283.2514279252
 21
382.5615088255
  0
LINE
  5
46E
100
AcDbEntity
  8
ALL_DETAIL_ITEM
100
AcDbLine
 62
7
  6
CONTINUOUS
 10
283.2514279252
 20
382.5615088255
 11
284.6696851837
 21
382.7022155515
  0
LINE
  5
46F
100
AcDbEntity
  8
ALL_DETAIL_ITEM
100
AcDbLine
 62
7
  6
CONTINUOUS
 10
284.6696851837
 20
382.7022155515
 11
285.3967363732
 21
382.847383446
  0
LINE
  5
470
100
AcDbEntity
  8
ALL_DETAIL_ITEM
100
AcDbLine
 62
7
  6
CONTINUOUS
 10
279.7993278957
 20
384.411174756
 11
281.5974351062
 21
384.455223704
  0
LINE
  5
471
100
AcDbEntity
  8
ALL_DETAIL_ITEM
100
AcDbLine
 62
7
  6
CONTINUOUS
 10
281.5974351062
 20
384.455223704
 11
283.4141384207
 21
384.5411452625
  0
LINE
  5
472
100
AcDbEntity
  8
ALL_DETAIL_ITEM
100
AcDbLine
 62
7
  6
CONTINUOUS
 10
283.4141384207
 20
384.5411452625
 11
284.8776907407
 21
384.682182764
  0
LINE
  5
473
100
AcDbEntity
  8
ALL_DETAIL_ITEM
100
AcDbLine
 62
7
  6
CONTINUOUS
 10
284.8776907407
 20
384.682182764
 11
285.8179946212
 21
384.890521749
  0
LINE
  5
474
100
AcDbEntity
  8
ALL_DETAIL_ITEM
100
AcDbLine
 62
7
  6
CONTINUOUS
 10
285.8179946212
 20
384.890521749
 11
286.1531319467
 21
385.1647844835
  0
LINE
  5
475
100
AcDbEntity
  8
ALL_DETAIL_ITEM
100
AcDbLine
 62
7
  6
CONTINUOUS
 10
279.6677467702
 20
383.3395324865
 11
281.9771213772
 21
383.314683684
  0
LINE
  5
476
100
AcDbEntity
  8
ALL_DETAIL_ITEM
100
AcDbLine
 62
7
  6
CONTINUOUS
 10
281.9771213772
 20
383.314683684
 11
284.4402863472
 21
383.324093334
  0
LINE
  5
477
100
AcDbEntity
  8
ALL_DETAIL_ITEM
100
AcDbLine
 62
7
  6
CONTINUOUS
 10
284.4402863472
 20
383.324093334
 11
286.4206936832
 21
383.392778168
  0
LINE
  5
478
100
AcDbEntity
  8
ALL_DETAIL_ITEM
100
AcDbLine
 62
7
  6
CONTINUOUS
 10
286.4206936832
 20
383.392778168
 11
287.7884481962
 21
383.53668731
  0
LINE
  5
479
100
AcDbEntity
  8
ALL_DETAIL_ITEM
100
AcDbLine
 62
7
  6
CONTINUOUS
 10
287.7884481962
 20
383.53668731
 11
288.1016649762
 21
383.606201944
  0
LINE
  5
47A
100
AcDbEntity
  8
ALL_DETAIL_ITEM
100
AcDbLine
 62
7
  6
CONTINUOUS
 10
278.7535728642
 20
375.8941835035
 11
278.9408386802
 21
375.891285339
  0
LINE
  5
47B
100
AcDbEntity
  8
ALL_DETAIL_ITEM
100
AcDbLine
 62
7
  6
CONTINUOUS
 10
278.9408386802
 20
375.891285339
 11
281.6663125412
 21
375.868487507
  0
LINE
  5
47C
100
AcDbEntity
  8
ALL_DETAIL_ITEM
100
AcDbLine
 62
7
  6
CONTINUOUS
 10
281.6663125412
 20
375.868487507
 11
284.0314520282
 21
375.889933173
  0
LINE
  5
47D
100
AcDbEntity
  8
ALL_DETAIL_ITEM
100
AcDbLine
 62
7
  6
CONTINUOUS
 10
284.0314520282
 20
375.889933173
 11
285.8806373312
 21
375.9747300465
  0
LINE
  5
47E
100
AcDbEntity
  8
ALL_DETAIL_ITEM
100
AcDbLine
 62
7
  6
CONTINUOUS
 10
285.8806373312
 20
375.9747300465
 11
287.0927472542
 21
376.1377499415
  0
LINE
  5
47F
100
AcDbEntity
  8
ALL_DETAIL_ITEM
100
AcDbLine
 62
7
  6
CONTINUOUS
 10
287.0927472542
 20
376.1377499415
 11
287.1876449002
 21
376.162105807
  0
LINE
  5
480
100
AcDbEntity
  8
ALL_DETAIL_ITEM
100
AcDbLine
 62
7
  6
CONTINUOUS
 10
266.9728758177
 20
389.978652889
 11
267.7572908822
 21
389.534260461
  0
LINE
  5
481
100
AcDbEntity
  8
ALL_DETAIL_ITEM
100
AcDbLine
 62
7
  6
CONTINUOUS
 10
288.1771022557
 20
384.2205850805
 11
287.3624858167
 21
384.682127379
  0
LINE
  5
482
100
AcDbEntity
  8
ALL_DETAIL_ITEM
100
AcDbLine
 62
7
  6
CONTINUOUS
 10
267.8868958932
 20
397.422749026
 11
268.6713109577
 21
396.978356598
  0
LINE
  5
483
100
AcDbEntity
  8
ALL_DETAIL_ITEM
100
AcDbLine
 62
7
  6
CONTINUOUS
 10
267.7572908822
 20
389.534260461
 11
268.9730734252
 21
388.840844574
  0
LINE
  5
484
100
AcDbEntity
  8
ALL_DETAIL_ITEM
100
AcDbLine
 62
7
  6
CONTINUOUS
 10
287.3624858167
 20
384.682127379
 11
286.1769002582
 21
385.358361846
  0
LINE
  5
485
100
AcDbEntity
  8
ALL_DETAIL_ITEM
100
AcDbLine
 62
7
  6
CONTINUOUS
 10
268.6713109577
 20
396.978356598
 11
269.8870935007
 21
396.284940711
  0
LINE
  5
486
100
AcDbEntity
  8
ALL_DETAIL_ITEM
100
AcDbLine
 62
7
  6
CONTINUOUS
 10
267.8868958932
 20
397.422749026
 11
267.7046993557
 21
397.541047927
  0
LINE
  5
487
100
AcDbEntity
  8
ALL_DETAIL_ITEM
100
AcDbLine
 62
7
  6
CONTINUOUS
 10
267.7046993557
 20
397.541047927
 11
267.5984986182
 21
397.8659360175
  0
LINE
  5
488
100
AcDbEntity
  8
ALL_DETAIL_ITEM
100
AcDbLine
 62
7
  6
CONTINUOUS
 10
267.5984986182
 20
397.8659360175
 11
267.9623321557
 21
398.0371322875
  0
LINE
  5
489
100
AcDbEntity
  8
ALL_DETAIL_ITEM
100
AcDbLine
 62
7
  6
CONTINUOUS
 10
266.9728758177
 20
389.978652889
 11
266.6998119542
 21
390.180073882
  0
LINE
  5
48A
100
AcDbEntity
  8
ALL_DETAIL_ITEM
100
AcDbLine
 62
7
  6
CONTINUOUS
 10
266.6998119542
 20
390.180073882
 11
266.7663293132
 21
390.4837548565
  0
LINE
  5
48B
100
AcDbEntity
  8
ALL_DETAIL_ITEM
100
AcDbLine
 62
7
  6
CONTINUOUS
 10
266.7663293132
 20
390.4837548565
 11
267.0483120802
 21
390.5930361505
  0
LINE
  5
48C
100
AcDbEntity
  8
ALL_DETAIL_ITEM
100
AcDbLine
 62
7
  6
CONTINUOUS
 10
243.5655993327
 20
538.9118275395
 11
243.5655993327
 21
527.9118275395
  0
LINE
  5
48D
100
AcDbEntity
  8
ALL_DETAIL_ITEM
100
AcDbLine
 62
7
  6
CONTINUOUS
 10
267.9252011567
 20
376.4636625475
 11
267.2831237487
 21
376.281460949
  0
LINE
  5
48E
100
AcDbEntity
  8
ALL_DETAIL_ITEM
100
AcDbLine
 62
7
  6
CONTINUOUS
 10
267.2831237487
 20
376.281460949
 11
266.1223479662
 21
375.9556028425
  0
LINE
  5
48F
100
AcDbEntity
  8
ALL_DETAIL_ITEM
100
AcDbLine
 62
7
  6
CONTINUOUS
 10
266.1223479662
 20
375.9556028425
 11
265.2202719292
 21
375.7048438755
  0
LINE
  5
490
100
AcDbEntity
  8
ALL_DETAIL_ITEM
100
AcDbLine
 62
7
  6
CONTINUOUS
 10
285.3967363732
 20
382.847383446
 11
286.0724912352
 21
383.0390992045
  0
LINE
  5
491
100
AcDbEntity
  8
ALL_DETAIL_ITEM
100
AcDbLine
 62
7
  6
CONTINUOUS
 10
286.0724912352
 20
383.0390992045
 11
287.2330421327
 21
383.36477705
  0
LINE
  5
492
100
AcDbEntity
  8
ALL_DETAIL_ITEM
100
AcDbLine
 62
7
  6
CONTINUOUS
 10
287.2330421327
 20
383.36477705
 11
288.1016649762
 21
383.606201944
  0
LINE
  5
493
100
AcDbEntity
  8
ALL_DETAIL_ITEM
100
AcDbLine
 62
7
  6
CONTINUOUS
 10
268.8392212322
 20
383.907758685
 11
268.1971438242
 21
383.7255570865
  0
LINE
  5
494
100
AcDbEntity
  8
ALL_DETAIL_ITEM
100
AcDbLine
 62
7
  6
CONTINUOUS
 10
268.1971438242
 20
383.7255570865
 11
267.0363680417
 21
383.3996989795
  0
LINE
  5
495
100
AcDbEntity
  8
ALL_DETAIL_ITEM
100
AcDbLine
 62
7
  6
CONTINUOUS
 10
267.0363680417
 20
383.3996989795
 11
266.1342920047
 21
383.148940013
  0
LINE
  5
496
100
AcDbEntity
  8
ALL_DETAIL_ITEM
100
AcDbLine
 62
7
  6
CONTINUOUS
 10
267.9252011567
 20
376.4636625475
 11
268.6311354397
 21
376.605741985
  0
LINE
  5
497
100
AcDbEntity
  8
ALL_DETAIL_ITEM
100
AcDbLine
 62
7
  6
CONTINUOUS
 10
268.6311354397
 20
376.605741985
 11
270.0260593842
 21
376.746461897
  0
LINE
  5
498
100
AcDbEntity
  8
ALL_DETAIL_ITEM
100
AcDbLine
 62
7
  6
CONTINUOUS
 10
270.0260593842
 20
376.746461897
 11
271.8348058937
 21
376.8363578385
  0
LINE
  5
499
100
AcDbEntity
  8
ALL_DETAIL_ITEM
100
AcDbLine
 62
7
  6
CONTINUOUS
 10
271.8348058937
 20
376.8363578385
 11
273.9261184807
 21
376.8897509645
  0
LINE
  5
49A
100
AcDbEntity
  8
ALL_DETAIL_ITEM
100
AcDbLine
 62
7
  6
CONTINUOUS
 10
273.9261184807
 20
376.8897509645
 11
274.3427949507
 21
376.896070876
  0
LINE
  5
49B
100
AcDbEntity
  8
ALL_DETAIL_ITEM
100
AcDbLine
 62
7
  6
CONTINUOUS
 10
268.8392212322
 20
383.907758685
 11
269.6077009782
 21
384.058857097
  0
LINE
  5
49C
100
AcDbEntity
  8
ALL_DETAIL_ITEM
100
AcDbLine
 62
7
  6
CONTINUOUS
 10
269.6077009782
 20
384.058857097
 11
271.0800338587
 21
384.2000440475
  0
LINE
  5
49D
100
AcDbEntity
  8
ALL_DETAIL_ITEM
100
AcDbLine
 62
7
  6
CONTINUOUS
 10
271.0800338587
 20
384.2000440475
 11
272.9066447017
 21
384.285821333
  0
LINE
  5
49E
100
AcDbEntity
  8
ALL_DETAIL_ITEM
100
AcDbLine
 62
7
  6
CONTINUOUS
 10
272.9066447017
 20
384.285821333
 11
275.0088261682
 21
384.336927994
  0
LINE
  5
49F
100
AcDbEntity
  8
ALL_DETAIL_ITEM
100
AcDbLine
 62
7
  6
CONTINUOUS
 10
275.0088261682
 20
384.336927994
 11
275.2568701202
 21
384.340615717
  0
LINE
  5
4A0
100
AcDbEntity
  8
ALL_DETAIL_ITEM
100
AcDbLine
 62
7
  6
CONTINUOUS
 10
266.1342920047
 20
383.148940013
 11
266.9446817152
 21
383.289345511
  0
LINE
  5
4A1
100
AcDbEntity
  8
ALL_DETAIL_ITEM
100
AcDbLine
 62
7
  6
CONTINUOUS
 10
266.9446817152
 20
383.289345511
 11
268.5850285892
 21
383.39978452
  0
LINE
  5
4A2
100
AcDbEntity
  8
ALL_DETAIL_ITEM
100
AcDbLine
 62
7
  6
CONTINUOUS
 10
268.5850285892
 20
383.39978452
 11
270.7876260402
 21
383.4411878385
  0
LINE
  5
4A3
100
AcDbEntity
  8
ALL_DETAIL_ITEM
100
AcDbLine
 62
7
  6
CONTINUOUS
 10
270.7876260402
 20
383.4411878385
 11
273.4077224232
 21
383.4313287335
  0
LINE
  5
4A4
100
AcDbEntity
  8
ALL_DETAIL_ITEM
100
AcDbLine
 62
7
  6
CONTINUOUS
 10
273.4077224232
 20
383.4313287335
 11
275.1422560822
 21
383.407159284
  0
LINE
  5
4A5
100
AcDbEntity
  8
ALL_DETAIL_ITEM
100
AcDbLine
 62
7
  6
CONTINUOUS
 10
280.4695991107
 20
389.870095734
 11
282.3286872427
 21
389.9162840055
  0
LINE
  5
4A6
100
AcDbEntity
  8
ALL_DETAIL_ITEM
100
AcDbLine
 62
7
  6
CONTINUOUS
 10
282.3286872427
 20
389.9162840055
 11
284.1654480007
 21
390.005604963
  0
LINE
  5
4A7
100
AcDbEntity
  8
ALL_DETAIL_ITEM
100
AcDbLine
 62
7
  6
CONTINUOUS
 10
284.1654480007
 20
390.005604963
 11
285.5837052592
 21
390.1463116885
  0
LINE
  5
4A8
100
AcDbEntity
  8
ALL_DETAIL_ITEM
100
AcDbLine
 62
7
  6
CONTINUOUS
 10
285.5837052592
 20
390.1463116885
 11
286.3107564487
 21
390.2914795835
  0
LINE
  5
4A9
100
AcDbEntity
  8
ALL_DETAIL_ITEM
100
AcDbLine
 62
7
  6
CONTINUOUS
 10
281.3834187387
 20
397.312559358
 11
281.3930835067
 21
397.3127099835
  0
LINE
  5
4AA
100
AcDbEntity
  8
ALL_DETAIL_ITEM
100
AcDbLine
 62
7
  6
CONTINUOUS
 10
281.3930835067
 20
397.3127099835
 11
283.5314377097
 21
397.3707244095
  0
LINE
  5
4AB
100
AcDbEntity
  8
ALL_DETAIL_ITEM
100
AcDbLine
 62
7
  6
CONTINUOUS
 10
283.5314377097
 20
397.3707244095
 11
285.3430678647
 21
397.4688555045
  0
LINE
  5
4AC
100
AcDbEntity
  8
ALL_DETAIL_ITEM
100
AcDbLine
 62
7
  6
CONTINUOUS
 10
285.3430678647
 20
397.4688555045
 11
286.7027499242
 21
397.622478848
  0
LINE
  5
4AD
100
AcDbEntity
  8
ALL_DETAIL_ITEM
100
AcDbLine
 62
7
  6
CONTINUOUS
 10
286.7027499242
 20
397.622478848
 11
287.2247765242
 21
397.7355757205
  0
LINE
  5
4AE
100
AcDbEntity
  8
ALL_DETAIL_ITEM
100
AcDbLine
 62
7
  6
CONTINUOUS
 10
276.1708715777
 20
391.784560223
 11
275.8718652917
 21
391.7801061975
  0
LINE
  5
4AF
100
AcDbEntity
  8
ALL_DETAIL_ITEM
100
AcDbLine
 62
7
  6
CONTINUOUS
 10
275.8718652917
 20
391.7801061975
 11
273.7287733407
 21
391.72682735
  0
LINE
  5
4B0
100
AcDbEntity
  8
ALL_DETAIL_ITEM
100
AcDbLine
 62
7
  6
CONTINUOUS
 10
273.7287733407
 20
391.72682735
 11
271.9245510857
 21
391.63950097
  0
LINE
  5
4B1
100
AcDbEntity
  8
ALL_DETAIL_ITEM
100
AcDbLine
 62
7
  6
CONTINUOUS
 10
271.9245510857
 20
391.63950097
 11
270.5023393517
 21
391.5001995575
  0
LINE
  5
4B2
100
AcDbEntity
  8
ALL_DETAIL_ITEM
100
AcDbLine
 62
7
  6
CONTINUOUS
 10
270.5023393517
 20
391.5001995575
 11
269.7532413077
 21
391.351854822
  0
LINE
  5
4B3
100
AcDbEntity
  8
ALL_DETAIL_ITEM
100
AcDbLine
 62
7
  6
CONTINUOUS
 10
277.0849346787
 20
399.229006774
 11
276.9190768272
 21
399.2265775095
  0
LINE
  5
4B4
100
AcDbEntity
  8
ALL_DETAIL_ITEM
100
AcDbLine
 62
7
  6
CONTINUOUS
 10
276.9190768272
 20
399.2265775095
 11
274.7329684632
 21
399.1739567645
  0
LINE
  5
4B5
100
AcDbEntity
  8
ALL_DETAIL_ITEM
100
AcDbLine
 62
7
  6
CONTINUOUS
 10
274.7329684632
 20
399.1739567645
 11
272.8692223997
 21
399.0856600945
  0
LINE
  5
4B6
100
AcDbEntity
  8
ALL_DETAIL_ITEM
100
AcDbLine
 62
7
  6
CONTINUOUS
 10
272.8692223997
 20
399.0856600945
 11
271.4284007952
 21
398.9460107345
  0
LINE
  5
4B7
100
AcDbEntity
  8
ALL_DETAIL_ITEM
100
AcDbLine
 62
7
  6
CONTINUOUS
 10
271.4284007952
 20
398.9460107345
 11
270.6672613832
 21
398.7959509595
  0
LINE
  5
4B8
100
AcDbEntity
  8
ALL_DETAIL_ITEM
100
AcDbLine
 62
7
  6
CONTINUOUS
 10
280.5818610762
 20
390.7843960715
 11
282.2707668582
 21
390.762987256
  0
LINE
  5
4B9
100
AcDbEntity
  8
ALL_DETAIL_ITEM
100
AcDbLine
 62
7
  6
CONTINUOUS
 10
282.2707668582
 20
390.762987256
 11
284.8232748527
 21
390.761426962
  0
LINE
  5
4BA
100
AcDbEntity
  8
ALL_DETAIL_ITEM
100
AcDbLine
 62
7
  6
CONTINUOUS
 10
284.8232748527
 20
390.761426962
 11
286.9279499107
 21
390.8148536385
  0
LINE
  5
4BB
100
AcDbEntity
  8
ALL_DETAIL_ITEM
100
AcDbLine
 62
7
  6
CONTINUOUS
 10
286.9279499107
 20
390.8148536385
 11
288.4465878407
 21
390.940236626
  0
LINE
  5
4BC
100
AcDbEntity
  8
ALL_DETAIL_ITEM
100
AcDbLine
 62
7
  6
CONTINUOUS
 10
288.4465878407
 20
390.940236626
 11
289.0156850517
 21
391.0502980815
  0
LINE
  5
4BD
100
AcDbEntity
  8
ALL_DETAIL_ITEM
100
AcDbLine
 62
7
  6
CONTINUOUS
 10
281.4958254622
 20
398.228038653
 11
282.5494386022
 21
398.2131293715
  0
LINE
  5
4BE
100
AcDbEntity
  8
ALL_DETAIL_ITEM
100
AcDbLine
 62
7
  6
CONTINUOUS
 10
282.5494386022
 20
398.2131293715
 11
285.1822873387
 21
398.2017044745
  0
LINE
  5
4BF
100
AcDbEntity
  8
ALL_DETAIL_ITEM
100
AcDbLine
 62
7
  6
CONTINUOUS
 10
285.1822873387
 20
398.2017044745
 11
287.4038309607
 21
398.240781496
  0
LINE
  5
4C0
100
AcDbEntity
  8
ALL_DETAIL_ITEM
100
AcDbLine
 62
7
  6
CONTINUOUS
 10
287.4038309607
 20
398.240781496
 11
289.0680510107
 21
398.348289247
  0
LINE
  5
4C1
100
AcDbEntity
  8
ALL_DETAIL_ITEM
100
AcDbLine
 62
7
  6
CONTINUOUS
 10
289.0680510107
 20
398.348289247
 11
289.9297051272
 21
398.4943942185
  0
LINE
  5
4C2
100
AcDbEntity
  8
ALL_DETAIL_ITEM
100
AcDbLine
 62
7
  6
CONTINUOUS
 10
289.0911223312
 20
391.664681218
 11
288.2765058922
 21
392.1262235165
  0
LINE
  5
4C3
100
AcDbEntity
  8
ALL_DETAIL_ITEM
100
AcDbLine
 62
7
  6
CONTINUOUS
 10
268.8009159687
 20
404.8668451635
 11
269.5853310332
 21
404.4224527355
  0
LINE
  5
4C4
100
AcDbEntity
  8
ALL_DETAIL_ITEM
100
AcDbLine
 62
7
  6
CONTINUOUS
 10
290.0051424067
 20
399.1087773555
 11
289.1905259682
 21
399.570319654
  0
LINE
  5
4C5
100
AcDbEntity
  8
ALL_DETAIL_ITEM
100
AcDbLine
 62
7
  6
CONTINUOUS
 10
269.7149360442
 20
412.310941301
 11
270.4993511087
 21
411.866548873
  0
LINE
  5
4C6
100
AcDbEntity
  8
ALL_DETAIL_ITEM
100
AcDbLine
 62
7
  6
CONTINUOUS
 10
288.2765058922
 20
392.1262235165
 11
287.0909203337
 21
392.8024579835
  0
LINE
  5
4C7
100
AcDbEntity
  8
ALL_DETAIL_ITEM
100
AcDbLine
 62
7
  6
CONTINUOUS
 10
269.5853310332
 20
404.4224527355
 11
270.8011135762
 21
403.7290368485
  0
LINE
  5
4C8
100
AcDbEntity
  8
ALL_DETAIL_ITEM
100
AcDbLine
 62
7
  6
CONTINUOUS
 10
289.1905259682
 20
399.570319654
 11
288.0049404092
 21
400.246554121
  0
LINE
  5
4C9
100
AcDbEntity
  8
ALL_DETAIL_ITEM
100
AcDbLine
 62
7
  6
CONTINUOUS
 10
270.4993511087
 20
411.866548873
 11
271.7151336517
 21
411.173132986
  0
LINE
  5
4CA
100
AcDbEntity
  8
ALL_DETAIL_ITEM
100
AcDbLine
 62
7
  6
CONTINUOUS
 10
269.7149360442
 20
412.310941301
 11
269.3824906497
 21
412.615606746
  0
LINE
  5
4CB
100
AcDbEntity
  8
ALL_DETAIL_ITEM
100
AcDbLine
 62
7
  6
CONTINUOUS
 10
269.3824906497
 20
412.615606746
 11
269.6790316017
 21
412.8910443745
  0
LINE
  5
4CC
100
AcDbEntity
  8
ALL_DETAIL_ITEM
100
AcDbLine
 62
7
  6
CONTINUOUS
 10
269.6790316017
 20
412.8910443745
 11
269.7903723067
 21
412.925324562
  0
LINE
  5
4CD
100
AcDbEntity
  8
ALL_DETAIL_ITEM
100
AcDbLine
 62
7
  6
CONTINUOUS
 10
268.8009159687
 20
404.8668451635
 11
268.4705126607
 21
405.2432248595
  0
LINE
  5
4CE
100
AcDbEntity
  8
ALL_DETAIL_ITEM
100
AcDbLine
 62
7
  6
CONTINUOUS
 10
268.4705126607
 20
405.2432248595
 11
268.8763522312
 21
405.481228425
  0
LINE
  5
4CF
100
AcDbEntity
  8
ALL_DETAIL_ITEM
100
AcDbLine
 62
7
  6
CONTINUOUS
 10
271.2982666407
 20
538.9118275395
 11
270.7623682562
 21
536.9118275395
  0
LINE
  5
4D0
100
AcDbEntity
  8
ALL_DETAIL_ITEM
100
AcDbLine
 62
7
  6
CONTINUOUS
 10
284.0251528467
 20
553.9118275395
 11
278.5655993327
 21
538.9118275395
  0
LINE
  5
4D1
100
AcDbEntity
  8
ALL_DETAIL_ITEM
100
AcDbLine
 62
7
  6
CONTINUOUS
 10
274.5619267557
 20
527.9118275395
 11
258.5235233957
 21
483.8466764645
  0
LINE
  5
4D2
100
AcDbEntity
  8
ALL_DETAIL_ITEM
100
AcDbLine
 62
7
  6
CONTINUOUS
 10
297.0381330302
 20
558.517686536
 11
297.7749700787
 21
560.5421296895
  0
LINE
  5
4D3
100
AcDbEntity
  8
ALL_DETAIL_ITEM
100
AcDbLine
 62
7
  6
CONTINUOUS
 10
251.9772084207
 20
468.748332303
 11
279.5655993327
 21
527.9118275395
  0
LINE
  5
4D4
100
AcDbEntity
  8
ALL_DETAIL_ITEM
100
AcDbLine
 62
7
  6
CONTINUOUS
 10
283.7623682562
 20
536.9118275395
 11
286.5602142047
 21
542.9118275395
  0
LINE
  5
4D5
100
AcDbEntity
  8
ALL_DETAIL_ITEM
100
AcDbLine
 62
7
  6
CONTINUOUS
 10
286.3107564487
 20
390.2914795835
 11
286.9865113107
 21
390.483195342
  0
LINE
  5
4D6
100
AcDbEntity
  8
ALL_DETAIL_ITEM
100
AcDbLine
 62
7
  6
CONTINUOUS
 10
286.9865113107
 20
390.483195342
 11
288.1470622082
 21
390.808873187
  0
LINE
  5
4D7
100
AcDbEntity
  8
ALL_DETAIL_ITEM
100
AcDbLine
 62
7
  6
CONTINUOUS
 10
288.1470622082
 20
390.808873187
 11
289.0156850517
 21
391.0502980815
  0
LINE
  5
4D8
100
AcDbEntity
  8
ALL_DETAIL_ITEM
100
AcDbLine
 62
7
  6
CONTINUOUS
 10
269.7532413077
 20
391.351854822
 11
269.1111638997
 21
391.169653224
  0
LINE
  5
4D9
100
AcDbEntity
  8
ALL_DETAIL_ITEM
100
AcDbLine
 62
7
  6
CONTINUOUS
 10
269.1111638997
 20
391.169653224
 11
267.9503881172
 21
390.843795117
  0
LINE
  5
4DA
100
AcDbEntity
  8
ALL_DETAIL_ITEM
100
AcDbLine
 62
7
  6
CONTINUOUS
 10
267.9503881172
 20
390.843795117
 11
267.0483120802
 21
390.5930361505
  0
LINE
  5
4DB
100
AcDbEntity
  8
ALL_DETAIL_ITEM
100
AcDbLine
 62
7
  6
CONTINUOUS
 10
287.2247765242
 20
397.7355757205
 11
287.9005313862
 21
397.9272914795
  0
LINE
  5
4DC
100
AcDbEntity
  8
ALL_DETAIL_ITEM
100
AcDbLine
 62
7
  6
CONTINUOUS
 10
287.9005313862
 20
397.9272914795
 11
289.0610822837
 21
398.2529693245
  0
LINE
  5
4DD
100
AcDbEntity
  8
ALL_DETAIL_ITEM
100
AcDbLine
 62
7
  6
CONTINUOUS
 10
289.0610822837
 20
398.2529693245
 11
289.9297051272
 21
398.4943942185
  0
LINE
  5
4DE
100
AcDbEntity
  8
ALL_DETAIL_ITEM
100
AcDbLine
 62
7
  6
CONTINUOUS
 10
287.7609215077
 20
399.828142674
 11
286.9366516477
 21
399.605917468
  0
LINE
  5
4DF
100
AcDbEntity
  8
ALL_DETAIL_ITEM
100
AcDbLine
 62
7
  6
CONTINUOUS
 10
286.9366516477
 20
399.605917468
 11
285.5300194567
 21
399.4496281725
  0
LINE
  5
4E0
100
AcDbEntity
  8
ALL_DETAIL_ITEM
100
AcDbLine
 62
7
  6
CONTINUOUS
 10
285.5300194567
 20
399.4496281725
 11
283.6895453182
 21
399.3526402875
  0
LINE
  5
4E1
100
AcDbEntity
  8
ALL_DETAIL_ITEM
100
AcDbLine
 62
7
  6
CONTINUOUS
 10
283.6895453182
 20
399.3526402875
 11
281.6271983282
 21
399.2979847845
  0
LINE
  5
4E2
100
AcDbEntity
  8
ALL_DETAIL_ITEM
100
AcDbLine
 62
7
  6
CONTINUOUS
 10
267.9623321557
 20
398.0371322875
 11
268.2365325797
 21
398.099443577
  0
LINE
  5
4E3
100
AcDbEntity
  8
ALL_DETAIL_ITEM
100
AcDbLine
 62
7
  6
CONTINUOUS
 10
268.2365325797
 20
398.099443577
 11
269.5786621182
 21
398.24649907
  0
LINE
  5
4E4
100
AcDbEntity
  8
ALL_DETAIL_ITEM
100
AcDbLine
 62
7
  6
CONTINUOUS
 10
269.5786621182
 20
398.24649907
 11
271.5376696672
 21
398.3178114675
  0
LINE
  5
4E5
100
AcDbEntity
  8
ALL_DETAIL_ITEM
100
AcDbLine
 62
7
  6
CONTINUOUS
 10
271.5376696672
 20
398.3178114675
 11
273.9850909067
 21
398.3291542045
  0
LINE
  5
4E6
100
AcDbEntity
  8
ALL_DETAIL_ITEM
100
AcDbLine
 62
7
  6
CONTINUOUS
 10
273.9850909067
 20
398.3291542045
 11
276.7598043642
 21
398.3003105105
  0
LINE
  5
4E7
100
AcDbEntity
  8
ALL_DETAIL_ITEM
100
AcDbLine
 62
7
  6
CONTINUOUS
 10
276.7598043642
 20
398.3003105105
 11
276.9704924852
 21
398.296949903
  0
LINE
  5
4E8
100
AcDbEntity
  8
ALL_DETAIL_ITEM
100
AcDbLine
 62
7
  6
CONTINUOUS
 10
267.0483120802
 20
390.5930361505
 11
267.5721905707
 21
390.6966558155
  0
LINE
  5
4E9
100
AcDbEntity
  8
ALL_DETAIL_ITEM
100
AcDbLine
 62
7
  6
CONTINUOUS
 10
267.5721905707
 20
390.6966558155
 11
269.0660350482
 21
390.8250830565
  0
LINE
  5
4EA
100
AcDbEntity
  8
ALL_DETAIL_ITEM
100
AcDbLine
 62
7
  6
CONTINUOUS
 10
269.0660350482
 20
390.8250830565
 11
271.1505009552
 21
390.8809911045
  0
LINE
  5
4EB
100
AcDbEntity
  8
ALL_DETAIL_ITEM
100
AcDbLine
 62
7
  6
CONTINUOUS
 10
271.1505009552
 20
390.8809911045
 11
273.6887353602
 21
390.881183387
  0
LINE
  5
4EC
100
AcDbEntity
  8
ALL_DETAIL_ITEM
100
AcDbLine
 62
7
  6
CONTINUOUS
 10
273.6887353602
 20
390.881183387
 11
276.0563494797
 21
390.8518525825
  0
LINE
  5
4ED
100
AcDbEntity
  8
ALL_DETAIL_ITEM
100
AcDbLine
 62
7
  6
CONTINUOUS
 10
268.8763522312
 20
405.481228425
 11
270.1243155202
 21
405.66385996
  0
LINE
  5
4EE
100
AcDbEntity
  8
ALL_DETAIL_ITEM
100
AcDbLine
 62
7
  6
CONTINUOUS
 10
270.1243155202
 20
405.66385996
 11
271.9509870062
 21
405.751421183
  0
LINE
  5
4EF
100
AcDbEntity
  8
ALL_DETAIL_ITEM
100
AcDbLine
 62
7
  6
CONTINUOUS
 10
271.9509870062
 20
405.751421183
 11
274.2989689802
 21
405.7749735265
  0
LINE
  5
4F0
100
AcDbEntity
  8
ALL_DETAIL_ITEM
100
AcDbLine
 62
7
  6
CONTINUOUS
 10
274.2989689802
 20
405.7749735265
 11
277.0137888492
 21
405.7534838405
  0
LINE
  5
4F1
100
AcDbEntity
  8
ALL_DETAIL_ITEM
100
AcDbLine
 62
7
  6
CONTINUOUS
 10
277.0137888492
 20
405.7534838405
 11
277.8843989497
 21
405.740120754
  0
LINE
  5
4F2
100
AcDbEntity
  8
ALL_DETAIL_ITEM
100
AcDbLine
 62
7
  6
CONTINUOUS
 10
282.2976392617
 20
404.7582880085
 11
284.1567273937
 21
404.80447628
  0
LINE
  5
4F3
100
AcDbEntity
  8
ALL_DETAIL_ITEM
100
AcDbLine
 62
7
  6
CONTINUOUS
 10
284.1567273937
 20
404.80447628
 11
285.9934881517
 21
404.8937972375
  0
LINE
  5
4F4
100
AcDbEntity
  8
ALL_DETAIL_ITEM
100
AcDbLine
 62
7
  6
CONTINUOUS
 10
285.9934881517
 20
404.8937972375
 11
287.4117454102
 21
405.034503963
  0
LINE
  5
4F5
100
AcDbEntity
  8
ALL_DETAIL_ITEM
100
AcDbLine
 62
7
  6
CONTINUOUS
 10
287.4117454102
 20
405.034503963
 11
288.1387966002
 21
405.179671858
  0
LINE
  5
4F6
100
AcDbEntity
  8
ALL_DETAIL_ITEM
100
AcDbLine
 62
7
  6
CONTINUOUS
 10
277.9989206147
 20
406.672824868
 11
277.7213640977
 21
406.6686862015
  0
LINE
  5
4F7
100
AcDbEntity
  8
ALL_DETAIL_ITEM
100
AcDbLine
 62
7
  6
CONTINUOUS
 10
277.7213640977
 20
406.6686862015
 11
275.5984391762
 21
406.616431331
  0
LINE
  5
4F8
100
AcDbEntity
  8
ALL_DETAIL_ITEM
100
AcDbLine
 62
7
  6
CONTINUOUS
 10
275.5984391762
 20
406.616431331
 11
273.7496558607
 21
406.527494245
  0
LINE
  5
4F9
100
AcDbEntity
  8
ALL_DETAIL_ITEM
100
AcDbLine
 62
7
  6
CONTINUOUS
 10
273.7496558607
 20
406.527494245
 11
272.3010930882
 21
406.3841612465
  0
LINE
  5
4FA
100
AcDbEntity
  8
ALL_DETAIL_ITEM
100
AcDbLine
 62
7
  6
CONTINUOUS
 10
272.3010930882
 20
406.3841612465
 11
271.5812814587
 21
406.2400470965
  0
LINE
  5
4FB
100
AcDbEntity
  8
ALL_DETAIL_ITEM
100
AcDbLine
 62
7
  6
CONTINUOUS
 10
283.3237499487
 20
413.115288917
 11
285.8362855657
 21
413.0901209965
  0
LINE
  5
4FC
100
AcDbEntity
  8
ALL_DETAIL_ITEM
100
AcDbLine
 62
7
  6
CONTINUOUS
 10
285.8362855657
 20
413.0901209965
 11
288.2677233912
 21
413.10342625
  0
LINE
  5
4FD
100
AcDbEntity
  8
ALL_DETAIL_ITEM
100
AcDbLine
 62
7
  6
CONTINUOUS
 10
288.2677233912
 20
413.10342625
 11
290.2051400507
 21
413.1773896755
  0
LINE
  5
4FE
100
AcDbEntity
  8
ALL_DETAIL_ITEM
100
AcDbLine
 62
7
  6
CONTINUOUS
 10
290.2051400507
 20
413.1773896755
 11
291.5215148702
 21
413.3276074505
  0
LINE
  5
4FF
100
AcDbEntity
  8
ALL_DETAIL_ITEM
100
AcDbLine
 62
7
  6
CONTINUOUS
 10
291.5215148702
 20
413.3276074505
 11
291.7577452782
 21
413.3825864935
  0
LINE
  5
500
100
AcDbEntity
  8
ALL_DETAIL_ITEM
100
AcDbLine
 62
7
  6
CONTINUOUS
 10
282.4097068587
 20
405.671005341
 11
282.8153798307
 21
405.664834598
  0
LINE
  5
501
100
AcDbEntity
  8
ALL_DETAIL_ITEM
100
AcDbLine
 62
7
  6
CONTINUOUS
 10
282.8153798307
 20
405.664834598
 11
285.5192794267
 21
405.6446857525
  0
LINE
  5
502
100
AcDbEntity
  8
ALL_DETAIL_ITEM
100
AcDbLine
 62
7
  6
CONTINUOUS
 10
285.5192794267
 20
405.6446857525
 11
287.8498740962
 21
405.670372989
  0
LINE
  5
503
100
AcDbEntity
  8
ALL_DETAIL_ITEM
100
AcDbLine
 62
7
  6
CONTINUOUS
 10
287.8498740962
 20
405.670372989
 11
289.6538538237
 21
405.7607204095
  0
LINE
  5
504
100
AcDbEntity
  8
ALL_DETAIL_ITEM
100
AcDbLine
 62
7
  6
CONTINUOUS
 10
289.6538538237
 20
405.7607204095
 11
290.8437252027
 21
405.938490356
  0
LINE
  5
505
100
AcDbEntity
  8
ALL_DETAIL_ITEM
100
AcDbLine
 62
7
  6
CONTINUOUS
 10
290.9191624827
 20
406.5528734925
 11
290.1045460437
 21
407.014415791
  0
LINE
  5
506
100
AcDbEntity
  8
ALL_DETAIL_ITEM
100
AcDbLine
 62
7
  6
CONTINUOUS
 10
270.6289561197
 20
419.755037438
 11
271.4133711842
 21
419.31064501
  0
LINE
  5
507
100
AcDbEntity
  8
ALL_DETAIL_ITEM
100
AcDbLine
 62
7
  6
CONTINUOUS
 10
291.8331825582
 20
413.99696963
 11
291.0185661192
 21
414.4585119285
  0
LINE
  5
508
100
AcDbEntity
  8
ALL_DETAIL_ITEM
100
AcDbLine
 62
7
  6
CONTINUOUS
 10
271.5429761952
 20
427.1991335755
 11
272.3273912597
 21
426.7547411475
  0
LINE
  5
509
100
AcDbEntity
  8
ALL_DETAIL_ITEM
100
AcDbLine
 62
7
  6
CONTINUOUS
 10
290.1045460437
 20
407.014415791
 11
288.9189604847
 21
407.690650258
  0
LINE
  5
50A
100
AcDbEntity
  8
ALL_DETAIL_ITEM
100
AcDbLine
 62
7
  6
CONTINUOUS
 10
271.4133711842
 20
419.31064501
 11
272.6291537272
 21
418.617229123
  0
LINE
  5
50B
100
AcDbEntity
  8
ALL_DETAIL_ITEM
100
AcDbLine
 62
7
  6
CONTINUOUS
 10
291.0185661192
 20
414.4585119285
 11
289.8329805602
 21
415.1347463955
  0
LINE
  5
50C
100
AcDbEntity
  8
ALL_DETAIL_ITEM
100
AcDbLine
 62
7
  6
CONTINUOUS
 10
272.3273912597
 20
426.7547411475
 11
273.5431738027
 21
426.0613252605
  0
LINE
  5
50D
100
AcDbEntity
  8
ALL_DETAIL_ITEM
100
AcDbLine
 62
7
  6
CONTINUOUS
 10
271.5429761952
 20
427.1991335755
 11
271.3261000877
 21
427.3456789215
  0
LINE
  5
50E
100
AcDbEntity
  8
ALL_DETAIL_ITEM
100
AcDbLine
 62
7
  6
CONTINUOUS
 10
271.3261000877
 20
427.3456789215
 11
271.2774453202
 21
427.663501255
  0
LINE
  5
50F
100
AcDbEntity
  8
ALL_DETAIL_ITEM
100
AcDbLine
 62
7
  6
CONTINUOUS
 10
271.2774453202
 20
427.663501255
 11
271.6184124582
 21
427.813516837
  0
LINE
  5
510
100
AcDbEntity
  8
ALL_DETAIL_ITEM
100
AcDbLine
 62
7
  6
CONTINUOUS
 10
270.6289561197
 20
419.755037438
 11
270.3344087342
 21
419.9830846055
  0
LINE
  5
511
100
AcDbEntity
  8
ALL_DETAIL_ITEM
100
AcDbLine
 62
7
  6
CONTINUOUS
 10
270.3344087342
 20
419.9830846055
 11
270.4585064287
 21
420.2796956035
  0
LINE
  5
512
100
AcDbEntity
  8
ALL_DETAIL_ITEM
100
AcDbLine
 62
7
  6
CONTINUOUS
 10
270.4585064287
 20
420.2796956035
 11
270.7043923822
 21
420.3694206995
  0
LINE
  5
513
100
AcDbEntity
  8
ALL_DETAIL_ITEM
100
AcDbLine
 62
7
  6
CONTINUOUS
 10
277.1002916252
 20
356.29574807
 11
277.1211806502
 21
356.154103885
  0
LINE
  5
514
100
AcDbEntity
  8
ALL_DETAIL_ITEM
100
AcDbLine
 62
7
  6
CONTINUOUS
 10
277.1211806502
 20
356.154103885
 11
277.2963668382
 21
355.9315717695
  0
LINE
  5
515
100
AcDbEntity
  8
ALL_DETAIL_ITEM
100
AcDbLine
 62
7
  6
CONTINUOUS
 10
277.2963668382
 20
355.9315717695
 11
277.5164549747
 21
355.8220148095
  0
LINE
  5
516
100
AcDbEntity
  8
ALL_DETAIL_ITEM
100
AcDbLine
 62
7
  6
CONTINUOUS
 10
277.5164549747
 20
355.8220148095
 11
277.7560314292
 21
355.7708655325
  0
LINE
  5
517
100
AcDbEntity
  8
ALL_DETAIL_ITEM
100
AcDbLine
 62
7
  6
CONTINUOUS
 10
277.7560314292
 20
355.7708655325
 11
278.0666116182
 21
355.7431716595
  0
LINE
  5
518
100
AcDbEntity
  8
ALL_DETAIL_ITEM
100
AcDbLine
 62
7
  6
CONTINUOUS
 10
277.0830243917
 20
356.4245609935
 11
277.1183835262
 21
356.160783158
  0
LINE
  5
519
100
AcDbEntity
  8
ALL_DETAIL_ITEM
100
AcDbLine
 62
7
  6
CONTINUOUS
 10
277.1183835262
 20
356.160783158
 11
277.2892030097
 21
355.9370834045
  0
LINE
  5
51A
100
AcDbEntity
  8
ALL_DETAIL_ITEM
100
AcDbLine
 62
7
  6
CONTINUOUS
 10
277.2892030097
 20
355.9370834045
 11
277.5077079362
 21
355.824811744
  0
LINE
  5
51B
100
AcDbEntity
  8
ALL_DETAIL_ITEM
100
AcDbLine
 62
7
  6
CONTINUOUS
 10
277.5077079362
 20
355.824811744
 11
277.7438659122
 21
355.772616418
  0
LINE
  5
51C
100
AcDbEntity
  8
ALL_DETAIL_ITEM
100
AcDbLine
 62
7
  6
CONTINUOUS
 10
254.1526318802
 20
370.7068975185
 11
254.7010439257
 21
375.173355201
  0
LINE
  5
51D
100
AcDbEntity
  8
ALL_DETAIL_ITEM
100
AcDbLine
 62
7
  6
CONTINUOUS
 10
290.7694432057
 20
516.4455245145
 11
265.5718252262
 21
462.409058377
  0
LINE
  5
51E
100
AcDbEntity
  8
ALL_DETAIL_ITEM
100
AcDbLine
 62
7
  6
CONTINUOUS
 10
270.6672613832
 20
398.7959509595
 11
270.0251839752
 21
398.613749361
  0
LINE
  5
51F
100
AcDbEntity
  8
ALL_DETAIL_ITEM
100
AcDbLine
 62
7
  6
CONTINUOUS
 10
270.0251839752
 20
398.613749361
 11
268.8644081927
 21
398.287891254
  0
LINE
  5
520
100
AcDbEntity
  8
ALL_DETAIL_ITEM
100
AcDbLine
 62
7
  6
CONTINUOUS
 10
268.8644081927
 20
398.287891254
 11
267.9623321557
 21
398.0371322875
  0
LINE
  5
521
100
AcDbEntity
  8
ALL_DETAIL_ITEM
100
AcDbLine
 62
7
  6
CONTINUOUS
 10
288.1387966002
 20
405.179671858
 11
288.8145514617
 21
405.3713876165
  0
LINE
  5
522
100
AcDbEntity
  8
ALL_DETAIL_ITEM
100
AcDbLine
 62
7
  6
CONTINUOUS
 10
288.8145514617
 20
405.3713876165
 11
289.9751023592
 21
405.697065462
  0
LINE
  5
523
100
AcDbEntity
  8
ALL_DETAIL_ITEM
100
AcDbLine
 62
7
  6
CONTINUOUS
 10
289.9751023592
 20
405.697065462
 11
290.8437252027
 21
405.938490356
  0
LINE
  5
524
100
AcDbEntity
  8
ALL_DETAIL_ITEM
100
AcDbLine
 62
7
  6
CONTINUOUS
 10
271.5812814587
 20
406.2400470965
 11
270.9392040507
 21
406.0578454985
  0
LINE
  5
525
100
AcDbEntity
  8
ALL_DETAIL_ITEM
100
AcDbLine
 62
7
  6
CONTINUOUS
 10
270.9392040507
 20
406.0578454985
 11
269.7784282682
 21
405.7319873915
  0
LINE
  5
526
100
AcDbEntity
  8
ALL_DETAIL_ITEM
100
AcDbLine
 62
7
  6
CONTINUOUS
 10
269.7784282682
 20
405.7319873915
 11
268.8763522312
 21
405.481228425
  0
LINE
  5
527
100
AcDbEntity
  8
ALL_DETAIL_ITEM
100
AcDbLine
 62
7
  6
CONTINUOUS
 10
289.0528166757
 20
412.6237679955
 11
289.7285715377
 21
412.815483754
  0
LINE
  5
528
100
AcDbEntity
  8
ALL_DETAIL_ITEM
100
AcDbLine
 62
7
  6
CONTINUOUS
 10
289.7285715377
 20
412.815483754
 11
290.8891224347
 21
413.141161599
  0
LINE
  5
529
100
AcDbEntity
  8
ALL_DETAIL_ITEM
100
AcDbLine
 62
7
  6
CONTINUOUS
 10
290.8891224347
 20
413.141161599
 11
291.7577452782
 21
413.3825864935
  0
LINE
  5
52A
100
AcDbEntity
  8
ALL_DETAIL_ITEM
100
AcDbLine
 62
7
  6
CONTINUOUS
 10
269.7903723067
 20
412.925324562
 11
270.7042827502
 21
413.077007642
  0
LINE
  5
52B
100
AcDbEntity
  8
ALL_DETAIL_ITEM
100
AcDbLine
 62
7
  6
CONTINUOUS
 10
270.7042827502
 20
413.077007642
 11
272.3922141957
 21
413.181604
  0
LINE
  5
52C
100
AcDbEntity
  8
ALL_DETAIL_ITEM
100
AcDbLine
 62
7
  6
CONTINUOUS
 10
272.3922141957
 20
413.181604
 11
274.6324867717
 21
413.2183813945
  0
LINE
  5
52D
100
AcDbEntity
  8
ALL_DETAIL_ITEM
100
AcDbLine
 62
7
  6
CONTINUOUS
 10
274.6324867717
 20
413.2183813945
 11
277.2778297347
 21
413.2054224
  0
LINE
  5
52E
100
AcDbEntity
  8
ALL_DETAIL_ITEM
100
AcDbLine
 62
7
  6
CONTINUOUS
 10
277.2778297347
 20
413.2054224
 11
278.7983426272
 21
413.1835946775
  0
LINE
  5
52F
100
AcDbEntity
  8
ALL_DETAIL_ITEM
100
AcDbLine
 62
7
  6
CONTINUOUS
 10
283.2116593372
 20
412.202384146
 11
285.0707474692
 21
412.2485724175
  0
LINE
  5
530
100
AcDbEntity
  8
ALL_DETAIL_ITEM
100
AcDbLine
 62
7
  6
CONTINUOUS
 10
285.0707474692
 20
412.2485724175
 11
286.9075082272
 21
412.337893375
  0
LINE
  5
531
100
AcDbEntity
  8
ALL_DETAIL_ITEM
100
AcDbLine
 62
7
  6
CONTINUOUS
 10
286.9075082272
 20
412.337893375
 11
288.3257654857
 21
412.4786001005
  0
LINE
  5
532
100
AcDbEntity
  8
ALL_DETAIL_ITEM
100
AcDbLine
 62
7
  6
CONTINUOUS
 10
288.3257654857
 20
412.4786001005
 11
289.0528166757
 21
412.6237679955
  0
LINE
  5
533
100
AcDbEntity
  8
ALL_DETAIL_ITEM
100
AcDbLine
 62
7
  6
CONTINUOUS
 10
284.1256794132
 20
419.6464802835
 11
285.9847675447
 21
419.692668555
  0
LINE
  5
534
100
AcDbEntity
  8
ALL_DETAIL_ITEM
100
AcDbLine
 62
7
  6
CONTINUOUS
 10
285.9847675447
 20
419.692668555
 11
287.8215283027
 21
419.781989512
  0
LINE
  5
535
100
AcDbEntity
  8
ALL_DETAIL_ITEM
100
AcDbLine
 62
7
  6
CONTINUOUS
 10
287.8215283027
 20
419.781989512
 11
289.2397855612
 21
419.922696238
  0
LINE
  5
536
100
AcDbEntity
  8
ALL_DETAIL_ITEM
100
AcDbLine
 62
7
  6
CONTINUOUS
 10
289.2397855612
 20
419.922696238
 11
289.9668367512
 21
420.0678641325
  0
LINE
  5
537
100
AcDbEntity
  8
ALL_DETAIL_ITEM
100
AcDbLine
 62
7
  6
CONTINUOUS
 10
279.8269000512
 20
421.5605226595
 11
279.3645639807
 21
421.553471463
  0
LINE
  5
538
100
AcDbEntity
  8
ALL_DETAIL_ITEM
100
AcDbLine
 62
7
  6
CONTINUOUS
 10
279.3645639807
 20
421.553471463
 11
277.2618937697
 21
421.498922739
  0
LINE
  5
539
100
AcDbEntity
  8
ALL_DETAIL_ITEM
100
AcDbLine
 62
7
  6
CONTINUOUS
 10
277.2618937697
 20
421.498922739
 11
275.4734632722
 21
421.408453035
  0
LINE
  5
53A
100
AcDbEntity
  8
ALL_DETAIL_ITEM
100
AcDbLine
 62
7
  6
CONTINUOUS
 10
275.4734632722
 20
421.408453035
 11
274.0984139362
 21
421.2678228025
  0
LINE
  5
53B
100
AcDbEntity
  8
ALL_DETAIL_ITEM
100
AcDbLine
 62
7
  6
CONTINUOUS
 10
274.0984139362
 20
421.2678228025
 11
273.4093216097
 21
421.1282393715
  0
LINE
  5
53C
100
AcDbEntity
  8
ALL_DETAIL_ITEM
100
AcDbLine
 62
7
  6
CONTINUOUS
 10
278.9129491012
 20
414.116989507
 11
278.6636825577
 21
414.113290636
  0
LINE
  5
53D
100
AcDbEntity
  8
ALL_DETAIL_ITEM
100
AcDbLine
 62
7
  6
CONTINUOUS
 10
278.6636825577
 20
414.113290636
 11
276.5707321277
 21
414.0624706275
  0
LINE
  5
53E
100
AcDbEntity
  8
ALL_DETAIL_ITEM
100
AcDbLine
 62
7
  6
CONTINUOUS
 10
276.5707321277
 20
414.0624706275
 11
274.7212202372
 21
413.9754460445
  0
LINE
  5
53F
100
AcDbEntity
  8
ALL_DETAIL_ITEM
100
AcDbLine
 62
7
  6
CONTINUOUS
 10
274.7212202372
 20
413.9754460445
 11
273.2458259712
 21
413.832691862
  0
LINE
  5
540
100
AcDbEntity
  8
ALL_DETAIL_ITEM
100
AcDbLine
 62
7
  6
CONTINUOUS
 10
273.2458259712
 20
413.832691862
 11
272.4953015342
 21
413.684143234
  0
LINE
  5
541
100
AcDbEntity
  8
ALL_DETAIL_ITEM
100
AcDbLine
 62
7
  6
CONTINUOUS
 10
284.2379300832
 20
420.5606886285
 11
286.1354117487
 21
420.537751623
  0
LINE
  5
542
100
AcDbEntity
  8
ALL_DETAIL_ITEM
100
AcDbLine
 62
7
  6
CONTINUOUS
 10
286.1354117487
 20
420.537751623
 11
288.6591238477
 21
420.53972702
  0
LINE
  5
543
100
AcDbEntity
  8
ALL_DETAIL_ITEM
100
AcDbLine
 62
7
  6
CONTINUOUS
 10
288.6591238477
 20
420.53972702
 11
290.7231770227
 21
420.598141437
  0
LINE
  5
544
100
AcDbEntity
  8
ALL_DETAIL_ITEM
100
AcDbLine
 62
7
  6
CONTINUOUS
 10
290.7231770227
 20
420.598141437
 11
292.1920832127
 21
420.7296307145
  0
LINE
  5
545
100
AcDbEntity
  8
ALL_DETAIL_ITEM
100
AcDbLine
 62
7
  6
CONTINUOUS
 10
292.1920832127
 20
420.7296307145
 11
292.6717653537
 21
420.8266826305
  0
LINE
  5
546
100
AcDbEntity
  8
ALL_DETAIL_ITEM
100
AcDbLine
 62
7
  6
CONTINUOUS
 10
292.7472026337
 20
421.441065767
 11
291.9325861947
 21
421.9026080655
  0
LINE
  5
547
100
AcDbEntity
  8
ALL_DETAIL_ITEM
100
AcDbLine
 62
7
  6
CONTINUOUS
 10
272.4569962707
 20
434.6432297125
 11
273.2414113352
 21
434.1988372845
  0
LINE
  5
548
100
AcDbEntity
  8
ALL_DETAIL_ITEM
100
AcDbLine
 62
7
  6
CONTINUOUS
 10
293.6612227092
 20
428.8851619045
 11
292.8466062702
 21
429.346704203
  0
LINE
  5
549
100
AcDbEntity
  8
ALL_DETAIL_ITEM
100
AcDbLine
 62
7
  6
CONTINUOUS
 10
273.3710163462
 20
442.08732585
 11
274.1554314107
 21
441.642933422
  0
LINE
  5
54A
100
AcDbEntity
  8
ALL_DETAIL_ITEM
100
AcDbLine
 62
7
  6
CONTINUOUS
 10
291.9325861947
 20
421.9026080655
 11
290.7470006357
 21
422.5788425325
  0
LINE
  5
54B
100
AcDbEntity
  8
ALL_DETAIL_ITEM
100
AcDbLine
 62
7
  6
CONTINUOUS
 10
273.2414113352
 20
434.1988372845
 11
274.4571938782
 21
433.5054213975
  0
LINE
  5
54C
100
AcDbEntity
  8
ALL_DETAIL_ITEM
100
AcDbLine
 62
7
  6
CONTINUOUS
 10
292.8466062702
 20
429.346704203
 11
291.6610207112
 21
430.02293867
  0
LINE
  5
54D
100
AcDbEntity
  8
ALL_DETAIL_ITEM
100
AcDbLine
 62
7
  6
CONTINUOUS
 10
274.1554314107
 20
441.642933422
 11
275.3712139542
 21
440.949517535
  0
LINE
  5
54E
100
AcDbEntity
  8
ALL_DETAIL_ITEM
100
AcDbLine
 62
7
  6
CONTINUOUS
 10
272.4569962707
 20
434.6432297125
 11
272.3572555052
 21
434.7034276595
  0
LINE
  5
54F
100
AcDbEntity
  8
ALL_DETAIL_ITEM
100
AcDbLine
 62
7
  6
CONTINUOUS
 10
272.3572555052
 20
434.7034276595
 11
272.1361574802
 21
435.042423363
  0
LINE
  5
550
100
AcDbEntity
  8
ALL_DETAIL_ITEM
100
AcDbLine
 62
7
  6
CONTINUOUS
 10
272.1361574802
 20
435.042423363
 11
272.5324325337
 21
435.257612974
  0
LINE
  5
551
100
AcDbEntity
  8
ALL_DETAIL_ITEM
100
AcDbLine
 62
7
  6
CONTINUOUS
 10
273.3710163462
 20
442.08732585
 11
273.0348097362
 21
442.4164414435
  0
LINE
  5
552
100
AcDbEntity
  8
ALL_DETAIL_ITEM
100
AcDbLine
 62
7
  6
CONTINUOUS
 10
273.0348097362
 20
442.4164414435
 11
273.4464526092
 21
442.7017091115
  0
LINE
  5
553
100
AcDbEntity
  8
ALL_DETAIL_ITEM
100
AcDbLine
 62
7
  6
CONTINUOUS
 10
267.1078708212
 20
373.649988408
 11
267.1688054927
 21
374.146261484
  0
LINE
  5
554
100
AcDbEntity
  8
ALL_DETAIL_ITEM
100
AcDbLine
 62
7
  6
CONTINUOUS
 10
267.4363124912
 20
376.32493115
 11
268.0828255682
 21
381.5903576215
  0
LINE
  5
555
100
AcDbEntity
  8
ALL_DETAIL_ITEM
100
AcDbLine
 62
7
  6
CONTINUOUS
 10
268.3503325667
 20
383.769027287
 11
268.9968456437
 21
389.0344537585
  0
LINE
  5
556
100
AcDbEntity
  8
ALL_DETAIL_ITEM
100
AcDbLine
 62
7
  6
CONTINUOUS
 10
269.2643526422
 20
391.2131234245
 11
269.9108657197
 21
396.478549896
  0
LINE
  5
557
100
AcDbEntity
  8
ALL_DETAIL_ITEM
100
AcDbLine
 62
7
  6
CONTINUOUS
 10
270.1783727177
 20
398.657219562
 11
270.8248857952
 21
403.9226460335
  0
LINE
  5
558
100
AcDbEntity
  8
ALL_DETAIL_ITEM
100
AcDbLine
 62
7
  6
CONTINUOUS
 10
271.0923927932
 20
406.101315699
 11
271.7389058707
 21
411.3667421705
  0
LINE
  5
559
100
AcDbEntity
  8
ALL_DETAIL_ITEM
100
AcDbLine
 62
7
  6
CONTINUOUS
 10
272.0064128687
 20
413.5454118365
 11
272.6529259462
 21
418.810838308
  0
LINE
  5
55A
100
AcDbEntity
  8
ALL_DETAIL_ITEM
100
AcDbLine
 62
7
  6
CONTINUOUS
 10
272.9204329442
 20
420.9895079735
 11
273.5669460217
 21
426.254934445
  0
LINE
  5
55B
100
AcDbEntity
  8
ALL_DETAIL_ITEM
100
AcDbLine
 62
7
  6
CONTINUOUS
 10
273.8344530197
 20
428.433604111
 11
274.4809660972
 21
433.6990305825
  0
LINE
  5
55C
100
AcDbEntity
  8
ALL_DETAIL_ITEM
100
AcDbLine
 62
7
  6
CONTINUOUS
 10
274.7484730952
 20
435.8777002485
 11
275.3949861727
 21
441.14312672
  0
LINE
  5
55D
100
AcDbEntity
  8
ALL_DETAIL_ITEM
100
AcDbLine
 62
7
  6
CONTINUOUS
 10
275.6624931712
 20
443.3217963855
 11
275.7843826057
 21
444.314506166
  0
LINE
  5
55E
100
AcDbEntity
  8
ALL_DETAIL_ITEM
100
AcDbLine
 62
7
  6
CONTINUOUS
 10
270.6314079792
 20
357.216595909
 11
270.7295696587
 21
358.0160586345
  0
LINE
  5
55F
100
AcDbEntity
  8
ALL_DETAIL_ITEM
100
AcDbLine
 62
7
  6
CONTINUOUS
 10
282.6062791982
 20
450.6413410245
 11
285.5783674202
 21
474.847057118
  0
LINE
  5
560
100
AcDbEntity
  8
ALL_DETAIL_ITEM
100
AcDbLine
 62
7
  6
CONTINUOUS
 10
290.3559876872
 20
507.3130599365
 11
273.9036263272
 21
373.319329465
  0
LINE
  5
561
100
AcDbEntity
  8
ALL_DETAIL_ITEM
100
AcDbLine
 62
7
  6
CONTINUOUS
 10
275.3759416122
 20
369.18981705
 11
275.2442376027
 21
368.117173971
  0
LINE
  5
562
100
AcDbEntity
  8
ALL_DETAIL_ITEM
100
AcDbLine
 62
7
  6
CONTINUOUS
 10
288.0652830322
 20
449.971059636
 11
291.0373712542
 21
474.1767757295
  0
LINE
  5
563
100
AcDbEntity
  8
ALL_DETAIL_ITEM
100
AcDbLine
 62
7
  6
CONTINUOUS
 10
277.1810973327
 20
357.2237261885
 11
277.0829579647
 21
356.4244451765
  0
LINE
  5
564
100
AcDbEntity
  8
ALL_DETAIL_ITEM
100
AcDbLine
 62
7
  6
CONTINUOUS
 10
294.0602142047
 20
542.9118275395
 11
285.5974017482
 21
474.8489453195
  0
LINE
  5
565
100
AcDbEntity
  8
ALL_DETAIL_ITEM
100
AcDbLine
 62
7
  6
CONTINUOUS
 10
299.5941221042
 20
542.8439162195
 11
291.0553735127
 21
474.17031124
  0
LINE
  5
566
100
AcDbEntity
  8
ALL_DETAIL_ITEM
100
AcDbLine
 62
7
  6
CONTINUOUS
 10
288.0462487042
 20
449.9691714345
 11
286.9508643127
 21
441.159450171
  0
LINE
  5
567
100
AcDbEntity
  8
ALL_DETAIL_ITEM
100
AcDbLine
 62
7
  6
CONTINUOUS
 10
270.6306016912
 20
357.2103619625
 11
270.6314079792
 21
357.216595909
  0
LINE
  5
568
100
AcDbEntity
  8
ALL_DETAIL_ITEM
100
AcDbLine
 62
7
  6
CONTINUOUS
 10
272.4953015342
 20
413.684143234
 11
271.8532241262
 21
413.501941636
  0
LINE
  5
569
100
AcDbEntity
  8
ALL_DETAIL_ITEM
100
AcDbLine
 62
7
  6
CONTINUOUS
 10
271.8532241262
 20
413.501941636
 11
270.6924483437
 21
413.176083529
  0
LINE
  5
56A
100
AcDbEntity
  8
ALL_DETAIL_ITEM
100
AcDbLine
 62
7
  6
CONTINUOUS
 10
270.6924483437
 20
413.176083529
 11
269.7903723067
 21
412.925324562
  0
LINE
  5
56B
100
AcDbEntity
  8
ALL_DETAIL_ITEM
100
AcDbLine
 62
7
  6
CONTINUOUS
 10
289.9668367512
 20
420.0678641325
 11
290.6425916132
 21
420.259579891
  0
LINE
  5
56C
100
AcDbEntity
  8
ALL_DETAIL_ITEM
100
AcDbLine
 62
7
  6
CONTINUOUS
 10
290.6425916132
 20
420.259579891
 11
291.8031425102
 21
420.5852577365
  0
LINE
  5
56D
100
AcDbEntity
  8
ALL_DETAIL_ITEM
100
AcDbLine
 62
7
  6
CONTINUOUS
 10
291.8031425102
 20
420.5852577365
 11
292.6717653537
 21
420.8266826305
  0
LINE
  5
56E
100
AcDbEntity
  8
ALL_DETAIL_ITEM
100
AcDbLine
 62
7
  6
CONTINUOUS
 10
273.4093216097
 20
421.1282393715
 11
272.7672442017
 21
420.946037773
  0
LINE
  5
56F
100
AcDbEntity
  8
ALL_DETAIL_ITEM
100
AcDbLine
 62
7
  6
CONTINUOUS
 10
272.7672442017
 20
420.946037773
 11
271.6064684192
 21
420.620179666
  0
LINE
  5
570
100
AcDbEntity
  8
ALL_DETAIL_ITEM
100
AcDbLine
 62
7
  6
CONTINUOUS
 10
271.6064684192
 20
420.620179666
 11
270.7043923822
 21
420.3694206995
  0
LINE
  5
571
100
AcDbEntity
  8
ALL_DETAIL_ITEM
100
AcDbLine
 62
7
  6
CONTINUOUS
 10
290.8808568267
 20
427.51196027
 11
291.5566116887
 21
427.7036760285
  0
LINE
  5
572
100
AcDbEntity
  8
ALL_DETAIL_ITEM
100
AcDbLine
 62
7
  6
CONTINUOUS
 10
291.5566116887
 20
427.7036760285
 11
292.7171625862
 21
428.0293538735
  0
LINE
  5
573
100
AcDbEntity
  8
ALL_DETAIL_ITEM
100
AcDbLine
 62
7
  6
CONTINUOUS
 10
292.7171625862
 20
428.0293538735
 11
293.5857854292
 21
428.270778768
  0
LINE
  5
574
100
AcDbEntity
  8
ALL_DETAIL_ITEM
100
AcDbLine
 62
7
  6
CONTINUOUS
 10
271.6184124582
 20
427.813516837
 11
271.9716903342
 21
427.890106965
  0
LINE
  5
575
100
AcDbEntity
  8
ALL_DETAIL_ITEM
100
AcDbLine
 62
7
  6
CONTINUOUS
 10
271.9716903342
 20
427.890106965
 11
273.3649375287
 21
428.0308859995
  0
LINE
  5
576
100
AcDbEntity
  8
ALL_DETAIL_ITEM
100
AcDbLine
 62
7
  6
CONTINUOUS
 10
273.3649375287
 20
428.0308859995
 11
275.3665514207
 21
428.096966996
  0
LINE
  5
577
100
AcDbEntity
  8
ALL_DETAIL_ITEM
100
AcDbLine
 62
7
  6
CONTINUOUS
 10
275.3665514207
 20
428.096966996
 11
277.8452188717
 21
428.1044731805
  0
LINE
  5
578
100
AcDbEntity
  8
ALL_DETAIL_ITEM
100
AcDbLine
 62
7
  6
CONTINUOUS
 10
277.8452188717
 20
428.1044731805
 11
280.6266014577
 21
428.073567954
  0
LINE
  5
579
100
AcDbEntity
  8
ALL_DETAIL_ITEM
100
AcDbLine
 62
7
  6
CONTINUOUS
 10
270.7043923822
 20
420.3694206995
 11
271.3197284692
 21
420.485799113
  0
LINE
  5
57A
100
AcDbEntity
  8
ALL_DETAIL_ITEM
100
AcDbLine
 62
7
  6
CONTINUOUS
 10
271.3197284692
 20
420.485799113
 11
272.8630125507
 21
420.608155934
  0
LINE
  5
57B
100
AcDbEntity
  8
ALL_DETAIL_ITEM
100
AcDbLine
 62
7
  6
CONTINUOUS
 10
272.8630125507
 20
420.608155934
 11
274.9876911672
 21
420.659126482
  0
LINE
  5
57C
100
AcDbEntity
  8
ALL_DETAIL_ITEM
100
AcDbLine
 62
7
  6
CONTINUOUS
 10
274.9876911672
 20
420.659126482
 11
277.5542226157
 21
420.6558443245
  0
LINE
  5
57D
100
AcDbEntity
  8
ALL_DETAIL_ITEM
100
AcDbLine
 62
7
  6
CONTINUOUS
 10
277.5542226157
 20
420.6558443245
 11
279.7123874552
 21
420.6278924095
  0
LINE
  5
57E
100
AcDbEntity
  8
ALL_DETAIL_ITEM
100
AcDbLine
 62
7
  6
CONTINUOUS
 10
285.0396994887
 20
427.0905764205
 11
286.8987876202
 21
427.136764692
  0
LINE
  5
57F
100
AcDbEntity
  8
ALL_DETAIL_ITEM
100
AcDbLine
 62
7
  6
CONTINUOUS
 10
286.8987876202
 20
427.136764692
 11
288.7355483782
 21
427.2260856495
  0
LINE
  5
580
100
AcDbEntity
  8
ALL_DETAIL_ITEM
100
AcDbLine
 62
7
  6
CONTINUOUS
 10
288.7355483782
 20
427.2260856495
 11
290.1538056372
 21
427.366792375
  0
LINE
  5
581
100
AcDbEntity
  8
ALL_DETAIL_ITEM
100
AcDbLine
 62
7
  6
CONTINUOUS
 10
290.1538056372
 20
427.366792375
 11
290.8808568267
 21
427.51196027
  0
LINE
  5
582
100
AcDbEntity
  8
ALL_DETAIL_ITEM
100
AcDbLine
 62
7
  6
CONTINUOUS
 10
285.9537195642
 20
434.534672558
 11
287.8128076962
 21
434.5808608295
  0
LINE
  5
583
100
AcDbEntity
  8
ALL_DETAIL_ITEM
100
AcDbLine
 62
7
  6
CONTINUOUS
 10
287.8128076962
 20
434.5808608295
 11
289.6495684537
 21
434.6701817865
  0
LINE
  5
584
100
AcDbEntity
  8
ALL_DETAIL_ITEM
100
AcDbLine
 62
7
  6
CONTINUOUS
 10
289.6495684537
 20
434.6701817865
 11
291.0678257127
 21
434.8108885125
  0
LINE
  5
585
100
AcDbEntity
  8
ALL_DETAIL_ITEM
100
AcDbLine
 62
7
  6
CONTINUOUS
 10
291.0678257127
 20
434.8108885125
 11
291.7948769022
 21
434.9560564075
  0
LINE
  5
586
100
AcDbEntity
  8
ALL_DETAIL_ITEM
100
AcDbLine
 62
7
  6
CONTINUOUS
 10
286.1974783817
 20
436.5199288135
 11
287.9894180682
 21
436.563691328
  0
LINE
  5
587
100
AcDbEntity
  8
ALL_DETAIL_ITEM
100
AcDbLine
 62
7
  6
CONTINUOUS
 10
287.9894180682
 20
436.563691328
 11
289.8416172997
 21
436.65177173
  0
LINE
  5
588
100
AcDbEntity
  8
ALL_DETAIL_ITEM
100
AcDbLine
 62
7
  6
CONTINUOUS
 10
289.8416172997
 20
436.65177173
 11
291.3056772002
 21
436.795127791
  0
LINE
  5
589
100
AcDbEntity
  8
ALL_DETAIL_ITEM
100
AcDbLine
 62
7
  6
CONTINUOUS
 10
291.3056772002
 20
436.795127791
 11
292.2243126872
 21
437.002317923
  0
LINE
  5
58A
100
AcDbEntity
  8
ALL_DETAIL_ITEM
100
AcDbLine
 62
7
  6
CONTINUOUS
 10
292.2243126872
 20
437.002317923
 11
292.5512724757
 21
437.273457445
  0
LINE
  5
58B
100
AcDbEntity
  8
ALL_DETAIL_ITEM
100
AcDbLine
 62
7
  6
CONTINUOUS
 10
280.7409718922
 20
429.005040392
 11
280.4417395337
 21
429.0005827875
  0
LINE
  5
58C
100
AcDbEntity
  8
ALL_DETAIL_ITEM
100
AcDbLine
 62
7
  6
CONTINUOUS
 10
280.4417395337
 20
429.0005827875
 11
278.2985411802
 21
428.947296678
  0
LINE
  5
58D
100
AcDbEntity
  8
ALL_DETAIL_ITEM
100
AcDbLine
 62
7
  6
CONTINUOUS
 10
278.2985411802
 20
428.947296678
 11
276.4938042537
 21
428.859924247
  0
LINE
  5
58E
100
AcDbEntity
  8
ALL_DETAIL_ITEM
100
AcDbLine
 62
7
  6
CONTINUOUS
 10
276.4938042537
 20
428.859924247
 11
275.0722644302
 21
428.7206551725
  0
LINE
  5
58F
100
AcDbEntity
  8
ALL_DETAIL_ITEM
100
AcDbLine
 62
7
  6
CONTINUOUS
 10
275.0722644302
 20
428.7206551725
 11
274.3233416857
 21
428.5723355085
  0
LINE
  5
590
100
AcDbEntity
  8
ALL_DETAIL_ITEM
100
AcDbLine
 62
7
  6
CONTINUOUS
 10
285.1519367547
 20
428.004675598
 11
286.4188279752
 21
427.9873111895
  0
LINE
  5
591
100
AcDbEntity
  8
ALL_DETAIL_ITEM
100
AcDbLine
 62
7
  6
CONTINUOUS
 10
286.4188279752
 20
427.9873111895
 11
289.0259151462
 21
427.979049415
  0
LINE
  5
592
100
AcDbEntity
  8
ALL_DETAIL_ITEM
100
AcDbLine
 62
7
  6
CONTINUOUS
 10
289.0259151462
 20
427.979049415
 11
291.2093510947
 21
428.02280547
  0
LINE
  5
593
100
AcDbEntity
  8
ALL_DETAIL_ITEM
100
AcDbLine
 62
7
  6
CONTINUOUS
 10
291.2093510947
 20
428.02280547
 11
292.8256653857
 21
428.136195309
  0
LINE
  5
594
100
AcDbEntity
  8
ALL_DETAIL_ITEM
100
AcDbLine
 62
7
  6
CONTINUOUS
 10
292.8256653857
 20
428.136195309
 11
293.5857854292
 21
428.270778768
  0
LINE
  5
595
100
AcDbEntity
  8
ALL_DETAIL_ITEM
100
AcDbLine
 62
7
  6
CONTINUOUS
 10
286.0658386572
 20
435.4478092945
 11
286.6887604817
 21
435.4385263485
  0
LINE
  5
596
100
AcDbEntity
  8
ALL_DETAIL_ITEM
100
AcDbLine
 62
7
  6
CONTINUOUS
 10
286.6887604817
 20
435.4385263485
 11
289.3700250622
 21
435.4211567335
  0
LINE
  5
597
100
AcDbEntity
  8
ALL_DETAIL_ITEM
100
AcDbLine
 62
7
  6
CONTINUOUS
 10
289.3700250622
 20
435.4211567335
 11
291.6651626842
 21
435.4511975475
  0
LINE
  5
598
100
AcDbEntity
  8
ALL_DETAIL_ITEM
100
AcDbLine
 62
7
  6
CONTINUOUS
 10
291.6651626842
 20
435.4511975475
 11
293.4232341227
 21
435.5471817975
  0
LINE
  5
599
100
AcDbEntity
  8
ALL_DETAIL_ITEM
100
AcDbLine
 62
7
  6
CONTINUOUS
 10
293.4232341227
 20
435.5471817975
 11
294.4998055047
 21
435.7148749055
  0
LINE
  5
59A
100
AcDbEntity
  8
ALL_DETAIL_ITEM
100
AcDbLine
 62
7
  6
CONTINUOUS
 10
294.5752427847
 20
436.329258042
 11
293.7606263457
 21
436.7908003405
  0
LINE
  5
59B
100
AcDbEntity
  8
ALL_DETAIL_ITEM
100
AcDbLine
 62
7
  6
CONTINUOUS
 10
293.7606263457
 20
436.7908003405
 11
292.5750407867
 21
437.4670348075
  0
LINE
  5
59C
100
AcDbEntity
  8
ALL_DETAIL_ITEM
100
AcDbLine
 62
7
  6
CONTINUOUS
 10
294.4099926192
 20
361.331358516
 11
294.0420107197
 21
364.3127381835
  0
LINE
  5
59D
100
AcDbEntity
  8
ALL_DETAIL_ITEM
100
AcDbLine
 62
7
  6
CONTINUOUS
 10
284.4774284747
 20
371.5172748985
 11
284.9716009657
 21
375.5419868585
  0
LINE
  5
59E
100
AcDbEntity
  8
ALL_DETAIL_ITEM
100
AcDbLine
 62
7
  6
CONTINUOUS
 10
285.2391118712
 20
377.7206883465
 11
285.8856210412
 21
382.9860829955
  0
LINE
  5
59F
100
AcDbEntity
  8
ALL_DETAIL_ITEM
100
AcDbLine
 62
7
  6
CONTINUOUS
 10
286.1531319467
 20
385.1647844835
 11
286.7996411167
 21
390.430179133
  0
LINE
  5
5A0
100
AcDbEntity
  8
ALL_DETAIL_ITEM
100
AcDbLine
 62
7
  6
CONTINUOUS
 10
287.0671520222
 20
392.608880621
 11
287.7136611922
 21
397.87427527
  0
LINE
  5
5A1
100
AcDbEntity
  8
ALL_DETAIL_ITEM
100
AcDbLine
 62
7
  6
CONTINUOUS
 10
287.9811720977
 20
400.0529767585
 11
288.6276812677
 21
405.3183714075
  0
LINE
  5
5A2
100
AcDbEntity
  8
ALL_DETAIL_ITEM
100
AcDbLine
 62
7
  6
CONTINUOUS
 10
288.8951921732
 20
407.4970728955
 11
289.5417013432
 21
412.762467545
  0
LINE
  5
5A3
100
AcDbEntity
  8
ALL_DETAIL_ITEM
100
AcDbLine
 62
7
  6
CONTINUOUS
 10
289.8092122487
 20
414.941169033
 11
290.4557214187
 21
420.206563682
  0
LINE
  5
5A4
100
AcDbEntity
  8
ALL_DETAIL_ITEM
100
AcDbLine
 62
7
  6
CONTINUOUS
 10
290.7232323242
 20
422.3852651705
 11
291.3697414942
 21
427.6506598195
  0
LINE
  5
5A5
100
AcDbEntity
  8
ALL_DETAIL_ITEM
100
AcDbLine
 62
7
  6
CONTINUOUS
 10
291.6372523997
 20
429.8293613075
 11
292.2837615697
 21
435.094755957
  0
LINE
  5
5A6
100
AcDbEntity
  8
ALL_DETAIL_ITEM
100
AcDbLine
 62
7
  6
CONTINUOUS
 10
292.5512724757
 20
437.273457445
 11
293.1599066827
 21
442.2303852755
  0
LINE
  5
5A7
100
AcDbEntity
  8
ALL_DETAIL_ITEM
100
AcDbLine
 62
7
  6
CONTINUOUS
 10
255.0061500812
 20
366.16954202
 11
256.6339972592
 21
370.40222416
  0
LINE
  5
5A8
100
AcDbEntity
  8
ALL_DETAIL_ITEM
100
AcDbLine
 62
7
  6
CONTINUOUS
 10
274.3233416857
 20
428.5723355085
 11
273.6812642772
 21
428.3901339105
  0
LINE
  5
5A9
100
AcDbEntity
  8
ALL_DETAIL_ITEM
100
AcDbLine
 62
7
  6
CONTINUOUS
 10
273.6812642772
 20
428.3901339105
 11
272.5204884952
 21
428.0642758035
  0
LINE
  5
5AA
100
AcDbEntity
  8
ALL_DETAIL_ITEM
100
AcDbLine
 62
7
  6
CONTINUOUS
 10
272.5204884952
 20
428.0642758035
 11
271.6184124582
 21
427.813516837
  0
LINE
  5
5AB
100
AcDbEntity
  8
ALL_DETAIL_ITEM
100
AcDbLine
 62
7
  6
CONTINUOUS
 10
291.7948769022
 20
434.9560564075
 11
292.4706317642
 21
435.147772166
  0
LINE
  5
5AC
100
AcDbEntity
  8
ALL_DETAIL_ITEM
100
AcDbLine
 62
7
  6
CONTINUOUS
 10
292.4706317642
 20
435.147772166
 11
293.6311826617
 21
435.473450011
  0
LINE
  5
5AD
100
AcDbEntity
  8
ALL_DETAIL_ITEM
100
AcDbLine
 62
7
  6
CONTINUOUS
 10
293.6311826617
 20
435.473450011
 11
294.4998055047
 21
435.7148749055
  0
LINE
  5
5AE
100
AcDbEntity
  8
ALL_DETAIL_ITEM
100
AcDbLine
 62
7
  6
CONTINUOUS
 10
275.2373617612
 20
436.016431646
 11
274.5952843527
 21
435.8342300475
  0
LINE
  5
5AF
100
AcDbEntity
  8
ALL_DETAIL_ITEM
100
AcDbLine
 62
7
  6
CONTINUOUS
 10
274.5952843527
 20
435.8342300475
 11
273.4345085707
 21
435.508371941
  0
LINE
  5
5B0
100
AcDbEntity
  8
ALL_DETAIL_ITEM
100
AcDbLine
 62
7
  6
CONTINUOUS
 10
273.4345085707
 20
435.508371941
 11
272.5324325337
 21
435.257612974
  0
LINE
  5
5B1
100
AcDbEntity
  8
ALL_DETAIL_ITEM
100
AcDbLine
 62
7
  6
CONTINUOUS
 10
272.5324325337
 20
435.257612974
 11
272.6610752842
 21
435.28981984
  0
LINE
  5
5B2
100
AcDbEntity
  8
ALL_DETAIL_ITEM
100
AcDbLine
 62
7
  6
CONTINUOUS
 10
272.6610752842
 20
435.28981984
 11
273.8994331612
 21
435.449616891
  0
LINE
  5
5B3
100
AcDbEntity
  8
ALL_DETAIL_ITEM
100
AcDbLine
 62
7
  6
CONTINUOUS
 10
273.8994331612
 20
435.449616891
 11
275.7709521032
 21
435.531671539
  0
LINE
  5
5B4
100
AcDbEntity
  8
ALL_DETAIL_ITEM
100
AcDbLine
 62
7
  6
CONTINUOUS
 10
275.7709521032
 20
435.531671539
 11
278.1530176032
 21
435.551038952
  0
LINE
  5
5B5
100
AcDbEntity
  8
ALL_DETAIL_ITEM
100
AcDbLine
 62
7
  6
CONTINUOUS
 10
278.1530176032
 20
435.551038952
 11
280.8888781167
 21
435.5269657995
  0
LINE
  5
5B6
100
AcDbEntity
  8
ALL_DETAIL_ITEM
100
AcDbLine
 62
7
  6
CONTINUOUS
 10
280.8888781167
 20
435.5269657995
 11
281.5405160667
 21
435.516805134
  0
LINE
  5
5B7
100
AcDbEntity
  8
ALL_DETAIL_ITEM
100
AcDbLine
 62
7
  6
CONTINUOUS
 10
275.2373617612
 20
436.016431646
 11
275.9579528542
 21
436.160659502
  0
LINE
  5
5B8
100
AcDbEntity
  8
ALL_DETAIL_ITEM
100
AcDbLine
 62
7
  6
CONTINUOUS
 10
275.9579528542
 20
436.160659502
 11
277.3543543092
 21
436.3003541295
  0
LINE
  5
5B9
100
AcDbEntity
  8
ALL_DETAIL_ITEM
100
AcDbLine
 62
7
  6
CONTINUOUS
 10
277.3543543092
 20
436.3003541295
 11
279.1679761997
 21
436.3898582225
  0
LINE
  5
5BA
100
AcDbEntity
  8
ALL_DETAIL_ITEM
100
AcDbLine
 62
7
  6
CONTINUOUS
 10
279.1679761997
 20
436.3898582225
 11
281.2937176682
 21
436.443546525
  0
LINE
  5
5BB
100
AcDbEntity
  8
ALL_DETAIL_ITEM
100
AcDbLine
 62
7
  6
CONTINUOUS
 10
281.2937176682
 20
436.443546525
 11
281.6549733887
 21
436.4489852165
  0
LINE
  5
5BC
100
AcDbEntity
  8
ALL_DETAIL_ITEM
100
AcDbLine
 62
7
  6
CONTINUOUS
 10
273.4464526092
 20
442.7017091115
 11
274.4678268857
 21
442.8641856205
  0
LINE
  5
5BD
100
AcDbEntity
  8
ALL_DETAIL_ITEM
100
AcDbLine
 62
7
  6
CONTINUOUS
 10
274.4678268857
 20
442.8641856205
 11
276.2026863592
 21
442.9630199415
  0
LINE
  5
5BE
100
AcDbEntity
  8
ALL_DETAIL_ITEM
100
AcDbLine
 62
7
  6
CONTINUOUS
 10
276.2026863592
 20
442.9630199415
 11
278.3129415492
 21
442.9929157375
  0
LINE
  5
5BF
100
AcDbEntity
  8
ALL_DETAIL_ITEM
100
AcDbLine
 62
7
  6
CONTINUOUS
 10
251.9772084207
 20
468.748332303
 11
265.5718252262
 21
462.409058377
  0
LINE
  5
5C0
100
AcDbEntity
  8
ALL_DETAIL_ITEM
100
AcDbLine
 62
7
  6
CONTINUOUS
 10
309.0590848442
 20
542.7277635615
 11
308.0702252982
 21
462.148301075
  0
LINE
  5
5C1
100
AcDbEntity
  8
ALL_DETAIL_ITEM
100
AcDbLine
 62
7
  6
CONTINUOUS
 10
275.3949861727
 20
441.14312672
 11
275.7289970047
 21
441.416962167
  0
LINE
  5
5C2
100
AcDbEntity
  8
ALL_DETAIL_ITEM
100
AcDbLine
 62
7
  6
CONTINUOUS
 10
275.7289970047
 20
441.416962167
 11
276.6346942487
 21
441.620603349
  0
LINE
  5
5C3
100
AcDbEntity
  8
ALL_DETAIL_ITEM
100
AcDbLine
 62
7
  6
CONTINUOUS
 10
276.6346942487
 20
441.620603349
 11
278.0529515072
 21
441.7613100745
  0
LINE
  5
5C4
100
AcDbEntity
  8
ALL_DETAIL_ITEM
100
AcDbLine
 62
7
  6
CONTINUOUS
 10
278.0529515072
 20
441.7613100745
 11
279.8897122652
 21
441.850631032
  0
LINE
  5
5C5
100
AcDbEntity
  8
ALL_DETAIL_ITEM
100
AcDbLine
 62
7
  6
CONTINUOUS
 10
279.8897122652
 20
441.850631032
 11
281.6209202387
 21
441.893642174
  0
LINE
  5
5C6
100
AcDbEntity
  8
ALL_DETAIL_ITEM
100
AcDbLine
 62
7
  6
CONTINUOUS
 10
274.4809660972
 20
433.6990305825
 11
274.8149769292
 21
433.9728660295
  0
LINE
  5
5C7
100
AcDbEntity
  8
ALL_DETAIL_ITEM
100
AcDbLine
 62
7
  6
CONTINUOUS
 10
274.8149769292
 20
433.9728660295
 11
275.7206741732
 21
434.1765072115
  0
LINE
  5
5C8
100
AcDbEntity
  8
ALL_DETAIL_ITEM
100
AcDbLine
 62
7
  6
CONTINUOUS
 10
275.7206741732
 20
434.1765072115
 11
277.1389314317
 21
434.3172139375
  0
LINE
  5
5C9
100
AcDbEntity
  8
ALL_DETAIL_ITEM
100
AcDbLine
 62
7
  6
CONTINUOUS
 10
277.1389314317
 20
434.3172139375
 11
278.9756921897
 21
434.4065348945
  0
LINE
  5
5CA
100
AcDbEntity
  8
ALL_DETAIL_ITEM
100
AcDbLine
 62
7
  6
CONTINUOUS
 10
278.9756921897
 20
434.4065348945
 11
281.1083796102
 21
434.4595206265
  0
LINE
  5
5CB
100
AcDbEntity
  8
ALL_DETAIL_ITEM
100
AcDbLine
 62
7
  6
CONTINUOUS
 10
281.1083796102
 20
434.4595206265
 11
281.4112538737
 21
434.464049057
  0
LINE
  5
5CC
100
AcDbEntity
  8
ALL_DETAIL_ITEM
100
AcDbLine
 62
7
  6
CONTINUOUS
 10
273.5669460217
 20
426.254934445
 11
273.9009568537
 21
426.5287698925
  0
LINE
  5
5CD
100
AcDbEntity
  8
ALL_DETAIL_ITEM
100
AcDbLine
 62
7
  6
CONTINUOUS
 10
273.9009568537
 20
426.5287698925
 11
274.8066540977
 21
426.7324110745
  0
LINE
  5
5CE
100
AcDbEntity
  8
ALL_DETAIL_ITEM
100
AcDbLine
 62
7
  6
CONTINUOUS
 10
274.8066540977
 20
426.7324110745
 11
276.2249113562
 21
426.8731178
  0
LINE
  5
5CF
100
AcDbEntity
  8
ALL_DETAIL_ITEM
100
AcDbLine
 62
7
  6
CONTINUOUS
 10
276.2249113562
 20
426.8731178
 11
278.0616721142
 21
426.9624387575
  0
LINE
  5
5D0
100
AcDbEntity
  8
ALL_DETAIL_ITEM
100
AcDbLine
 62
7
  6
CONTINUOUS
 10
278.0616721142
 20
426.9624387575
 11
280.1943595347
 21
427.0154244895
  0
LINE
  5
5D1
100
AcDbEntity
  8
ALL_DETAIL_ITEM
100
AcDbLine
 62
7
  6
CONTINUOUS
 10
280.1943595347
 20
427.0154244895
 11
280.4972337982
 21
427.01995292
  0
LINE
  5
5D2
100
AcDbEntity
  8
ALL_DETAIL_ITEM
100
AcDbLine
 62
7
  6
CONTINUOUS
 10
276.1513818367
 20
443.4605277835
 11
275.5093044282
 21
443.278326185
  0
LINE
  5
5D3
100
AcDbEntity
  8
ALL_DETAIL_ITEM
100
AcDbLine
 62
7
  6
CONTINUOUS
 10
275.5093044282
 20
443.278326185
 11
274.3485286462
 21
442.952468078
  0
LINE
  5
5D4
100
AcDbEntity
  8
ALL_DETAIL_ITEM
100
AcDbLine
 62
7
  6
CONTINUOUS
 10
274.3485286462
 20
442.952468078
 11
273.4464526092
 21
442.7017091115
  0
LINE
  5
5D5
100
AcDbEntity
  8
ALL_DETAIL_ITEM
100
AcDbLine
 62
7
  6
CONTINUOUS
 10
274.3234098442
 20
462.210028386
 11
265.5745190767
 21
462.0707073925
  0
LINE
  5
5D6
100
AcDbEntity
  8
ALL_DETAIL_ITEM
100
AcDbLine
 62
7
  6
CONTINUOUS
 10
237.6118502262
 20
479.1673838425
 11
205.9602264097
 21
487.648410883
  0
LINE
  5
5D7
100
AcDbEntity
  8
ALL_DETAIL_ITEM
100
AcDbLine
 62
7
  6
CONTINUOUS
 10
323.5655993327
 20
566.4118275395
 11
323.5655993327
 21
366.4118275395
  0
LINE
  5
5D8
100
AcDbEntity
  8
ALL_DETAIL_ITEM
100
AcDbLine
 62
7
  6
CONTINUOUS
 10
291.6372523997
 20
429.8293613075
 11
291.3095215272
 21
429.5579251475
  0
LINE
  5
5D9
100
AcDbEntity
  8
ALL_DETAIL_ITEM
100
AcDbLine
 62
7
  6
CONTINUOUS
 10
291.3095215272
 20
429.5579251475
 11
290.4208132462
 21
429.355290418
  0
LINE
  5
5DA
100
AcDbEntity
  8
ALL_DETAIL_ITEM
100
AcDbLine
 62
7
  6
CONTINUOUS
 10
290.4208132462
 20
429.355290418
 11
289.0289992097
 21
429.2146212115
  0
LINE
  5
5DB
100
AcDbEntity
  8
ALL_DETAIL_ITEM
100
AcDbLine
 62
7
  6
CONTINUOUS
 10
289.0289992097
 20
429.2146212115
 11
287.2224805502
 21
429.124619232
  0
LINE
  5
5DC
100
AcDbEntity
  8
ALL_DETAIL_ITEM
100
AcDbLine
 62
7
  6
CONTINUOUS
 10
287.2224805502
 20
429.124619232
 11
285.2833554847
 21
429.0749952615
  0
LINE
  5
5DD
100
AcDbEntity
  8
ALL_DETAIL_ITEM
100
AcDbLine
 62
7
  6
CONTINUOUS
 10
272.6529259462
 20
418.810838308
 11
272.9869367782
 21
419.084673755
  0
LINE
  5
5DE
100
AcDbEntity
  8
ALL_DETAIL_ITEM
100
AcDbLine
 62
7
  6
CONTINUOUS
 10
272.9869367782
 20
419.084673755
 11
273.8926340222
 21
419.288314937
  0
LINE
  5
5DF
100
AcDbEntity
  8
ALL_DETAIL_ITEM
100
AcDbLine
 62
7
  6
CONTINUOUS
 10
273.8926340222
 20
419.288314937
 11
275.3108912807
 21
419.429021663
  0
LINE
  5
5E0
100
AcDbEntity
  8
ALL_DETAIL_ITEM
100
AcDbLine
 62
7
  6
CONTINUOUS
 10
275.3108912807
 20
419.429021663
 11
277.1476520387
 21
419.51834262
  0
LINE
  5
5E1
100
AcDbEntity
  8
ALL_DETAIL_ITEM
100
AcDbLine
 62
7
  6
CONTINUOUS
 10
277.1476520387
 20
419.51834262
 11
279.2803394592
 21
419.571328352
  0
LINE
  5
5E2
100
AcDbEntity
  8
ALL_DETAIL_ITEM
100
AcDbLine
 62
7
  6
CONTINUOUS
 10
279.2803394592
 20
419.571328352
 11
279.5832137227
 21
419.5758567825
  0
LINE
  5
5E3
100
AcDbEntity
  8
ALL_DETAIL_ITEM
100
AcDbLine
 62
7
  6
CONTINUOUS
 10
271.7389058707
 20
411.3667421705
 11
272.0729167027
 21
411.6405776175
  0
LINE
  5
5E4
100
AcDbEntity
  8
ALL_DETAIL_ITEM
100
AcDbLine
 62
7
  6
CONTINUOUS
 10
272.0729167027
 20
411.6405776175
 11
272.9786139467
 21
411.8442187995
  0
LINE
  5
5E5
100
AcDbEntity
  8
ALL_DETAIL_ITEM
100
AcDbLine
 62
7
  6
CONTINUOUS
 10
272.9786139467
 20
411.8442187995
 11
274.3968712052
 21
411.9849255255
  0
LINE
  5
5E6
100
AcDbEntity
  8
ALL_DETAIL_ITEM
100
AcDbLine
 62
7
  6
CONTINUOUS
 10
274.3968712052
 20
411.9849255255
 11
276.2336319632
 21
412.074246483
  0
LINE
  5
5E7
100
AcDbEntity
  8
ALL_DETAIL_ITEM
100
AcDbLine
 62
7
  6
CONTINUOUS
 10
276.2336319632
 20
412.074246483
 11
278.3663193837
 21
412.127232215
  0
LINE
  5
5E8
100
AcDbEntity
  8
ALL_DETAIL_ITEM
100
AcDbLine
 62
7
  6
CONTINUOUS
 10
278.3663193837
 20
412.127232215
 11
278.6691936472
 21
412.1317606455
  0
LINE
  5
5E9
100
AcDbEntity
  8
ALL_DETAIL_ITEM
100
AcDbLine
 62
7
  6
CONTINUOUS
 10
294.4998055047
 20
435.7148749055
 11
294.9116640102
 21
435.988122146
  0
LINE
  5
5EA
100
AcDbEntity
  8
ALL_DETAIL_ITEM
100
AcDbLine
 62
7
  6
CONTINUOUS
 10
294.9116640102
 20
435.988122146
 11
294.5752427847
 21
436.329258042
  0
LINE
  5
5EB
100
AcDbEntity
  8
ALL_DETAIL_ITEM
100
AcDbLine
 62
7
  6
CONTINUOUS
 10
266.7688475817
 20
500.4691048495
 11
280.3634643872
 21
494.1298309235
  0
LINE
  5
5EC
100
AcDbEntity
  8
ALL_DETAIL_ITEM
100
AcDbLine
 62
7
  6
CONTINUOUS
 10
290.0661937562
 20
398.5375810075
 11
290.3340418642
 21
398.8165416745
  0
LINE
  5
5ED
100
AcDbEntity
  8
ALL_DETAIL_ITEM
100
AcDbLine
 62
7
  6
CONTINUOUS
 10
290.3340418642
 20
398.8165416745
 11
290.0051424067
 21
399.1087773555
  0
LINE
  5
5EE
100
AcDbEntity
  8
ALL_DETAIL_ITEM
100
AcDbLine
 62
7
  6
CONTINUOUS
 10
289.8092122487
 20
414.941169033
 11
289.4790074407
 21
414.6687841765
  0
LINE
  5
5EF
100
AcDbEntity
  8
ALL_DETAIL_ITEM
100
AcDbLine
 62
7
  6
CONTINUOUS
 10
289.4790074407
 20
414.6687841765
 11
288.5742914667
 21
414.4643886135
  0
LINE
  5
5F0
100
AcDbEntity
  8
ALL_DETAIL_ITEM
100
AcDbLine
 62
7
  6
CONTINUOUS
 10
288.5742914667
 20
414.4643886135
 11
287.1859928922
 21
414.325384454
  0
LINE
  5
5F1
100
AcDbEntity
  8
ALL_DETAIL_ITEM
100
AcDbLine
 62
7
  6
CONTINUOUS
 10
287.1859928922
 20
414.325384454
 11
285.3926677412
 21
414.2363648935
  0
LINE
  5
5F2
100
AcDbEntity
  8
ALL_DETAIL_ITEM
100
AcDbLine
 62
7
  6
CONTINUOUS
 10
285.3926677412
 20
414.2363648935
 11
283.4553354962
 21
414.186967199
  0
LINE
  5
5F3
100
AcDbEntity
  8
ALL_DETAIL_ITEM
100
AcDbLine
 62
7
  6
CONTINUOUS
 10
288.8951921732
 20
407.4970728955
 11
288.5641615527
 21
407.2243723825
  0
LINE
  5
5F4
100
AcDbEntity
  8
ALL_DETAIL_ITEM
100
AcDbLine
 62
7
  6
CONTINUOUS
 10
288.5641615527
 20
407.2243723825
 11
287.6679372597
 21
407.021412124
  0
LINE
  5
5F5
100
AcDbEntity
  8
ALL_DETAIL_ITEM
100
AcDbLine
 62
7
  6
CONTINUOUS
 10
287.6679372597
 20
407.021412124
 11
286.2518497627
 21
406.879894652
  0
LINE
  5
5F6
100
AcDbEntity
  8
ALL_DETAIL_ITEM
100
AcDbLine
 62
7
  6
CONTINUOUS
 10
286.2518497627
 20
406.879894652
 11
284.4207681352
 21
406.7902628495
  0
LINE
  5
5F7
100
AcDbEntity
  8
ALL_DETAIL_ITEM
100
AcDbLine
 62
7
  6
CONTINUOUS
 10
284.4207681352
 20
406.7902628495
 11
282.5413644972
 21
406.74327076
  0
LINE
  5
5F8
100
AcDbEntity
  8
ALL_DETAIL_ITEM
100
AcDbLine
 62
7
  6
CONTINUOUS
 10
290.7232323242
 20
422.3852651705
 11
290.3893825862
 21
422.1114909035
  0
LINE
  5
5F9
100
AcDbEntity
  8
ALL_DETAIL_ITEM
100
AcDbLine
 62
7
  6
CONTINUOUS
 10
290.3893825862
 20
422.1114909035
 11
289.4593752222
 21
421.904311266
  0
LINE
  5
5FA
100
AcDbEntity
  8
ALL_DETAIL_ITEM
100
AcDbLine
 62
7
  6
CONTINUOUS
 10
289.4593752222
 20
421.904311266
 11
288.0209297572
 21
421.764072898
  0
LINE
  5
5FB
100
AcDbEntity
  8
ALL_DETAIL_ITEM
100
AcDbLine
 62
7
  6
CONTINUOUS
 10
288.0209297572
 20
421.764072898
 11
286.2233081502
 21
421.67758387
  0
LINE
  5
5FC
100
AcDbEntity
  8
ALL_DETAIL_ITEM
100
AcDbLine
 62
7
  6
CONTINUOUS
 10
286.2233081502
 20
421.67758387
 11
284.3694248647
 21
421.6316276835
  0
LINE
  5
5FD
100
AcDbEntity
  8
ALL_DETAIL_ITEM
100
AcDbLine
 62
7
  6
CONTINUOUS
 10
270.8248857952
 20
403.9226460335
 11
271.1588966272
 21
404.1964814805
  0
LINE
  5
5FE
100
AcDbEntity
  8
ALL_DETAIL_ITEM
100
AcDbLine
 62
7
  6
CONTINUOUS
 10
271.1588966272
 20
404.1964814805
 11
272.0645938712
 21
404.4001226625
  0
LINE
  5
5FF
100
AcDbEntity
  8
ALL_DETAIL_ITEM
100
AcDbLine
 62
7
  6
CONTINUOUS
 10
272.0645938712
 20
404.4001226625
 11
273.4828511297
 21
404.540829388
  0
LINE
  5
600
100
AcDbEntity
  8
ALL_DETAIL_ITEM
100
AcDbLine
 62
7
  6
CONTINUOUS
 10
273.4828511297
 20
404.540829388
 11
275.3196118877
 21
404.6301503455
  0
LINE
  5
601
100
AcDbEntity
  8
ALL_DETAIL_ITEM
100
AcDbLine
 62
7
  6
CONTINUOUS
 10
275.3196118877
 20
404.6301503455
 11
277.4522993082
 21
404.6831360775
  0
LINE
  5
602
100
AcDbEntity
  8
ALL_DETAIL_ITEM
100
AcDbLine
 62
7
  6
CONTINUOUS
 10
277.4522993082
 20
404.6831360775
 11
277.7551735717
 21
404.687664508
  0
LINE
  5
603
100
AcDbEntity
  8
ALL_DETAIL_ITEM
100
AcDbLine
 62
7
  6
CONTINUOUS
 10
269.9108657197
 20
396.478549896
 11
270.2563634227
 21
396.7566994205
  0
LINE
  5
604
100
AcDbEntity
  8
ALL_DETAIL_ITEM
100
AcDbLine
 62
7
  6
CONTINUOUS
 10
270.2563634227
 20
396.7566994205
 11
271.1936383232
 21
396.9621878415
  0
LINE
  5
605
100
AcDbEntity
  8
ALL_DETAIL_ITEM
100
AcDbLine
 62
7
  6
CONTINUOUS
 10
271.1936383232
 20
396.9621878415
 11
272.6592257342
 21
397.1028076425
  0
LINE
  5
606
100
AcDbEntity
  8
ALL_DETAIL_ITEM
100
AcDbLine
 62
7
  6
CONTINUOUS
 10
272.6592257342
 20
397.1028076425
 11
274.5523440527
 21
397.1909332495
  0
LINE
  5
607
100
AcDbEntity
  8
ALL_DETAIL_ITEM
100
AcDbLine
 62
7
  6
CONTINUOUS
 10
274.5523440527
 20
397.1909332495
 11
276.7420133812
 21
397.2426469705
  0
LINE
  5
608
100
AcDbEntity
  8
ALL_DETAIL_ITEM
100
AcDbLine
 62
7
  6
CONTINUOUS
 10
276.7420133812
 20
397.2426469705
 11
276.8412175512
 21
397.244090055
  0
LINE
  5
609
100
AcDbEntity
  8
ALL_DETAIL_ITEM
100
AcDbLine
 62
7
  6
CONTINUOUS
 10
293.5857854292
 20
428.270778768
 11
293.7693074412
 21
428.332178913
  0
LINE
  5
60A
100
AcDbEntity
  8
ALL_DETAIL_ITEM
100
AcDbLine
 62
7
  6
CONTINUOUS
 10
293.7693074412
 20
428.332178913
 11
293.9797040482
 21
428.618193737
  0
LINE
  5
60B
100
AcDbEntity
  8
ALL_DETAIL_ITEM
100
AcDbLine
 62
7
  6
CONTINUOUS
 10
293.9797040482
 20
428.618193737
 11
293.6612227092
 21
428.8851619045
  0
LINE
  5
60C
100
AcDbEntity
  8
ALL_DETAIL_ITEM
100
AcDbLine
 62
7
  6
CONTINUOUS
 10
251.4758287402
 20
478.9118275395
 11
239.5529930647
 21
478.9118275395
  0
LINE
  5
60D
100
AcDbEntity
  8
ALL_DETAIL_ITEM
100
AcDbLine
 62
7
  6
CONTINUOUS
 10
287.0671520222
 20
392.608880621
 11
286.7395532207
 21
392.3374952375
  0
LINE
  5
60E
100
AcDbEntity
  8
ALL_DETAIL_ITEM
100
AcDbLine
 62
7
  6
CONTINUOUS
 10
286.7395532207
 20
392.3374952375
 11
285.8512025157
 21
392.134881992
  0
LINE
  5
60F
100
AcDbEntity
  8
ALL_DETAIL_ITEM
100
AcDbLine
 62
7
  6
CONTINUOUS
 10
285.8512025157
 20
392.134881992
 11
284.4599470847
 21
391.994213939
  0
LINE
  5
610
100
AcDbEntity
  8
ALL_DETAIL_ITEM
100
AcDbLine
 62
7
  6
CONTINUOUS
 10
284.4599470847
 20
391.994213939
 11
282.6540399492
 21
391.904196691
  0
LINE
  5
611
100
AcDbEntity
  8
ALL_DETAIL_ITEM
100
AcDbLine
 62
7
  6
CONTINUOUS
 10
282.6540399492
 20
391.904196691
 11
280.7132540472
 21
391.854505945
  0
LINE
  5
612
100
AcDbEntity
  8
ALL_DETAIL_ITEM
100
AcDbLine
 62
7
  6
CONTINUOUS
 10
268.9968456437
 20
389.0344537585
 11
269.3308564762
 21
389.308289206
  0
LINE
  5
613
100
AcDbEntity
  8
ALL_DETAIL_ITEM
100
AcDbLine
 62
7
  6
CONTINUOUS
 10
269.3308564762
 20
389.308289206
 11
270.2365537202
 21
389.511930388
  0
LINE
  5
614
100
AcDbEntity
  8
ALL_DETAIL_ITEM
100
AcDbLine
 62
7
  6
CONTINUOUS
 10
270.2365537202
 20
389.511930388
 11
271.6548109787
 21
389.6526371135
  0
LINE
  5
615
100
AcDbEntity
  8
ALL_DETAIL_ITEM
100
AcDbLine
 62
7
  6
CONTINUOUS
 10
271.6548109787
 20
389.6526371135
 11
273.4915717367
 21
389.741958071
  0
LINE
  5
616
100
AcDbEntity
  8
ALL_DETAIL_ITEM
100
AcDbLine
 62
7
  6
CONTINUOUS
 10
273.4915717367
 20
389.741958071
 11
275.6242591572
 21
389.794943803
  0
LINE
  5
617
100
AcDbEntity
  8
ALL_DETAIL_ITEM
100
AcDbLine
 62
7
  6
CONTINUOUS
 10
275.6242591572
 20
389.794943803
 11
275.9271334207
 21
389.7994722335
  0
LINE
  5
618
100
AcDbEntity
  8
ALL_DETAIL_ITEM
100
AcDbLine
 62
7
  6
CONTINUOUS
 10
268.0828255682
 20
381.5903576215
 11
268.4168364007
 21
381.8641930685
  0
LINE
  5
619
100
AcDbEntity
  8
ALL_DETAIL_ITEM
100
AcDbLine
 62
7
  6
CONTINUOUS
 10
268.4168364007
 20
381.8641930685
 11
269.3225336447
 21
382.0678342505
  0
LINE
  5
61A
100
AcDbEntity
  8
ALL_DETAIL_ITEM
100
AcDbLine
 62
7
  6
CONTINUOUS
 10
269.3225336447
 20
382.0678342505
 11
270.7407909032
 21
382.208540976
  0
LINE
  5
61B
100
AcDbEntity
  8
ALL_DETAIL_ITEM
100
AcDbLine
 62
7
  6
CONTINUOUS
 10
270.7407909032
 20
382.208540976
 11
272.5775516612
 21
382.2978619335
  0
LINE
  5
61C
100
AcDbEntity
  8
ALL_DETAIL_ITEM
100
AcDbLine
 62
7
  6
CONTINUOUS
 10
272.5775516612
 20
382.2978619335
 11
274.7102390812
 21
382.3508476655
  0
LINE
  5
61D
100
AcDbEntity
  8
ALL_DETAIL_ITEM
100
AcDbLine
 62
7
  6
CONTINUOUS
 10
274.7102390812
 20
382.3508476655
 11
275.0131133452
 21
382.355376096
  0
LINE
  5
61E
100
AcDbEntity
  8
ALL_DETAIL_ITEM
100
AcDbLine
 62
7
  6
CONTINUOUS
 10
267.1688054927
 20
374.146261484
 11
267.5028163252
 21
374.420096931
  0
LINE
  5
61F
100
AcDbEntity
  8
ALL_DETAIL_ITEM
100
AcDbLine
 62
7
  6
CONTINUOUS
 10
267.5028163252
 20
374.420096931
 11
268.4085135692
 21
374.623738113
  0
LINE
  5
620
100
AcDbEntity
  8
ALL_DETAIL_ITEM
100
AcDbLine
 62
7
  6
CONTINUOUS
 10
268.4085135692
 20
374.623738113
 11
269.8267708277
 21
374.764444839
  0
LINE
  5
621
100
AcDbEntity
  8
ALL_DETAIL_ITEM
100
AcDbLine
 62
7
  6
CONTINUOUS
 10
269.8267708277
 20
374.764444839
 11
271.6635315857
 21
374.853765796
  0
LINE
  5
622
100
AcDbEntity
  8
ALL_DETAIL_ITEM
100
AcDbLine
 62
7
  6
CONTINUOUS
 10
271.6635315857
 20
374.853765796
 11
273.7962190057
 21
374.906751528
  0
LINE
  5
623
100
AcDbEntity
  8
ALL_DETAIL_ITEM
100
AcDbLine
 62
7
  6
CONTINUOUS
 10
273.7962190057
 20
374.906751528
 11
274.0990932697
 21
374.9112799585
  0
LINE
  5
624
100
AcDbEntity
  8
ALL_DETAIL_ITEM
100
AcDbLine
 62
7
  6
CONTINUOUS
 10
290.8437252027
 20
405.938490356
 11
291.2526820572
 21
406.1881055455
  0
LINE
  5
625
100
AcDbEntity
  8
ALL_DETAIL_ITEM
100
AcDbLine
 62
7
  6
CONTINUOUS
 10
291.2526820572
 20
406.1881055455
 11
290.9191624827
 21
406.5528734925
  0
LINE
  5
626
100
AcDbEntity
  8
ALL_DETAIL_ITEM
100
AcDbLine
 62
7
  6
CONTINUOUS
 10
287.7609215077
 20
399.828142674
 11
287.8763496252
 21
399.897936811
  0
LINE
  5
627
100
AcDbEntity
  8
ALL_DETAIL_ITEM
100
AcDbLine
 62
7
  6
CONTINUOUS
 10
287.8763496252
 20
399.897936811
 11
287.9498575547
 21
399.9728576185
  0
LINE
  5
628
100
AcDbEntity
  8
ALL_DETAIL_ITEM
100
AcDbLine
 62
7
  6
CONTINUOUS
 10
287.9498575547
 20
399.9728576185
 11
287.9811720977
 21
400.0529767585
  0
LINE
  5
629
100
AcDbEntity
  8
ALL_DETAIL_ITEM
100
AcDbLine
 62
7
  6
CONTINUOUS
 10
291.7577452782
 20
413.3825864935
 11
292.1313523397
 21
413.564577104
  0
LINE
  5
62A
100
AcDbEntity
  8
ALL_DETAIL_ITEM
100
AcDbLine
 62
7
  6
CONTINUOUS
 10
292.1313523397
 20
413.564577104
 11
291.9963986597
 21
413.8929956115
  0
LINE
  5
62B
100
AcDbEntity
  8
ALL_DETAIL_ITEM
100
AcDbLine
 62
7
  6
CONTINUOUS
 10
291.9963986597
 20
413.8929956115
 11
291.8331825582
 21
413.99696963
  0
LINE
  5
62C
100
AcDbEntity
  8
ALL_DETAIL_ITEM
100
AcDbLine
 62
7
  6
CONTINUOUS
 10
292.6717653537
 20
420.8266826305
 11
292.9701480937
 21
420.945944639
  0
LINE
  5
62D
100
AcDbEntity
  8
ALL_DETAIL_ITEM
100
AcDbLine
 62
7
  6
CONTINUOUS
 10
292.9701480937
 20
420.945944639
 11
293.0078695572
 21
421.253161305
  0
LINE
  5
62E
100
AcDbEntity
  8
ALL_DETAIL_ITEM
100
AcDbLine
 62
7
  6
CONTINUOUS
 10
293.0078695572
 20
421.253161305
 11
292.7472026337
 21
421.441065767
  0
LINE
  5
62F
100
AcDbEntity
  8
ALL_DETAIL_ITEM
100
AcDbLine
 62
7
  6
CONTINUOUS
 10
264.8093094572
 20
375.443480994
 11
265.2202719292
 21
375.7048438755
  0
LINE
  5
630
100
AcDbEntity
  8
ALL_DETAIL_ITEM
100
AcDbLine
 62
7
  6
CONTINUOUS
 10
294.8224453692
 20
506.7646478915
 11
290.3559876872
 21
507.3130599365
  0
LINE
  5
631
100
AcDbEntity
  8
ALL_DETAIL_ITEM
100
AcDbLine
 62
7
  6
CONTINUOUS
 10
372.6915141832
 20
566.4118275395
 11
370.6953591377
 21
594.9581746455
  0
LINE
  5
632
100
AcDbEntity
  8
ALL_DETAIL_ITEM
100
AcDbLine
 62
7
  6
CONTINUOUS
 10
363.7348390277
 20
365.891136705
 11
363.7987718232
 21
366.4118275395
  0
LINE
  5
633
100
AcDbEntity
  8
ALL_DETAIL_ITEM
100
AcDbLine
 62
7
  6
CONTINUOUS
 10
293.5900604922
 20
360.411978827
 11
293.9365066837
 21
360.7845027925
  0
LINE
  5
634
100
AcDbEntity
  8
ALL_DETAIL_ITEM
100
AcDbLine
 62
7
  6
CONTINUOUS
 10
270.3050544017
 20
356.7899712065
 11
270.5288902597
 21
356.963493459
  0
LINE
  5
635
100
AcDbEntity
  8
ALL_DETAIL_ITEM
100
AcDbLine
 62
7
  6
CONTINUOUS
 10
270.5288902597
 20
356.963493459
 11
270.6306015497
 21
357.210361982
  0
LINE
  5
636
100
AcDbEntity
  8
ALL_DETAIL_ITEM
100
AcDbLine
 62
7
  6
CONTINUOUS
 10
287.1876449002
 20
376.162105807
 11
287.5892578247
 21
376.388634388
  0
LINE
  5
637
100
AcDbEntity
  8
ALL_DETAIL_ITEM
100
AcDbLine
 62
7
  6
CONTINUOUS
 10
287.5892578247
 20
376.388634388
 11
287.3394926997
 21
376.731149969
  0
LINE
  5
638
100
AcDbEntity
  8
ALL_DETAIL_ITEM
100
AcDbLine
 62
7
  6
CONTINUOUS
 10
287.3394926997
 20
376.731149969
 11
287.2630821802
 21
376.7764889435
  0
LINE
  5
639
100
AcDbEntity
  8
ALL_DETAIL_ITEM
100
AcDbLine
 62
7
  6
CONTINUOUS
 10
288.1016649762
 20
383.606201944
 11
288.4546189392
 21
383.766740107
  0
LINE
  5
63A
100
AcDbEntity
  8
ALL_DETAIL_ITEM
100
AcDbLine
 62
7
  6
CONTINUOUS
 10
288.4546189392
 20
383.766740107
 11
288.3771854597
 21
384.0880960225
  0
LINE
  5
63B
100
AcDbEntity
  8
ALL_DETAIL_ITEM
100
AcDbLine
 62
7
  6
CONTINUOUS
 10
288.3771854597
 20
384.0880960225
 11
288.1771022557
 21
384.2205850805
  0
LINE
  5
63C
100
AcDbEntity
  8
ALL_DETAIL_ITEM
100
AcDbLine
 62
7
  6
CONTINUOUS
 10
289.0156850517
 20
391.0502980815
 11
289.2801690702
 21
391.1497340005
  0
LINE
  5
63D
100
AcDbEntity
  8
ALL_DETAIL_ITEM
100
AcDbLine
 62
7
  6
CONTINUOUS
 10
289.2801690702
 20
391.1497340005
 11
289.3754794612
 21
391.449879635
  0
LINE
  5
63E
100
AcDbEntity
  8
ALL_DETAIL_ITEM
100
AcDbLine
 62
7
  6
CONTINUOUS
 10
289.3754794612
 20
391.449879635
 11
289.0911223312
 21
391.664681218
  0
LINE
  5
63F
100
AcDbEntity
  8
ALL_DETAIL_ITEM
100
AcDbLine
 62
7
  6
CONTINUOUS
 10
289.9297051272
 20
398.4943942185
 11
290.0661937562
 21
398.5375810075
  0
LINE
  5
640
100
AcDbEntity
  8
ALL_DETAIL_ITEM
100
AcDbLine
 62
7
  6
CONTINUOUS
 10
279.5655993327
 20
527.9118275395
 11
243.5655993327
 21
527.9118275395
  0
LINE
  5
641
100
AcDbEntity
  8
ALL_DETAIL_ITEM
100
AcDbLine
 62
7
  6
CONTINUOUS
 10
253.0722174617
 20
536.9118275395
 11
266.0722174617
 21
536.9118275395
  0
LINE
  5
642
100
AcDbEntity
  8
ALL_DETAIL_ITEM
100
AcDbLine
 62
7
  6
CONTINUOUS
 10
270.7623682562
 20
536.9118275395
 11
283.7623682562
 21
536.9118275395
  0
LINE
  5
643
100
AcDbEntity
  8
ALL_DETAIL_ITEM
100
AcDbLine
 62
7
  6
CONTINUOUS
 10
278.5655993327
 20
538.9118275395
 11
243.5655993327
 21
538.9118275395
  0
LINE
  5
644
100
AcDbEntity
  8
ALL_DETAIL_ITEM
100
AcDbLine
 62
7
  6
CONTINUOUS
 10
270.5751938632
 20
358.0057639855
 11
270.5694179017
 21
358.003333406
  0
LINE
  5
645
100
AcDbEntity
  8
ALL_DETAIL_ITEM
100
AcDbLine
 62
7
  6
CONTINUOUS
 10
270.5694179017
 20
358.003333406
 11
270.6429378382
 21
358.0150291505
  0
LINE
  5
646
100
AcDbEntity
  8
ALL_DETAIL_ITEM
100
AcDbLine
 62
7
  6
CONTINUOUS
 10
270.6429378382
 20
358.0150291505
 11
270.8151949397
 21
358.0170761575
  0
LINE
  5
647
100
AcDbEntity
  8
ALL_DETAIL_ITEM
100
AcDbLine
 62
7
  6
CONTINUOUS
 10
286.5602142047
 20
542.9118275395
 11
294.0602142047
 21
542.9118275395
  0
LINE
  5
648
100
AcDbEntity
  8
ALL_DETAIL_ITEM
100
AcDbLine
 62
7
  6
CONTINUOUS
 10
294.0602142047
 20
542.9118275395
 11
309.0590848442
 21
542.7277635615
  0
LINE
  5
649
100
AcDbEntity
  8
ALL_DETAIL_ITEM
100
AcDbLine
 62
7
  6
CONTINUOUS
 10
192.8438526657
 20
553.9118275395
 11
290.4602846847
 21
553.9118275395
  0
LINE
  5
64A
100
AcDbEntity
  8
ALL_DETAIL_ITEM
100
AcDbLine
 62
7
  6
CONTINUOUS
 10
429.9198750562
 20
566.4118275395
 11
301.6976441697
 21
566.4118275395
  0
LINE
  5
64B
100
AcDbEntity
  8
ALL_DETAIL_ITEM
100
AcDbLine
 62
7
  6
CONTINUOUS
 10
311.8703593907
 20
570.4118275395
 11
315.2608392747
 21
570.4118275395
  0
LINE
  5
64C
100
AcDbEntity
  8
ALL_DETAIL_ITEM
100
AcDbLine
 62
7
  6
CONTINUOUS
 10
200.6177538187
 20
608.9118275395
 11
355.7318983837
 21
608.9118275395
  0
ARC
  5
64D
100
AcDbEntity
  8
ALL_DETAIL_ITEM
100
AcDbCircle
 62
7
  6
CONTINUOUS
 10
255.9395036287
 20
365.8105835895
 40
1.0
100
AcDbArc
 50
158.9637565319
 51
193.974188495
  0
ARC
  5
64E
100
AcDbEntity
  8
ALL_DETAIL_ITEM
100
AcDbCircle
 62
7
  6
CONTINUOUS
 10
277.4277300052
 20
385.9002925215
 40
30.1807082875
100
AcDbArc
 50
272.2090207682
 51
302.379089862
  0
ARC
  5
64F
100
AcDbEntity
  8
ALL_DETAIL_ITEM
100
AcDbCircle
 62
7
  6
CONTINUOUS
 10
277.4277300052
 20
385.9002925215
 40
30.1807082875
100
AcDbArc
 50
223.6209101246
 51
253.790978674
  0
ARC
  5
650
100
AcDbEntity
  8
ALL_DETAIL_ITEM
100
AcDbCircle
 62
7
  6
CONTINUOUS
 10
285.7620896752
 20
351.209341828
 40
15.5
100
AcDbArc
 50
58.0
 51
83.0
  0
ARC
  5
651
100
AcDbEntity
  8
ALL_DETAIL_ITEM
100
AcDbCircle
 62
7
  6
CONTINUOUS
 10
278.8663570857
 20
372.709982748
 40
5.0
100
AcDbArc
 50
173.0
 51
263.0
  0
ARC
  5
652
100
AcDbEntity
  8
ALL_DETAIL_ITEM
100
AcDbCircle
 62
7
  6
CONTINUOUS
 10
293.4175237567
 20
361.2088613445
 40
1.0
100
AcDbArc
 50
332.025811505
 51
7.0362434681
  0
ARC
  5
653
100
AcDbEntity
  8
ALL_DETAIL_ITEM
100
AcDbCircle
 62
7
  6
CONTINUOUS
 10
286.8218252262
 20
462.409058377
 40
21.25
100
AcDbArc
 50
180.0
 51
257.6839179796
  0
ARC
  5
654
100
AcDbEntity
  8
ALL_DETAIL_ITEM
100
AcDbCircle
 62
7
  6
CONTINUOUS
 10
286.8218252262
 20
462.409058377
 40
21.25
100
AcDbArc
 50
269.8496027069
 51
359.296909748
  0
ARC
  5
655
100
AcDbEntity
  8
ALL_DETAIL_ITEM
100
AcDbCircle
 62
7
  6
CONTINUOUS
 10
286.8218252262
 20
462.409058377
 40
12.5
100
AcDbArc
 50
92.0427734724
 51
253.9449883861
  0
ARC
  5
656
100
AcDbEntity
  8
ALL_DETAIL_ITEM
100
AcDbCircle
 62
7
  6
CONTINUOUS
 10
286.8218252262
 20
462.409058377
 40
12.5
100
AcDbArc
 50
274.7041192651
 51
71.2967242767
  0
ARC
  5
657
100
AcDbEntity
  8
ALL_DETAIL_ITEM
100
AcDbCircle
 62
7
  6
CONTINUOUS
 10
239.5529930647
 20
486.4118275395
 40
7.5
100
AcDbArc
 50
255.0
 51
270.0
  0
ARC
  5
658
100
AcDbEntity
  8
ALL_DETAIL_ITEM
100
AcDbCircle
 62
7
  6
CONTINUOUS
 10
251.4758287402
 20
486.4118275395
 40
7.5
100
AcDbArc
 50
270.0
 51
340.0
  0
ARC
  5
659
100
AcDbEntity
  8
ALL_DETAIL_ITEM
100
AcDbCircle
 62
7
  6
CONTINUOUS
 10
290.4602846847
 20
560.9118275395
 40
7.0
100
AcDbArc
 50
270.0
 51
340.0
  0
ARC
  5
65A
100
AcDbEntity
  8
ALL_DETAIL_ITEM
100
AcDbCircle
 62
7
  6
CONTINUOUS
 10
252.0337256297
 20
532.9118275395
 40
5.0
100
AcDbArc
 50
155.0
 51
270.0
  0
ARC
  5
65B
100
AcDbEntity
  8
ALL_DETAIL_ITEM
100
AcDbCircle
 62
7
  6
CONTINUOUS
 10
312.8309859592
 20
382.0515434865
 40
25.0
100
AcDbArc
 50
238.0
 51
273.0
  0
ARC
  5
65C
100
AcDbEntity
  8
ALL_DETAIL_ITEM
100
AcDbCircle
 62
7
  6
CONTINUOUS
 10
356.2907428902
 20
366.8051567805
 40
7.5
100
AcDbArc
 50
273.0
 51
353.0
  0
ARC
  5
65D
100
AcDbEntity
  8
ALL_DETAIL_ITEM
100
AcDbCircle
 62
7
  6
CONTINUOUS
 10
355.7318983837
 20
593.9118275395
 40
15.0
100
AcDbArc
 50
4.0
 51
90.0
  0
ARC
  5
65E
100
AcDbEntity
  8
ALL_DETAIL_ITEM
100
AcDbCircle
 62
7
  6
CONTINUOUS
 10
315.2608392747
 20
555.4118275395
 40
15.0
100
AcDbArc
 50
47.1665719339
 51
90.0
  0
ARC
  5
65F
100
AcDbEntity
  8
ALL_DETAIL_ITEM
100
AcDbCircle
 62
7
  6
CONTINUOUS
 10
311.8703593907
 20
555.4118275395
 40
15.0
100
AcDbArc
 50
90.0
 51
160.0
  0
LINE
  5
660
100
AcDbEntity
  8
ALL_DETAIL_ITEM
100
AcDbLine
 62
3
  6
CONTINUOUS
 10
313.9038730622
 20
361.579638024
 11
356.4477507592
 21
363.809268176
  0
LINE
  5
661
100
AcDbEntity
  8
ALL_DETAIL_ITEM
100
AcDbLine
 62
3
  6
CONTINUOUS
 10
254.7010439257
 20
375.173355201
 11
273.8426916557
 21
372.8230563895
  0
LINE
  5
662
100
AcDbEntity
  8
ALL_DETAIL_ITEM
100
AcDbLine
 62
3
  6
CONTINUOUS
 10
278.8054224137
 20
372.2137096725
 11
288.1994765437
 21
371.060264861
  0
LINE
  5
663
100
AcDbEntity
  8
ALL_DETAIL_ITEM
100
AcDbLine
 62
3
  6
CONTINUOUS
 10
296.3604749602
 20
368.170303751
 11
301.9676410427
 21
364.666557515
  0
LINE
  5
664
100
AcDbEntity
  8
ALL_DETAIL_ITEM
100
AcDbLine
 62
3
  6
CONTINUOUS
 10
294.8224453692
 20
506.7646478915
 11
278.3700840097
 21
372.77091742
  0
ARC
  5
665
100
AcDbEntity
  8
ALL_DETAIL_ITEM
100
AcDbCircle
 62
3
  6
CONTINUOUS
 10
285.7620896752
 20
351.209341828
 40
20.0
100
AcDbArc
 50
58.0
 51
83.0
  0
ARC
  5
666
100
AcDbEntity
  8
ALL_DETAIL_ITEM
100
AcDbCircle
 62
3
  6
CONTINUOUS
 10
278.8663570857
 20
372.709982748
 40
0.5
100
AcDbArc
 50
173.0
 51
263.0
  0
ARC
  5
667
100
AcDbEntity
  8
ALL_DETAIL_ITEM
100
AcDbCircle
 62
3
  6
CONTINUOUS
 10
312.8309859592
 20
382.0515434865
 40
20.5
100
AcDbArc
 50
238.0
 51
273.0
  0
ARC
  5
668
100
AcDbEntity
  8
ALL_DETAIL_ITEM
100
AcDbCircle
 62
3
  6
CONTINUOUS
 10
356.2907428902
 20
366.8051567805
 40
3.0
100
AcDbArc
 50
273.0
 51
352.4361800239
  0
ENDBLK
  5
669
100
AcDbEntity
  8
0
  6
BYBLOCK
 62
0
100
AcDbBlockEnd
  0
BLOCK
  5
66A
100
AcDbEntity
  8
0
100
AcDbBlockBegin
  2
_FILLED
 70
64
 10
0.0
 20
0.0
  3
_FILLED
  1

  0
SOLID
  5
66B
100
AcDbEntity
  8
0
  6
BYBLOCK
 62
0
100
AcDbTrace
 10
0.0
 20
0.0
 11
-1.0
 21
0.2142857143
 12
-1.0
 22
-0.2142857143
 13
-1.0
 23
-0.2142857143
  0
ENDBLK
  5
66C
100
AcDbEntity
  8
0
  6
BYBLOCK
 62
0
100
AcDbBlockEnd
  0
BLOCK
  5
66D
100
AcDbEntity
  8
0
100
AcDbBlockBegin
  2
_DOTBLANK
 70
64
 10
0.0
 20
0.0
  3
_DOTBLANK
  1

  0
CIRCLE
  5
66E
100
AcDbEntity
  8
0
  6
BYBLOCK
 62
0
100
AcDbCircle
 10
0.0
 20
0.0
 40
0.2142857143
  0
LINE
  5
66F
100
AcDbEntity
  8
0
  6
BYBLOCK
 62
0
100
AcDbLine
 10
-1.0
 20
0.0
 11
0.0
 21
0.0
  0
ENDBLK
  5
670
100
AcDbEntity
  8
0
  6
BYBLOCK
 62
0
100
AcDbBlockEnd
  0
BLOCK
  5
671
100
AcDbEntity
  8
ALL_DIM
100
AcDbBlockBegin
 62
2
  6
CONTINUOUS
  2
*D0
 70
65
 10
0.0
 20
0.0
  3
*D0
  1

  0
MTEXT
  5
672
100
AcDbEntity
  8
ALL_DIM
100
AcDbMText
 62
5
  6
CONTINUOUS
  7
STANDARD
 71
3
 72
1
 10
231.3487894659
 20
1308.6922554309
 30
0.0
 11
0.6413340016
 21
-0.7672618187
 31
0.0
 44
0.9
  1
R5
 40
17.5
 41
39.375
  0
LINE
  5
673
100
AcDbEntity
  8
ALL_DIM
100
AcDbLine
 62
2
  6
CONTINUOUS
 10
235.6761424922
 20
1269.4066215935
 11
197.7299196407
 21
1314.8036968874
  0
INSERT
  5
674
100
AcDbEntity
  8
ALL_DIM
100
AcDbBlockReference
 62
2
  6
CONTINUOUS
  2
_FILLED
 10
235.6761424922
 20
1269.4066215935
 41
17.5
 42
17.5
 43
17.5
 50
309.8913647099
  0
ENDBLK
  5
675
100
AcDbEntity
  8
0
  6
BYBLOCK
 62
0
100
AcDbBlockEnd
  0
BLOCK
  5
676
100
AcDbEntity
  8
ALL_DIM
100
AcDbBlockBegin
 62
2
  6
CONTINUOUS
  2
*D1
 70
65
 10
0.0
 20
0.0
  3
*D1
  1

  0
TEXT
  5
677
100
AcDbEntity
  8
ALL_DIM
100
AcDbText
 62
5
  6
CONTINUOUS
 10
490.6328125
 20
749.3203125
  7
STANDARD
 40
17.5
  1
570
 41
0.7619047619
 72
1
 11
510.6328125
 21
749.3203125
100
AcDbText
  0
TEXT
  5
678
100
AcDbEntity
  8
ALL_DIM
100
AcDbText
 62
5
  6
CONTINUOUS
 10
530.6328125
 20
759.8203125
  7
STANDARD
 40
10.5
  1
+1
 41
0.6428571429
 72
1
 11
537.3828125
 21
759.8203125
100
AcDbText
  0
TEXT
  5
679
100
AcDbEntity
  8
ALL_DIM
100
AcDbText
 62
5
  6
CONTINUOUS
 10
530.6328125
 20
745.8203125
  7
STANDARD
 40
10.5
  1
  
 41
0.7857142857
 72
1
 11
538.8828125
 21
745.8203125
100
AcDbText
  0
LINE
  5
67A
100
AcDbEntity
  8
ALL_DIM
100
AcDbLine
 62
2
  6
CONTINUOUS
 10
803.8828125
 20
795.5703125
 11
803.8828125
 21
735.5703125
  0
LINE
  5
67B
100
AcDbEntity
  8
ALL_DIM
100
AcDbLine
 62
2
  6
CONTINUOUS
 10
233.8828125
 20
795.5703125
 11
233.8828125
 21
735.5703125
  0
LINE
  5
67C
100
AcDbEntity
  8
ALL_DIM
100
AcDbLine
 62
2
  6
CONTINUOUS
 10
803.8828125
 20
740.5703125
 11
518.8828125
 21
740.5703125
  0
LINE
  5
67D
100
AcDbEntity
  8
ALL_DIM
100
AcDbLine
 62
2
  6
CONTINUOUS
 10
233.8828125
 20
740.5703125
 11
518.8828125
 21
740.5703125
  0
INSERT
  5
67E
100
AcDbEntity
  8
ALL_DIM
100
AcDbBlockReference
 62
2
  6
CONTINUOUS
  2
_FILLED
 10
803.8828125
 20
740.5703125
 41
17.5
 42
17.5
 43
17.5
  0
INSERT
  5
67F
100
AcDbEntity
  8
ALL_DIM
100
AcDbBlockReference
 62
2
  6
CONTINUOUS
  2
_FILLED
 10
233.8828125
 20
740.5703125
 41
17.5
 42
17.5
 43
17.5
 50
180.0
  0
ENDBLK
  5
680
100
AcDbEntity
  8
0
  6
BYBLOCK
 62
0
100
AcDbBlockEnd
  0
BLOCK
  5
681
100
AcDbEntity
  8
ALL_DIM
100
AcDbBlockBegin
 62
2
  6
CONTINUOUS
  2
*D2
 70
65
 10
0.0
 20
0.0
  3
*D2
  1

  0
TEXT
  5
682
100
AcDbEntity
  8
ALL_DIM
100
AcDbText
 62
5
  6
CONTINUOUS
 10
175.1328125
 20
1001.6953125
  7
STANDARD
 40
17.5
  1
480
 50
90.0
 41
0.7857142857
 72
1
 11
175.1328125
 21
1022.3203125
100
AcDbText
  0
TEXT
  5
683
100
AcDbEntity
  8
ALL_DIM
100
AcDbText
 62
5
  6
CONTINUOUS
 10
164.6328125
 20
1042.9453125
  7
STANDARD
 40
10.5
  1
+1
 50
90.0
 41
0.6428571429
 72
1
 11
164.6328125
 21
1049.6953125
100
AcDbText
  0
TEXT
  5
684
100
AcDbEntity
  8
ALL_DIM
100
AcDbText
 62
5
  6
CONTINUOUS
 10
178.6328125
 20
1042.9453125
  7
STANDARD
 40
10.5
  1
  
 50
90.0
 41
0.7857142857
 72
1
 11
178.6328125
 21
1051.1953125
100
AcDbText
  0
LINE
  5
685
100
AcDbEntity
  8
ALL_DIM
100
AcDbLine
 62
2
  6
CONTINUOUS
 10
798.8828125
 20
790.5703125
 11
178.8828125
 21
790.5703125
  0
LINE
  5
686
100
AcDbEntity
  8
ALL_DIM
100
AcDbLine
 62
2
  6
CONTINUOUS
 10
798.8828125
 20
1270.5703125
 11
178.8828125
 21
1270.5703125
  0
LINE
  5
687
100
AcDbEntity
  8
ALL_DIM
100
AcDbLine
 62
2
  6
CONTINUOUS
 10
183.8828125
 20
790.5703125
 11
183.8828125
 21
1030.5703125
  0
LINE
  5
688
100
AcDbEntity
  8
ALL_DIM
100
AcDbLine
 62
2
  6
CONTINUOUS
 10
183.8828125
 20
1270.5703125
 11
183.8828125
 21
1030.5703125
  0
INSERT
  5
689
100
AcDbEntity
  8
ALL_DIM
100
AcDbBlockReference
 62
2
  6
CONTINUOUS
  2
_FILLED
 10
183.8828125
 20
790.5703125
 41
17.5
 42
17.5
 43
17.5
 50
270.0
  0
INSERT
  5
68A
100
AcDbEntity
  8
ALL_DIM
100
AcDbBlockReference
 62
2
  6
CONTINUOUS
  2
_FILLED
 10
183.8828125
 20
1270.5703125
 41
17.5
 42
17.5
 43
17.5
 50
90.0
  0
ENDBLK
  5
68B
100
AcDbEntity
  8
0
  6
BYBLOCK
 62
0
100
AcDbBlockEnd
  0
ENDSEC
  0
SECTION
  2
ENTITIES
  0
DIMENSION
  5
68C
100
AcDbEntity
  8
ALL_DIM
100
AcDbDimension
 62
2
  6
CONTINUOUS
  2
*D0
 10
238.8828125
 20
1265.5703125
 11
216.2177397817
 21
1313.1508942876
 70
164
 71
3
 42
5.0
  1
R<>
  3
DIMSTYLE_1
100
AcDbRadialDimension
 15
235.6761424922
 25
1269.4066215935
  0
DIMENSION
  5
68D
100
AcDbEntity
  8
ALL_DIM
100
AcDbDimension
 62
2
  6
CONTINUOUS
  2
*D1
 10
233.8828125
 20
740.5703125
 11
517.3828125
 21
740.5703125
 70
160
 71
2
 42
570.0
  3
DIMSTYLE_2
100
AcDbAlignedDimension
 13
803.8828125
 23
795.5703125
 14
233.8828125
 24
795.5703125
 50
180.0
100
AcDbRotatedDimension
  0
DIMENSION
  5
68E
100
AcDbEntity
  8
ALL_DIM
100
AcDbDimension
 62
2
  6
CONTINUOUS
  2
*D2
 10
183.8828125
 20
1270.5703125
 11
183.8828125
 21
1029.0703125
 70
160
 71
2
 42
480.0
  3
DIMSTYLE_2
100
AcDbAlignedDimension
 13
798.8828125
 23
790.5703125
 14
798.8828125
 24
1270.5703125
 50
90.0
100
AcDbRotatedDimension
  0
INSERT
  5
68F
100
AcDbEntity
  8
ALL_DETAIL_ITEM
100
AcDbBlockReference
 62
2
  6
CONTINUOUS
  2
I_GRANITAL_B2B_BL0
 10
315.0571720548
 20
519.1407188549
  0
INSERT
  5
690
100
AcDbEntity
  8
ALL_DETAIL_ITEM
100
AcDbBlockReference
 62
2
  6
CONTINUOUS
  2
B2B_NASLOV_RISBE_BL1
 10
689.8940113268
 20
189.0417686006
  0
LEADER
  5
691
100
AcDbEntity
  8
ALL_DETAIL_ITEM
100
AcDbLeader
 62
2
  6
CONTINUOUS
  3
STANDARD
 71
1
 72
0
 73
2
 75
0
 76
2
 10
803.2394659806
 20
1081.2535271535
 30
0.0
 10
842.3306982484
 20
1146.3743387942
 30
0.0
340
692
212
-11.9775204235
222
-19.9529614742
232
0.0
1001
ACAD
1000
DSTYLE
1002
{
1070
77
1070
0
1070
341
1005
218
1002
}
  0
INSERT
  5
692
102
{ACAD_REACTORS
330
691
102
}
100
AcDbEntity
  8
ALL_DETAIL_ITEM
100
AcDbBlockReference
 62
2
  6
CONTINUOUS
  2
POZ_FS_B2B_BL2
 10
854.3082186719
 20
1166.3273002683
  0
LINE
  5
693
100
AcDbEntity
  8
0
100
AcDbLine
 62
7
  6
CONTINUOUS
 10
0.0
 20
0.0
 11
1050.0
 21
0.0
  0
LINE
  5
694
100
AcDbEntity
  8
0
100
AcDbLine
 62
7
  6
CONTINUOUS
 10
0.0
 20
0.0
 11
0.0
 21
1485.0
  0
LINE
  5
695
100
AcDbEntity
  8
0
100
AcDbLine
 62
7
  6
CONTINUOUS
 10
1050.0
 20
0.0
 11
1050.0
 21
1485.0
  0
LINE
  5
696
100
AcDbEntity
  8
0
100
AcDbLine
 62
7
  6
CONTINUOUS
 10
0.0
 20
1485.0
 11
1050.0
 21
1485.0
  0
LINE
  5
697
100
AcDbEntity
  8
03___PRT_ALL_CURVES
100
AcDbLine
 62
7
  6
CONTINUOUS
 10
233.8828125
 20
795.5703125
 11
233.8828125
 21
1265.5703125
  0
LINE
  5
698
100
AcDbEntity
  8
03___PRT_ALL_CURVES
100
AcDbLine
 62
7
  6
CONTINUOUS
 10
238.8828125
 20
790.5703125
 11
798.8828125
 21
790.5703125
  0
LINE
  5
699
100
AcDbEntity
  8
03___PRT_ALL_CURVES
100
AcDbLine
 62
7
  6
CONTINUOUS
 10
238.8828125
 20
1270.5703125
 11
798.8828125
 21
1270.5703125
  0
LINE
  5
69A
100
AcDbEntity
  8
03___PRT_ALL_CURVES
100
AcDbLine
 62
7
  6
CONTINUOUS
 10
803.8828125
 20
795.5703125
 11
803.8828125
 21
1265.5703125
  0
ARC
  5
69B
100
AcDbEntity
  8
03___PRT_ALL_CURVES
100
AcDbCircle
 62
7
  6
CONTINUOUS
 10
238.8828125
 20
795.5703125
 40
5.0
100
AcDbArc
 50
180.0
 51
270.0
  0
ARC
  5
69C
100
AcDbEntity
  8
03___PRT_ALL_CURVES
100
AcDbCircle
 62
7
  6
CONTINUOUS
 10
798.8828125
 20
795.5703125
 40
5.0
100
AcDbArc
 50
270.0
 51
360.0
  0
ARC
  5
69D
100
AcDbEntity
  8
03___PRT_ALL_CURVES
100
AcDbCircle
 62
7
  6
CONTINUOUS
 10
798.8828125
 20
1265.5703125
 40
5.0
100
AcDbArc
 50
0.0
 51
90.0
  0
ARC
  5
69E
100
AcDbEntity
  8
03___PRT_ALL_CURVES
100
AcDbCircle
 62
7
  6
CONTINUOUS
 10
238.8828125
 20
1265.5703125
 40
5.0
100
AcDbArc
 50
90.0
 51
180.0
  0
ENDSEC
  0
SECTION
  2
OBJECTS
  0
DICTIONARY
  5
C
100
AcDbDictionary
280
0
281
1
  3
ACAD_GROUP
350
D
  3
ACAD_MLINESTYLE
350
17
  3
ACAD_LAYOUT
350
1A
  3
ACAD_PLOTSETTINGS
350
19
  3
ACAD_PLOTSTYLENAME
350
E
  0
DICTIONARY
  5
D
102
{ACAD_REACTORS
330
C
102
}
100
AcDbDictionary
280
0
281
1
  0
ACDBDICTIONARYWDFLT
  5
E
102
{ACAD_REACTORS
330
C
102
}
100
AcDbDictionary
281
1
  3
Normal
350
F
100
AcDbDictionaryWithDefault
340
F
  0
DICTIONARY
  5
17
102
{ACAD_REACTORS
330
C
102
}
100
AcDbDictionary
280
0
281
1
  3
Standard
350
18
  0
DICTIONARY
  5
19
102
{ACAD_REACTORS
330
C
102
}
100
AcDbDictionary
281
1
  0
DICTIONARY
  5
1A
102
{ACAD_REACTORS
330
C
102
}
100
AcDbDictionary
281
1
  3
Model
350
69F
  3
Layout1
350
6A0
  0
ACDBPLACEHOLDER
  5
F
102
{ACAD_REACTORS
330
E
102
}
  0
MLINESTYLE
  5
18
102
{ACAD_REACTORS
330
17
102
}
100
AcDbMlineStyle
  2
STANDARD
 70
0
  3

 62
256
 51
90.0
 52
90.0
 71
2
 49
0.5
 62
256
  6
BYLAYER
 49
-0.5
 62
256
  6
BYLAYER
  0
LAYOUT
  5
69F
102
{ACAD_REACTORS
330
1A
102
}
100
AcDbPlotSettings
  1

  2
none_device
  4

  6

 40
0.0
 41
0.0
 42
0.0
 43
0.0
 44
210.0
 45
297.0
 46
0.0
 47
0.0
 48
0.0
 49
0.0
140
0.0
141
0.0
142
1.0
143
1.0
 70
1024
 72
1
 73
0
 74
0
  7

 75
0
147
1.0
148
0.0
149
0.0
100
AcDbLayout
  1
Model
 70
0
 71
0
 10
0.0
 20
0.0
 11
210.0
 21
297.0
 12
0.0
 22
0.0
 32
0.0
 14
0.0
 24
0.0
 34
0.0
 15
0.0
 25
0.0
 35
0.0
146
0.0
 13
0.0
 23
0.0
 33
0.0
 16
1.0
 26
0.0
 36
0.0
 17
0.0
 27
1.0
 37
0.0
 76
0
330
215
345
0
346
0
  0
LAYOUT
  5
6A0
102
{ACAD_REACTORS
330
1A
102
}
100
AcDbPlotSettings
  1

  2
none_device
  4

  6

 40
0.0
 41
0.0
 42
0.0
 43
0.0
 44
210.0
 45
297.0
 46
0.0
 47
0.0
 48
0.0
 49
0.0
140
0.0
141
0.0
142
1.0
143
1.0
 70
0
 72
1
 73
0
 74
0
  7

 75
0
147
1.0
148
0.0
149
0.0
100
AcDbLayout
  1
Layout1
 70
0
 71
1
 10
0.0
 20
0.0
 11
210.0
 21
297.0
 12
0.0
 22
0.0
 32
0.0
 14
0.0
 24
0.0
 34
0.0
 15
0.0
 25
0.0
 35
0.0
146
0.0
 13
0.0
 23
0.0
 33
0.0
 16
1.0
 26
0.0
 36
0.0
 17
0.0
 27
1.0
 37
0.0
 76
0
330
216
345
0
346
0
  0
ENDSEC
  0
EOF
