999
DXF file: 1134877-izrez-atrox_30_g_u.dxf
999
Pro/ENGINEER 2017170 by Parametric Technology Corporation
  0
SECTION
  2
HEADER
  9
$ACADVER
  1
AC1018
  9
$DWGCODEPAGE
  3
ANSI_1250
  9
$EXTMAX
 10
1050.0
 20
1485.0
 30
0.0
  9
$EXTMIN
 10
0.0
 20
0.0
 30
0.0
  9
$LIMMIN
 10
0.0
 20
0.0
  9
$LIMMAX
 10
1050.0
 20
1485.0
  9
$VIEWCTR
 10
525.0
 20
742.5
  9
$VIEWSIZE
 40
1485.0
  9
$CLAYER
  8
0
  9
$LTSCALE
 40
96.8
  9
$CELTYPE
  6
BYLAYER
  9
$DIMSCALE
 40
1.0
  9
$DIMASZ
 40
17.5
  9
$DIMEXO
 40
0.0
  9
$DIMDLI
 40
66.88
  9
$DIMEXE
 40
1.0
  9
$DIMCEN
 40
15.84
  9
$DIMLFAC
 40
1.0
  9
$DIMBLK
  1
_FILLED
  9
$DIMALT
 70
0
  9
$DIMALTF
 40
25.4
  9
$DIMTXT
 40
17.5
  9
$DIMTOL
 70
1
  9
$DIMLIM
 70
0
  9
$DIMTFAC
 40
1.0
  9
$DIMTP
 40
0.005
  9
$DIMTM
 40
0.005
  9
$DIMGAP
 40
0.625
  9
$DIMDSEP
 70
46
  9
$AUNITS
 70
0
  9
$PDMODE
 70
3
  9
$PDSIZE
 40
1.0
  9
$HANDSEED
  5
5E2
  9
$TILEMODE
 70
1
  9
$MEASUREMENT
 70
1
  9
$INSUNITS
 70
4
  0
ENDSEC
  0
SECTION
  2
CLASSES
  0
CLASS
  1
ACDBDICTIONARYWDFLT
  2
AcDbDictionaryWithDefault
  3
AutoCAD 2000
 90
0
 91
1
280
0
281
0
  0
CLASS
  1
ACDBPLACEHOLDER
  2
AcDbPlaceHolder
  3
AutoCAD 2000
 90
0
 91
1
280
0
281
0
  0
CLASS
  1
LAYOUT
  2
AcDbLayout
  3
AutoCAD 2000
 90
0
 91
0
280
0
281
0
  0
ENDSEC
  0
SECTION
  2
TABLES
  0
TABLE
  2
VPORT
  5
8
100
AcDbSymbolTable
 70
2
  0
VPORT
  5
1F4
100
AcDbSymbolTableRecord
100
AcDbViewportTableRecord
  2
*ACTIVE
 70
0
 10
0.0
 20
0.0
 11
1.0
 21
1.0
 12
525.0
 22
742.5
 13
0.0
 23
0.0
 14
1.0
 24
1.0
 15
0.0
 25
0.0
 16
0.0
 26
0.0
 36
1.0
 17
0.0
 27
0.0
 37
0.0
 40
1485.0
 41
0.7070707071
 42
50.0
 43
0.0
 44
0.0
 50
0.0
 51
0.0
 71
0
 72
100
 73
1
 74
1
 75
0
 76
0
 77
0
 78
0
  0
ENDTAB
  0
TABLE
  2
LTYPE
  5
5
100
AcDbSymbolTable
 70
6
  0
LTYPE
  5
14
100
AcDbSymbolTableRecord
100
AcDbLinetypeTableRecord
  2
BYBLOCK
 70
0
  3

 72
65
 73
0
 40
0.0
  0
LTYPE
  5
15
100
AcDbSymbolTableRecord
100
AcDbLinetypeTableRecord
  2
BYLAYER
 70
0
  3

 72
65
 73
0
 40
0.0
  0
LTYPE
  5
16
100
AcDbSymbolTableRecord
100
AcDbLinetypeTableRecord
  2
CONTINUOUS
 70
64
  3
Solid line
 72
65
 73
0
 40
0.0
  0
LTYPE
  5
1F5
100
AcDbSymbolTableRecord
100
AcDbLinetypeTableRecord
  2
CENTER
 70
64
  3
____ _ ____ _ ____ _ ____ _ ____ _ ____ _ ____
 72
65
 73
4
 40
0.6
 49
0.375
 74
0
 49
-0.075
 74
0
 49
0.075
 74
0
 49
-0.075
 74
0
  0
LTYPE
  5
1F6
100
AcDbSymbolTableRecord
100
AcDbLinetypeTableRecord
  2
HIDDEN
 70
64
  3
- - - - - - - - - - - - - - - - - - - -
 72
65
 73
2
 40
0.2
 49
0.1
 74
0
 49
-0.1
 74
0
  0
LTYPE
  5
1F7
100
AcDbSymbolTableRecord
100
AcDbLinetypeTableRecord
  2
PHANTOM
 70
64
  3
_____ _ _ _____ _ _ _____ _ _ _____
 72
65
 73
6
 40
0.8
 49
0.45
 74
0
 49
-0.05
 74
0
 49
0.1
 74
0
 49
-0.05
 74
0
 49
0.1
 74
0
 49
-0.05
 74
0
  0
LTYPE
  5
1F8
100
AcDbSymbolTableRecord
100
AcDbLinetypeTableRecord
  2
DOT
 70
64
  3
. . . . . . . . . . . . . . . . . . . .
 72
65
 73
2
 40
0.2
 49
0.1
 74
0
 49
-0.1
 74
0
  0
LTYPE
  5
1F9
100
AcDbSymbolTableRecord
100
AcDbLinetypeTableRecord
  2
DASHED
 70
64
  3
- - - - - - - - - - - - - - - - - - - -
 72
65
 73
2
 40
0.2
 49
0.1
 74
0
 49
-0.1
 74
0
  0
ENDTAB
  0
TABLE
  2
LAYER
  5
2
100
AcDbSymbolTable
 70
36
  0
LAYER
  5
10
100
AcDbSymbolTableRecord
100
AcDbLayerTableRecord
  2
0
 70
0
 62
7
  6
CONTINUOUS
370
-3
390
F
  0
LAYER
  5
1FA
100
AcDbSymbolTableRecord
100
AcDbLayerTableRecord
  2
DEFAULT_1
 70
0
 62
7
  6
CENTER
370
-3
390
F
  0
LAYER
  5
1FB
100
AcDbSymbolTableRecord
100
AcDbLayerTableRecord
  2
DEFAULT_2
 70
0
 62
8
  6
HIDDEN
370
-3
390
F
  0
LAYER
  5
1FC
100
AcDbSymbolTableRecord
100
AcDbLayerTableRecord
  2
DEFAULT_3
 70
0
 62
7
  6
PHANTOM
370
-3
390
F
  0
LAYER
  5
1FD
100
AcDbSymbolTableRecord
100
AcDbLayerTableRecord
  2
01___PRT_ALL_DTM_PLN
 70
0
 62
7
  6
CONTINUOUS
370
-3
390
F
  0
LAYER
  5
1FE
100
AcDbSymbolTableRecord
100
AcDbLayerTableRecord
  2
01___PRT_DEF_DTM_PLN
 70
0
 62
7
  6
CONTINUOUS
370
-3
390
F
  0
LAYER
  5
1FF
100
AcDbSymbolTableRecord
100
AcDbLayerTableRecord
  2
02___PRT_ALL_AXES
 70
0
 62
7
  6
CONTINUOUS
370
-3
390
F
  0
LAYER
  5
200
100
AcDbSymbolTableRecord
100
AcDbLayerTableRecord
  2
03___PRT_ALL_CURVES
 70
0
 62
7
  6
CONTINUOUS
370
-3
390
F
  0
LAYER
  5
201
100
AcDbSymbolTableRecord
100
AcDbLayerTableRecord
  2
04___PRT_ALL_DTM_PNT
 70
0
 62
7
  6
CONTINUOUS
370
-3
390
F
  0
LAYER
  5
202
100
AcDbSymbolTableRecord
100
AcDbLayerTableRecord
  2
05___PRT_ALL_DTM_CSYS
 70
0
 62
7
  6
CONTINUOUS
370
-3
390
F
  0
LAYER
  5
203
100
AcDbSymbolTableRecord
100
AcDbLayerTableRecord
  2
05___PRT_DEF_DTM_CSYS
 70
0
 62
7
  6
CONTINUOUS
370
-3
390
F
  0
LAYER
  5
204
100
AcDbSymbolTableRecord
100
AcDbLayerTableRecord
  2
06___PRT_ALL_SURFS
 70
0
 62
7
  6
CONTINUOUS
370
-3
390
F
  0
LAYER
  5
205
100
AcDbSymbolTableRecord
100
AcDbLayerTableRecord
  2
ALL_AXIS
 70
0
 62
7
  6
CONTINUOUS
370
-3
390
F
  0
LAYER
  5
206
100
AcDbSymbolTableRecord
100
AcDbLayerTableRecord
  2
ALL_CURVE
 70
0
 62
7
  6
CONTINUOUS
370
-3
390
F
  0
LAYER
  5
207
100
AcDbSymbolTableRecord
100
AcDbLayerTableRecord
  2
ALL_CURVE_ENT
 70
0
 62
7
  6
CONTINUOUS
370
-3
390
F
  0
LAYER
  5
208
100
AcDbSymbolTableRecord
100
AcDbLayerTableRecord
  2
ALL_DETAIL_ITEM
 70
0
 62
7
  6
CONTINUOUS
370
-3
390
F
  0
LAYER
  5
209
100
AcDbSymbolTableRecord
100
AcDbLayerTableRecord
  2
ALL_DIM
 70
0
 62
7
  6
CONTINUOUS
370
-3
390
F
  0
LAYER
  5
20A
100
AcDbSymbolTableRecord
100
AcDbLayerTableRecord
  2
ALL_FEATURE
 70
0
 62
7
  6
CONTINUOUS
370
-3
390
F
  0
LAYER
  5
20B
100
AcDbSymbolTableRecord
100
AcDbLayerTableRecord
  2
ALL_GEOM_FEAT
 70
0
 62
7
  6
CONTINUOUS
370
-3
390
F
  0
LAYER
  5
20C
100
AcDbSymbolTableRecord
100
AcDbLayerTableRecord
  2
ALL_NOGEOM_FEAT
 70
0
 62
7
  6
CONTINUOUS
370
-3
390
F
  0
LAYER
  5
20D
100
AcDbSymbolTableRecord
100
AcDbLayerTableRecord
  2
ALL_NOTE
 70
0
 62
7
  6
CONTINUOUS
370
-3
390
F
  0
LAYER
  5
20E
100
AcDbSymbolTableRecord
100
AcDbLayerTableRecord
  2
ALL_PARAMETER_DIM
 70
0
 62
7
  6
CONTINUOUS
370
-3
390
F
  0
LAYER
  5
20F
100
AcDbSymbolTableRecord
100
AcDbLayerTableRecord
  2
ALL_PROTRUSION_FEAT
 70
0
 62
7
  6
CONTINUOUS
370
-3
390
F
  0
LAYER
  5
210
100
AcDbSymbolTableRecord
100
AcDbLayerTableRecord
  2
ALL_SNAP_LINE
 70
0
 62
7
  6
CONTINUOUS
370
-3
390
F
  0
LAYER
  5
211
100
AcDbSymbolTableRecord
100
AcDbLayerTableRecord
  2
ALL_SYMBOL
 70
0
 62
7
  6
CONTINUOUS
370
-3
390
F
  0
ENDTAB
  0
TABLE
  2
STYLE
  5
3
100
AcDbSymbolTable
 70
1
  0
STYLE
  5
11
100
AcDbSymbolTableRecord
100
AcDbTextStyleTableRecord
  2
STANDARD
 70
0
 40
0.0
 41
0.6
 50
0.0
 71
0
 42
0.2
  3
txt
  4

  0
STYLE
  5
212
100
AcDbSymbolTableRecord
100
AcDbTextStyleTableRecord
  2
TEXTSTYLE_1
 70
0
 40
0.0
 41
0.8
 50
0.0
 71
0
 42
0.2
  3
gdt
  4

  0
STYLE
  5
213
100
AcDbSymbolTableRecord
100
AcDbTextStyleTableRecord
  2
TEXTSTYLE_2
 70
0
 40
0.0
 41
0.761905
 50
0.0
 71
0
 42
0.2
  3
txt
  4

  0
STYLE
  5
214
100
AcDbSymbolTableRecord
100
AcDbTextStyleTableRecord
  2
TEXTSTYLE_3
 70
0
 40
0.0
 41
0.6
 50
0.0
 71
0
 42
0.2
  3
gdt
  4

  0
ENDTAB
  0
TABLE
  2
VIEW
  5
6
100
AcDbSymbolTable
 70
0
  0
ENDTAB
  0
TABLE
  2
UCS
  5
7
100
AcDbSymbolTable
 70
0
  0
ENDTAB
  0
TABLE
  2
APPID
  5
9
100
AcDbSymbolTable
 70
1
  0
APPID
  5
215
100
AcDbSymbolTableRecord
100
AcDbRegAppTableRecord
  2
ACAD
 70
0
  0
ENDTAB
  0
TABLE
  2
BLOCK_RECORD
  5
1
100
AcDbSymbolTable
 70
0
  0
BLOCK_RECORD
  5
216
100
AcDbSymbolTableRecord
100
AcDbBlockTableRecord
  2
*Model_Space
  0
BLOCK_RECORD
  5
217
100
AcDbSymbolTableRecord
100
AcDbBlockTableRecord
  2
*Paper_Space
  0
BLOCK_RECORD
  5
218
100
AcDbSymbolTableRecord
100
AcDbBlockTableRecord
  2
_FILLED
  0
BLOCK_RECORD
  5
219
100
AcDbSymbolTableRecord
100
AcDbBlockTableRecord
  2
_DOTBLANK
  0
BLOCK_RECORD
  5
21A
100
AcDbSymbolTableRecord
100
AcDbBlockTableRecord
  2
*D0
  0
BLOCK_RECORD
  5
21B
100
AcDbSymbolTableRecord
100
AcDbBlockTableRecord
  2
*D1
  0
BLOCK_RECORD
  5
21C
100
AcDbSymbolTableRecord
100
AcDbBlockTableRecord
  2
*D2
  0
BLOCK_RECORD
  5
21D
100
AcDbSymbolTableRecord
100
AcDbBlockTableRecord
  2
*D3
  0
BLOCK_RECORD
  5
21E
100
AcDbSymbolTableRecord
100
AcDbBlockTableRecord
  2
POZ_FS_B2B_BL2
  0
BLOCK_RECORD
  5
21F
100
AcDbSymbolTableRecord
100
AcDbBlockTableRecord
  2
U-ATROX_BL1
  0
BLOCK_RECORD
  5
220
100
AcDbSymbolTableRecord
100
AcDbBlockTableRecord
  2
B2B_NASLOV_RISBE_BL0
  0
ENDTAB
  0
TABLE
  2
DIMSTYLE
  5
A
100
AcDbSymbolTable
 70
1
100
AcDbDimStyleTable
 71
0
  0
DIMSTYLE
105
221
100
AcDbSymbolTableRecord
100
AcDbDimStyleTableRecord
  2
STANDARD
 70
0
  3

  4

 40
1.0
 41
17.5
 42
0.0
 43
0.38
 44
1.0
 45
0.0
 46
0.0
 47
0.005
 48
0.005
140
17.5
141
0.09
142
0.0
143
25.4
144
1.0
145
0.0
146
1.0
147
0.625
 71
1.0
 72
0.0
 73
0
 74
0
 75
0
 76
0
 77
1
 78
8
 79
2
170
0
171
2
172
0
173
0
174
0
175
0
176
0
177
0
178
5
270
2
179
3
271
3
272
3
273
2
274
2
275
0
280
0
281
0
282
0
283
1
284
8
285
0
286
0
287
3
288
0
340
11
278
46
341
218
342
218
343
218
344
218
  0
DIMSTYLE
105
222
100
AcDbSymbolTableRecord
100
AcDbDimStyleTableRecord
  2
DIMSTYLE_1
 70
0
  3
<>
  4

 40
1.0
 41
17.5
 42
0.0
 43
0.38
 44
1.0
 45
0.0
 46
0.0
 47
0.1
 48
0.1
140
17.5
141
0.09
142
0.0
143
25.4
144
1.0
145
0.0
146
1.0
147
0.625
 71
0.0
 72
0.0
 73
0
 74
0
 75
0
 76
0
 77
1
 78
8
 79
2
170
0
171
2
172
0
173
0
174
0
175
0
176
0
177
0
178
5
270
2
179
3
271
3
272
3
273
2
274
2
275
0
280
0
281
0
282
0
283
1
284
8
285
0
286
0
287
3
288
0
340
11
278
46
341
218
342
218
343
218
344
218
  0
DIMSTYLE
105
223
100
AcDbSymbolTableRecord
100
AcDbDimStyleTableRecord
  2
DIMSTYLE_2
 70
0
  3

  4

 40
1.0
 41
17.5
 42
0.0
 43
0.38
 44
1.0
 45
0.0
 46
0.0
 47
1.0
 48
0.0
140
17.5
141
0.09
142
0.0
143
25.4
144
1.0
145
0.0
146
0.6
147
0.875
 71
1.0
 72
0.0
 73
0
 74
0
 75
0
 76
0
 77
1
 78
8
 79
2
170
0
171
2
172
0
173
0
174
0
175
0
176
0
177
0
178
5
270
2
179
3
271
3
272
3
273
2
274
2
275
0
280
0
281
0
282
0
283
1
284
8
285
0
286
0
287
3
288
0
340
11
278
46
341
218
342
218
343
218
344
218
  0
DIMSTYLE
105
224
100
AcDbSymbolTableRecord
100
AcDbDimStyleTableRecord
  2
DIMSTYLE_3
 70
0
  3
<>
  4

 40
1.0
 41
17.5
 42
0.0
 43
0.38
 44
1.0
 45
0.0
 46
0.0
 47
0.3
 48
0.3
140
17.5
141
0.09
142
0.0
143
25.4
144
1.0
145
0.0
146
1.0
147
0.625
 71
0.0
 72
0.0
 73
0
 74
0
 75
0
 76
0
 77
1
 78
8
 79
2
170
0
171
2
172
0
173
0
174
0
175
0
176
0
177
0
178
5
270
2
179
3
271
3
272
3
273
2
274
2
275
0
280
0
281
0
282
0
283
1
284
8
285
0
286
0
287
3
288
0
340
11
278
46
341
218
342
218
343
218
344
218
  0
ENDTAB
  0
ENDSEC
  0
SECTION
  2
BLOCKS
  0
BLOCK
  5
20
100
AcDbEntity
  8
0
100
AcDbBlockBegin
  2
*Model_Space
 70
0
 10
0.0
 20
0.0
 30
0.0
  3
*Model_Space
  1

  0
ENDBLK
  5
21
100
AcDbEntity
  8
0
100
AcDbBlockEnd
  0
BLOCK
  5
1C
100
AcDbEntity
  8
0
100
AcDbBlockBegin
  2
*Paper_Space
 70
0
 10
0.0
 20
0.0
 30
0.0
  3
*Paper_Space
  1

  0
ENDBLK
  5
1D
100
AcDbEntity
  8
0
100
AcDbBlockEnd
  0
BLOCK
  5
225
100
AcDbEntity
  8
ALL_DETAIL_ITEM
100
AcDbBlockBegin
 62
2
  6
CONTINUOUS
  2
POZ_FS_B2B_BL2
 70
64
 10
815.9332186719
 20
1128.829580913
  3
POZ_FS_B2B_BL2
  1

  0
TEXT
  5
226
100
AcDbEntity
  8
ALL_DETAIL_ITEM
100
AcDbText
 62
5
  6
CONTINUOUS
 10
807.3713596241
 20
1116.732428913
  7
TEXTSTYLE_2
 40
25.0
  1
1
 41
0.7619047619
 72
0
100
AcDbText
  0
CIRCLE
  5
227
100
AcDbEntity
  8
ALL_DETAIL_ITEM
100
AcDbCircle
 62
2
  6
CONTINUOUS
 10
815.9332186719
 20
1128.829580913
 40
23.2719072507
  0
ENDBLK
  5
228
100
AcDbEntity
  8
0
  6
BYBLOCK
 62
0
100
AcDbBlockEnd
  0
BLOCK
  5
229
100
AcDbEntity
  8
ALL_DETAIL_ITEM
100
AcDbBlockBegin
 62
2
  6
CONTINUOUS
  2
U-ATROX_BL1
 70
64
 10
316.72521328
 20
420.0327268
  3
U-ATROX_BL1
  1

  0
TEXT
  5
22A
100
AcDbEntity
  8
ALL_DETAIL_ITEM
100
AcDbText
 62
5
  6
CONTINUOUS
 10
160.9832218318
 20
568.161120007
  7
TEXTSTYLE_2
 40
25.0
  1
1
 41
0.7619047619
 72
0
100
AcDbText
  0
TEXT
  5
22B
100
AcDbEntity
  8
ALL_DETAIL_ITEM
100
AcDbText
 62
5
  6
CONTINUOUS
 10
250.9249119972
 20
588.784176387
  7
STANDARD
 40
17.5
  1
45
 41
0.75
 72
0
100
AcDbText
  0
TEXT
  5
22C
100
AcDbEntity
  8
ALL_DETAIL_ITEM
100
AcDbText
 62
5
  6
CONTINUOUS
 10
277.1749119974
 20
591.409176387
  7
TEXTSTYLE_3
 40
12.25
  1
`
 41
1.0
 72
0
100
AcDbText
  0
TEXT
  5
22D
100
AcDbEntity
  8
ALL_DETAIL_ITEM
100
AcDbText
 62
5
  6
CONTINUOUS
 10
291.466578664
 20
591.409176387
  7
STANDARD
 40
12.25
  1
1
 41
0.5714285714
 72
0
100
AcDbText
  0
TEXT
  5
22E
100
AcDbEntity
  8
ALL_DETAIL_ITEM
100
AcDbText
 62
5
  6
CONTINUOUS
 10
473.4272529307
 20
361.071614506
  7
STANDARD
 40
17.5
  1
14
 50
90.0
 41
0.6785714286
 72
0
100
AcDbText
  0
TEXT
  5
22F
100
AcDbEntity
  8
ALL_DETAIL_ITEM
100
AcDbText
 62
5
  6
CONTINUOUS
 10
462.9272529307
 20
384.821614506
  7
STANDARD
 40
10.5
  1
+1
 50
90.0
 41
0.6428571429
 72
0
100
AcDbText
  0
TEXT
  5
230
100
AcDbEntity
  8
ALL_DETAIL_ITEM
100
AcDbText
 62
5
  6
CONTINUOUS
 10
249.1199958694
 20
555.659176387
  7
TEXTSTYLE_3
 40
17.5
  1
n
 41
1.0
 72
0
100
AcDbText
  0
TEXT
  5
231
100
AcDbEntity
  8
ALL_DETAIL_ITEM
100
AcDbText
 62
5
  6
CONTINUOUS
 10
272.4533292027
 20
555.659176387
  7
STANDARD
 40
17.5
  1
8
 41
0.7857142857
 72
0
100
AcDbText
  0
TEXT
  5
232
100
AcDbEntity
  8
ALL_DETAIL_ITEM
100
AcDbText
 62
5
  6
CONTINUOUS
 10
286.2033292027
 20
566.159176387
  7
STANDARD
 40
10.5
  1
+0.2
 41
0.7142857143
 72
0
100
AcDbText
  0
TEXT
  5
233
100
AcDbEntity
  8
ALL_DETAIL_ITEM
100
AcDbText
 62
5
  6
CONTINUOUS
 10
260.7374119974
 20
626.284176387
  7
STANDARD
 40
17.5
  1
min 65
 41
0.7420634921
 72
0
100
AcDbText
  0
CIRCLE
  5
234
100
AcDbEntity
  8
ALL_DETAIL_ITEM
100
AcDbCircle
 62
2
  6
CONTINUOUS
 10
169.5450808798
 20
580.258272007
 40
23.2719072505
  0
LINE
  5
235
100
AcDbEntity
  8
ALL_DETAIL_ITEM
100
AcDbLine
 62
2
  6
CONTINUOUS
 10
218.4458085
 20
467.0103870255
 11
177.0211936642
 21
558.2199427503
  0
CIRCLE
  5
236
100
AcDbEntity
  8
ALL_DETAIL_ITEM
100
AcDbCircle
 62
2
  6
CONTINUOUS
 10
218.4456636036
 20
467.0123592068
 40
1.9328519331
  0
LINE
  5
237
100
AcDbEntity
  8
ALL_DETAIL_ITEM
100
AcDbLine
 62
9
  6
CONTINUOUS
 10
189.4677231337
 20
401.3625238943
 11
189.4677231337
 21
405.9259836563
  0
LINE
  5
238
100
AcDbEntity
  8
ALL_DETAIL_ITEM
100
AcDbLine
 62
9
  6
CONTINUOUS
 10
179.0665080222
 20
282.4760911573
 11
189.4677231337
 21
401.3625238943
  0
LINE
  5
239
100
AcDbEntity
  8
ALL_DETAIL_ITEM
100
AcDbLine
 62
9
  6
CONTINUOUS
 10
203.0108018855
 20
413.8286535813
 11
203.0939939842
 21
414.7795436198
  0
LINE
  5
23A
100
AcDbEntity
  8
ALL_DETAIL_ITEM
100
AcDbLine
 62
9
  6
CONTINUOUS
 10
203.0108018855
 20
409.2651938193
 11
203.0108018855
 21
413.8286535813
  0
LINE
  5
23B
100
AcDbEntity
  8
ALL_DETAIL_ITEM
100
AcDbLine
 62
9
  6
CONTINUOUS
 10
203.0939939842
 20
414.7795436198
 11
203.0939939842
 21
419.343764906
  0
LINE
  5
23C
100
AcDbEntity
  8
ALL_DETAIL_ITEM
100
AcDbLine
 62
9
  6
CONTINUOUS
 10
203.4457453307
 20
519.343764906
 11
203.4457453307
 21
419.343764906
  0
LINE
  5
23D
100
AcDbEntity
  8
ALL_DETAIL_ITEM
100
AcDbLine
 62
9
  6
CONTINUOUS
 10
210.4708348517
 20
409.134579532
 11
210.1773886227
 21
405.7804620613
  0
LINE
  5
23E
100
AcDbEntity
  8
ALL_DETAIL_ITEM
100
AcDbLine
 62
9
  6
CONTINUOUS
 10
243.2595412327
 20
358.9949825373
 11
245.1275320557
 21
380.3462153453
  0
LINE
  5
23F
100
AcDbEntity
  8
ALL_DETAIL_ITEM
100
AcDbLine
 62
9
  6
CONTINUOUS
 10
245.1275320557
 20
380.3462153453
 11
245.2018572632
 21
380.9304423968
  0
LINE
  5
240
100
AcDbEntity
  8
ALL_DETAIL_ITEM
100
AcDbLine
 62
9
  6
CONTINUOUS
 10
245.2018572632
 20
380.9304423968
 11
245.321712585
 21
381.5067138145
  0
LINE
  5
241
100
AcDbEntity
  8
ALL_DETAIL_ITEM
100
AcDbLine
 62
9
  6
CONTINUOUS
 10
245.321712585
 20
381.5067138145
 11
245.4863762897
 21
382.0717650785
  0
LINE
  5
242
100
AcDbEntity
  8
ALL_DETAIL_ITEM
100
AcDbLine
 62
9
  6
CONTINUOUS
 10
245.4863762897
 20
382.0717650785
 11
245.6948182567
 21
382.6221150238
  0
LINE
  5
243
100
AcDbEntity
  8
ALL_DETAIL_ITEM
100
AcDbLine
 62
9
  6
CONTINUOUS
 10
245.6948182567
 20
382.6221150238
 11
245.9457453307
 21
383.1543802023
  0
LINE
  5
244
100
AcDbEntity
  8
ALL_DETAIL_ITEM
100
AcDbLine
 62
9
  6
CONTINUOUS
 10
242.445683604
 20
354.343764906
 11
243.2595412327
 21
358.9949825373
  0
LINE
  5
245
100
AcDbEntity
  8
ALL_DETAIL_ITEM
100
AcDbLine
 62
9
  6
CONTINUOUS
 10
252.5989922912
 20
387.1925472745
 11
252.5989922912
 21
391.843764906
  0
LINE
  5
246
100
AcDbEntity
  8
ALL_DETAIL_ITEM
100
AcDbLine
 62
9
  6
CONTINUOUS
 10
254.0256006115
 20
354.343764906
 11
254.0256006115
 21
358.9949825373
  0
LINE
  5
247
100
AcDbEntity
  8
ALL_DETAIL_ITEM
100
AcDbLine
 62
9
  6
CONTINUOUS
 10
264.2886748547
 20
387.1925472745
 11
263.2518028687
 21
384.343764906
  0
LINE
  5
248
100
AcDbEntity
  8
ALL_DETAIL_ITEM
100
AcDbLine
 62
9
  6
CONTINUOUS
 10
261.2499665802
 20
378.843764906
 11
254.0256006115
 21
358.9949825373
  0
LINE
  5
249
100
AcDbEntity
  8
ALL_DETAIL_ITEM
100
AcDbLine
 62
9
  6
CONTINUOUS
 10
246.7154422605
 20
384.343764906
 11
247.1161755752
 21
384.8100374118
  0
LINE
  5
24A
100
AcDbEntity
  8
ALL_DETAIL_ITEM
100
AcDbLine
 62
9
  6
CONTINUOUS
 10
247.1161755752
 20
384.8100374118
 11
247.5537107477
 21
385.2418821315
  0
LINE
  5
24B
100
AcDbEntity
  8
ALL_DETAIL_ITEM
100
AcDbLine
 62
9
  6
CONTINUOUS
 10
247.5537107477
 20
385.2418821315
 11
248.0251015472
 21
385.6364101993
  0
LINE
  5
24C
100
AcDbEntity
  8
ALL_DETAIL_ITEM
100
AcDbLine
 62
9
  6
CONTINUOUS
 10
248.0251015472
 20
385.6364101993
 11
248.527178206
 21
385.990984677
  0
LINE
  5
24D
100
AcDbEntity
  8
ALL_DETAIL_ITEM
100
AcDbLine
 62
9
  6
CONTINUOUS
 10
248.527178206
 20
385.990984677
 11
249.056567505
 21
386.303236514
  0
LINE
  5
24E
100
AcDbEntity
  8
ALL_DETAIL_ITEM
100
AcDbLine
 62
9
  6
CONTINUOUS
 10
249.056567505
 20
386.303236514
 11
249.6097175207
 21
386.5710808153
  0
LINE
  5
24F
100
AcDbEntity
  8
ALL_DETAIL_ITEM
100
AcDbLine
 62
9
  6
CONTINUOUS
 10
249.6097175207
 20
386.5710808153
 11
250.182913367
 21
386.7927271778
  0
LINE
  5
250
100
AcDbEntity
  8
ALL_DETAIL_ITEM
100
AcDbLine
 62
9
  6
CONTINUOUS
 10
250.182913367
 20
386.7927271778
 11
250.772334825
 21
386.9667011025
  0
LINE
  5
251
100
AcDbEntity
  8
ALL_DETAIL_ITEM
100
AcDbLine
 62
9
  6
CONTINUOUS
 10
250.772334825
 20
386.9667011025
 11
251.374207274
 21
387.091864997
  0
LINE
  5
252
100
AcDbEntity
  8
ALL_DETAIL_ITEM
100
AcDbLine
 62
9
  6
CONTINUOUS
 10
251.374207274
 20
387.091864997
 11
251.9844837805
 21
387.167329837
  0
LINE
  5
253
100
AcDbEntity
  8
ALL_DETAIL_ITEM
100
AcDbLine
 62
9
  6
CONTINUOUS
 10
251.9844837805
 20
387.167329837
 11
252.5989922912
 21
387.1925472745
  0
LINE
  5
254
100
AcDbEntity
  8
ALL_DETAIL_ITEM
100
AcDbLine
 62
9
  6
CONTINUOUS
 10
264.2886748547
 20
387.1925472745
 11
264.2886748547
 21
391.843764906
  0
LINE
  5
255
100
AcDbEntity
  8
ALL_DETAIL_ITEM
100
AcDbLine
 62
9
  6
CONTINUOUS
 10
269.978095394
 20
388.5538621033
 11
269.9947926305
 21
388.6817003493
  0
LINE
  5
256
100
AcDbEntity
  8
ALL_DETAIL_ITEM
100
AcDbLine
 62
9
  6
CONTINUOUS
 10
269.9947926305
 20
388.6817003493
 11
269.959845353
 21
388.8287786913
  0
LINE
  5
257
100
AcDbEntity
  8
ALL_DETAIL_ITEM
100
AcDbLine
 62
9
  6
CONTINUOUS
 10
269.959845353
 20
388.8287786913
 11
269.8857520892
 21
388.9951776175
  0
LINE
  5
258
100
AcDbEntity
  8
ALL_DETAIL_ITEM
100
AcDbLine
 62
9
  6
CONTINUOUS
 10
269.8857520892
 20
388.9951776175
 11
269.7852382197
 21
389.1852105798
  0
LINE
  5
259
100
AcDbEntity
  8
ALL_DETAIL_ITEM
100
AcDbLine
 62
9
  6
CONTINUOUS
 10
269.7852382197
 20
389.1852105798
 11
269.664690002
 21
389.405164043
  0
LINE
  5
25A
100
AcDbEntity
  8
ALL_DETAIL_ITEM
100
AcDbLine
 62
9
  6
CONTINUOUS
 10
269.664690002
 20
389.405164043
 11
269.5290143802
 21
389.6570705593
  0
LINE
  5
25B
100
AcDbEntity
  8
ALL_DETAIL_ITEM
100
AcDbLine
 62
9
  6
CONTINUOUS
 10
269.5290143802
 20
389.6570705593
 11
269.3835927502
 21
389.9372000178
  0
LINE
  5
25C
100
AcDbEntity
  8
ALL_DETAIL_ITEM
100
AcDbLine
 62
9
  6
CONTINUOUS
 10
269.3835927502
 20
389.9372000178
 11
269.2375615697
 21
390.2288802363
  0
LINE
  5
25D
100
AcDbEntity
  8
ALL_DETAIL_ITEM
100
AcDbLine
 62
9
  6
CONTINUOUS
 10
269.2375615697
 20
390.2288802363
 11
269.0990068702
 21
390.5113973963
  0
LINE
  5
25E
100
AcDbEntity
  8
ALL_DETAIL_ITEM
100
AcDbLine
 62
9
  6
CONTINUOUS
 10
269.0990068702
 20
390.5113973963
 11
268.9696873837
 21
390.773828168
  0
LINE
  5
25F
100
AcDbEntity
  8
ALL_DETAIL_ITEM
100
AcDbLine
 62
9
  6
CONTINUOUS
 10
268.9696873837
 20
390.773828168
 11
268.8475010305
 21
391.0128045535
  0
LINE
  5
260
100
AcDbEntity
  8
ALL_DETAIL_ITEM
100
AcDbLine
 62
9
  6
CONTINUOUS
 10
268.8475010305
 20
391.0128045535
 11
268.7303248182
 21
391.2254467368
  0
LINE
  5
261
100
AcDbEntity
  8
ALL_DETAIL_ITEM
100
AcDbLine
 62
9
  6
CONTINUOUS
 10
268.7303248182
 20
391.2254467368
 11
268.6162161737
 21
391.409201844
  0
LINE
  5
262
100
AcDbEntity
  8
ALL_DETAIL_ITEM
100
AcDbLine
 62
9
  6
CONTINUOUS
 10
268.6162161737
 20
391.409201844
 11
268.5032187277
 21
391.562296525
  0
LINE
  5
263
100
AcDbEntity
  8
ALL_DETAIL_ITEM
100
AcDbLine
 62
9
  6
CONTINUOUS
 10
268.5032187277
 20
391.562296525
 11
268.3894193285
 21
391.683421732
  0
LINE
  5
264
100
AcDbEntity
  8
ALL_DETAIL_ITEM
100
AcDbLine
 62
9
  6
CONTINUOUS
 10
268.3894193285
 20
391.683421732
 11
268.2725097037
 21
391.7717733718
  0
LINE
  5
265
100
AcDbEntity
  8
ALL_DETAIL_ITEM
100
AcDbLine
 62
9
  6
CONTINUOUS
 10
268.2725097037
 20
391.7717733718
 11
268.1509671522
 21
391.8257108373
  0
LINE
  5
266
100
AcDbEntity
  8
ALL_DETAIL_ITEM
100
AcDbLine
 62
9
  6
CONTINUOUS
 10
268.1509671522
 20
391.8257108373
 11
268.0245838065
 21
391.8437648515
  0
LINE
  5
267
100
AcDbEntity
  8
ALL_DETAIL_ITEM
100
AcDbLine
 62
9
  6
CONTINUOUS
 10
264.2886748547
 20
387.1925472745
 11
264.796717279
 21
387.3371582788
  0
LINE
  5
268
100
AcDbEntity
  8
ALL_DETAIL_ITEM
100
AcDbLine
 62
9
  6
CONTINUOUS
 10
264.796717279
 20
387.3371582788
 11
265.29111314
 21
387.4758820565
  0
LINE
  5
269
100
AcDbEntity
  8
ALL_DETAIL_ITEM
100
AcDbLine
 62
9
  6
CONTINUOUS
 10
265.29111314
 20
387.4758820565
 11
265.7753055437
 21
387.6097743003
  0
LINE
  5
26A
100
AcDbEntity
  8
ALL_DETAIL_ITEM
100
AcDbLine
 62
9
  6
CONTINUOUS
 10
265.7753055437
 20
387.6097743003
 11
266.2442724637
 21
387.7374504883
  0
LINE
  5
26B
100
AcDbEntity
  8
ALL_DETAIL_ITEM
100
AcDbLine
 62
9
  6
CONTINUOUS
 10
266.2442724637
 20
387.7374504883
 11
266.6946722567
 21
387.8580510098
  0
LINE
  5
26C
100
AcDbEntity
  8
ALL_DETAIL_ITEM
100
AcDbLine
 62
9
  6
CONTINUOUS
 10
266.6946722567
 20
387.8580510098
 11
267.1237373855
 21
387.9708753275
  0
LINE
  5
26D
100
AcDbEntity
  8
ALL_DETAIL_ITEM
100
AcDbLine
 62
9
  6
CONTINUOUS
 10
267.1237373855
 20
387.9708753275
 11
267.5291235977
 21
388.0753524715
  0
LINE
  5
26E
100
AcDbEntity
  8
ALL_DETAIL_ITEM
100
AcDbLine
 62
9
  6
CONTINUOUS
 10
267.5291235977
 20
388.0753524715
 11
267.9087315325
 21
388.1709845048
  0
LINE
  5
26F
100
AcDbEntity
  8
ALL_DETAIL_ITEM
100
AcDbLine
 62
9
  6
CONTINUOUS
 10
267.9087315325
 20
388.1709845048
 11
268.2606501485
 21
388.2573328373
  0
LINE
  5
270
100
AcDbEntity
  8
ALL_DETAIL_ITEM
100
AcDbLine
 62
9
  6
CONTINUOUS
 10
268.2606501485
 20
388.2573328373
 11
268.5831012935
 21
388.3340045843
  0
LINE
  5
271
100
AcDbEntity
  8
ALL_DETAIL_ITEM
100
AcDbLine
 62
9
  6
CONTINUOUS
 10
268.5831012935
 20
388.3340045843
 11
268.8744502847
 21
388.4006578703
  0
LINE
  5
272
100
AcDbEntity
  8
ALL_DETAIL_ITEM
100
AcDbLine
 62
9
  6
CONTINUOUS
 10
268.8744502847
 20
388.4006578703
 11
269.1334618225
 21
388.4570602633
  0
LINE
  5
273
100
AcDbEntity
  8
ALL_DETAIL_ITEM
100
AcDbLine
 62
9
  6
CONTINUOUS
 10
269.1334618225
 20
388.4570602633
 11
269.3594248
 21
388.5031020853
  0
LINE
  5
274
100
AcDbEntity
  8
ALL_DETAIL_ITEM
100
AcDbLine
 62
9
  6
CONTINUOUS
 10
269.3594248
 20
388.5031020853
 11
269.5518403722
 21
388.538705349
  0
LINE
  5
275
100
AcDbEntity
  8
ALL_DETAIL_ITEM
100
AcDbLine
 62
9
  6
CONTINUOUS
 10
269.5518403722
 20
388.538705349
 11
269.7097501312
 21
388.5636933985
  0
LINE
  5
276
100
AcDbEntity
  8
ALL_DETAIL_ITEM
100
AcDbLine
 62
9
  6
CONTINUOUS
 10
269.7097501312
 20
388.5636933985
 11
269.8319035317
 21
388.5778706215
  0
LINE
  5
277
100
AcDbEntity
  8
ALL_DETAIL_ITEM
100
AcDbLine
 62
9
  6
CONTINUOUS
 10
269.8319035317
 20
388.5778706215
 11
269.9183170252
 21
388.5811657378
  0
LINE
  5
278
100
AcDbEntity
  8
ALL_DETAIL_ITEM
100
AcDbLine
 62
9
  6
CONTINUOUS
 10
269.9183170252
 20
388.5811657378
 11
269.967613358
 21
388.573218824
  0
LINE
  5
279
100
AcDbEntity
  8
ALL_DETAIL_ITEM
100
AcDbLine
 62
9
  6
CONTINUOUS
 10
269.967613358
 20
388.573218824
 11
269.978095984
 21
388.5538637245
  0
LINE
  5
27A
100
AcDbEntity
  8
ALL_DETAIL_ITEM
100
AcDbLine
 62
9
  6
CONTINUOUS
 10
214.3268815082
 20
400.8400667453
 11
214.2721627015
 21
400.9055227858
  0
LINE
  5
27B
100
AcDbEntity
  8
ALL_DETAIL_ITEM
100
AcDbLine
 62
9
  6
CONTINUOUS
 10
214.2721627015
 20
400.9055227858
 11
214.09669972
 21
400.9685268418
  0
LINE
  5
27C
100
AcDbEntity
  8
ALL_DETAIL_ITEM
100
AcDbLine
 62
9
  6
CONTINUOUS
 10
214.09669972
 20
400.9685268418
 11
213.8013330215
 21
401.028796141
  0
LINE
  5
27D
100
AcDbEntity
  8
ALL_DETAIL_ITEM
100
AcDbLine
 62
9
  6
CONTINUOUS
 10
213.8013330215
 20
401.028796141
 11
213.3878833602
 21
401.0859927058
  0
LINE
  5
27E
100
AcDbEntity
  8
ALL_DETAIL_ITEM
100
AcDbLine
 62
9
  6
CONTINUOUS
 10
213.3878833602
 20
401.0859927058
 11
212.8592011985
 21
401.1397991178
  0
LINE
  5
27F
100
AcDbEntity
  8
ALL_DETAIL_ITEM
100
AcDbLine
 62
9
  6
CONTINUOUS
 10
212.8592011985
 20
401.1397991178
 11
212.2216503312
 21
401.1897532988
  0
LINE
  5
280
100
AcDbEntity
  8
ALL_DETAIL_ITEM
100
AcDbLine
 62
9
  6
CONTINUOUS
 10
212.2216503312
 20
401.1897532988
 11
211.485679088
 21
401.2353950503
  0
LINE
  5
281
100
AcDbEntity
  8
ALL_DETAIL_ITEM
100
AcDbLine
 62
9
  6
CONTINUOUS
 10
211.485679088
 20
401.2353950503
 11
210.6568781495
 21
401.2767503013
  0
LINE
  5
282
100
AcDbEntity
  8
ALL_DETAIL_ITEM
100
AcDbLine
 62
9
  6
CONTINUOUS
 10
210.6568781495
 20
401.2767503013
 11
209.733756336
 21
401.31407283
  0
LINE
  5
283
100
AcDbEntity
  8
ALL_DETAIL_ITEM
100
AcDbLine
 62
9
  6
CONTINUOUS
 10
209.733756336
 20
401.31407283
 11
208.7174292305
 21
401.3473333035
  0
LINE
  5
284
100
AcDbEntity
  8
ALL_DETAIL_ITEM
100
AcDbLine
 62
9
  6
CONTINUOUS
 10
208.7174292305
 20
401.3473333035
 11
207.613707676
 21
401.3763328918
  0
LINE
  5
285
100
AcDbEntity
  8
ALL_DETAIL_ITEM
100
AcDbLine
 62
9
  6
CONTINUOUS
 10
207.613707676
 20
401.3763328918
 11
206.4279831882
 21
401.4009380883
  0
LINE
  5
286
100
AcDbEntity
  8
ALL_DETAIL_ITEM
100
AcDbLine
 62
9
  6
CONTINUOUS
 10
206.4279831882
 20
401.4009380883
 11
205.164861159
 21
401.421057706
  0
LINE
  5
287
100
AcDbEntity
  8
ALL_DETAIL_ITEM
100
AcDbLine
 62
9
  6
CONTINUOUS
 10
205.164861159
 20
401.421057706
 11
203.8294374157
 21
401.4366056543
  0
LINE
  5
288
100
AcDbEntity
  8
ALL_DETAIL_ITEM
100
AcDbLine
 62
9
  6
CONTINUOUS
 10
203.8294374157
 20
401.4366056543
 11
202.4279089707
 21
401.4475035755
  0
LINE
  5
289
100
AcDbEntity
  8
ALL_DETAIL_ITEM
100
AcDbLine
 62
9
  6
CONTINUOUS
 10
202.4279089707
 20
401.4475035755
 11
200.9667592032
 21
401.4536980148
  0
LINE
  5
28A
100
AcDbEntity
  8
ALL_DETAIL_ITEM
100
AcDbLine
 62
9
  6
CONTINUOUS
 10
200.9667592032
 20
401.4536980148
 11
199.451716709
 21
401.4551590253
  0
LINE
  5
28B
100
AcDbEntity
  8
ALL_DETAIL_ITEM
100
AcDbLine
 62
9
  6
CONTINUOUS
 10
199.451716709
 20
401.4551590253
 11
197.8884423117
 21
401.451867056
  0
LINE
  5
28C
100
AcDbEntity
  8
ALL_DETAIL_ITEM
100
AcDbLine
 62
9
  6
CONTINUOUS
 10
197.8884423117
 20
401.451867056
 11
196.28396333
 21
401.443819162
  0
LINE
  5
28D
100
AcDbEntity
  8
ALL_DETAIL_ITEM
100
AcDbLine
 62
9
  6
CONTINUOUS
 10
196.28396333
 20
401.443819162
 11
194.6481574695
 21
401.4310596498
  0
LINE
  5
28E
100
AcDbEntity
  8
ALL_DETAIL_ITEM
100
AcDbLine
 62
9
  6
CONTINUOUS
 10
194.6481574695
 20
401.4310596498
 11
192.958516086
 21
401.413298067
  0
LINE
  5
28F
100
AcDbEntity
  8
ALL_DETAIL_ITEM
100
AcDbLine
 62
9
  6
CONTINUOUS
 10
192.958516086
 20
401.413298067
 11
191.22330292
 21
401.3903935145
  0
LINE
  5
290
100
AcDbEntity
  8
ALL_DETAIL_ITEM
100
AcDbLine
 62
9
  6
CONTINUOUS
 10
191.22330292
 20
401.3903935145
 11
189.4677231337
 21
401.3625238943
  0
LINE
  5
291
100
AcDbEntity
  8
ALL_DETAIL_ITEM
100
AcDbLine
 62
9
  6
CONTINUOUS
 10
281.196833229
 20
398.093764906
 11
281.1968332577
 21
398.8008310773
  0
LINE
  5
292
100
AcDbEntity
  8
ALL_DETAIL_ITEM
100
AcDbLine
 62
9
  6
CONTINUOUS
 10
258.7240637155
 20
357.6336641893
 11
258.6830603547
 21
357.6101246243
  0
LINE
  5
293
100
AcDbEntity
  8
ALL_DETAIL_ITEM
100
AcDbLine
 62
9
  6
CONTINUOUS
 10
258.6830603547
 20
357.6101246243
 11
258.5852474027
 21
357.6077230278
  0
LINE
  5
294
100
AcDbEntity
  8
ALL_DETAIL_ITEM
100
AcDbLine
 62
9
  6
CONTINUOUS
 10
258.5852474027
 20
357.6077230278
 11
258.4318205017
 21
357.6264959088
  0
LINE
  5
295
100
AcDbEntity
  8
ALL_DETAIL_ITEM
100
AcDbLine
 62
9
  6
CONTINUOUS
 10
258.4318205017
 20
357.6264959088
 11
258.2246485785
 21
357.6662148148
  0
LINE
  5
296
100
AcDbEntity
  8
ALL_DETAIL_ITEM
100
AcDbLine
 62
9
  6
CONTINUOUS
 10
258.2246485785
 20
357.6662148148
 11
257.9662602135
 21
357.7263951133
  0
LINE
  5
297
100
AcDbEntity
  8
ALL_DETAIL_ITEM
100
AcDbLine
 62
9
  6
CONTINUOUS
 10
257.9662602135
 20
357.7263951133
 11
257.6598066227
 21
357.8063028568
  0
LINE
  5
298
100
AcDbEntity
  8
ALL_DETAIL_ITEM
100
AcDbLine
 62
9
  6
CONTINUOUS
 10
257.6598066227
 20
357.8063028568
 11
257.3090257882
 21
357.904963374
  0
LINE
  5
299
100
AcDbEntity
  8
ALL_DETAIL_ITEM
100
AcDbLine
 62
9
  6
CONTINUOUS
 10
257.3090257882
 20
357.904963374
 11
256.91819607
 21
358.0211733398
  0
LINE
  5
29A
100
AcDbEntity
  8
ALL_DETAIL_ITEM
100
AcDbLine
 62
9
  6
CONTINUOUS
 10
256.91819607
 20
358.0211733398
 11
256.492084464
 21
358.1535153363
  0
LINE
  5
29B
100
AcDbEntity
  8
ALL_DETAIL_ITEM
100
AcDbLine
 62
9
  6
CONTINUOUS
 10
256.492084464
 20
358.1535153363
 11
256.035888326
 21
358.300375173
  0
LINE
  5
29C
100
AcDbEntity
  8
ALL_DETAIL_ITEM
100
AcDbLine
 62
9
  6
CONTINUOUS
 10
256.035888326
 20
358.300375173
 11
255.555172035
 21
358.4599615563
  0
LINE
  5
29D
100
AcDbEntity
  8
ALL_DETAIL_ITEM
100
AcDbLine
 62
9
  6
CONTINUOUS
 10
255.555172035
 20
358.4599615563
 11
255.055798955
 21
358.6303279935
  0
LINE
  5
29E
100
AcDbEntity
  8
ALL_DETAIL_ITEM
100
AcDbLine
 62
9
  6
CONTINUOUS
 10
255.055798955
 20
358.6303279935
 11
254.5438604775
 21
358.809396341
  0
LINE
  5
29F
100
AcDbEntity
  8
ALL_DETAIL_ITEM
100
AcDbLine
 62
9
  6
CONTINUOUS
 10
254.5438604775
 20
358.809396341
 11
254.0256006115
 21
358.9949825373
  0
LINE
  5
2A0
100
AcDbEntity
  8
ALL_DETAIL_ITEM
100
AcDbLine
 62
9
  6
CONTINUOUS
 10
336.2386385495
 20
328.425871687
 11
325.6528521117
 21
328.425871687
  0
LINE
  5
2A1
100
AcDbEntity
  8
ALL_DETAIL_ITEM
100
AcDbLine
 62
9
  6
CONTINUOUS
 10
335.9457453307
 20
329.1329784683
 11
325.9457453307
 21
329.1329784683
  0
LINE
  5
2A2
100
AcDbEntity
  8
ALL_DETAIL_ITEM
100
AcDbLine
 62
9
  6
CONTINUOUS
 10
215.5464277102
 20
414.7795436198
 11
215.5101878725
 21
414.8123041823
  0
LINE
  5
2A3
100
AcDbEntity
  8
ALL_DETAIL_ITEM
100
AcDbLine
 62
9
  6
CONTINUOUS
 10
215.5101878725
 20
414.8123041823
 11
215.3981275487
 21
414.8416964228
  0
LINE
  5
2A4
100
AcDbEntity
  8
ALL_DETAIL_ITEM
100
AcDbLine
 62
9
  6
CONTINUOUS
 10
215.3981275487
 20
414.8416964228
 11
215.2102948092
 21
414.8681571695
  0
LINE
  5
2A5
100
AcDbEntity
  8
ALL_DETAIL_ITEM
100
AcDbLine
 62
9
  6
CONTINUOUS
 10
215.2102948092
 20
414.8681571695
 11
214.9484249605
 21
414.8914047033
  0
LINE
  5
2A6
100
AcDbEntity
  8
ALL_DETAIL_ITEM
100
AcDbLine
 62
9
  6
CONTINUOUS
 10
214.9484249605
 20
414.8914047033
 11
214.6145391825
 21
414.9113034515
  0
LINE
  5
2A7
100
AcDbEntity
  8
ALL_DETAIL_ITEM
100
AcDbLine
 62
9
  6
CONTINUOUS
 10
214.6145391825
 20
414.9113034515
 11
214.210724266
 21
414.9277597083
  0
LINE
  5
2A8
100
AcDbEntity
  8
ALL_DETAIL_ITEM
100
AcDbLine
 62
9
  6
CONTINUOUS
 10
214.210724266
 20
414.9277597083
 11
213.7390774947
 21
414.9406971553
  0
LINE
  5
2A9
100
AcDbEntity
  8
ALL_DETAIL_ITEM
100
AcDbLine
 62
9
  6
CONTINUOUS
 10
213.7390774947
 20
414.9406971553
 11
213.2023794835
 21
414.9500377898
  0
LINE
  5
2AA
100
AcDbEntity
  8
ALL_DETAIL_ITEM
100
AcDbLine
 62
9
  6
CONTINUOUS
 10
213.2023794835
 20
414.9500377898
 11
212.6040682575
 21
414.9557222613
  0
LINE
  5
2AB
100
AcDbEntity
  8
ALL_DETAIL_ITEM
100
AcDbLine
 62
9
  6
CONTINUOUS
 10
212.6040682575
 20
414.9557222613
 11
211.947743801
 21
414.9577187135
  0
LINE
  5
2AC
100
AcDbEntity
  8
ALL_DETAIL_ITEM
100
AcDbLine
 62
9
  6
CONTINUOUS
 10
211.947743801
 20
414.9577187135
 11
211.2370858287
 21
414.956015354
  0
LINE
  5
2AD
100
AcDbEntity
  8
ALL_DETAIL_ITEM
100
AcDbLine
 62
9
  6
CONTINUOUS
 10
211.2370858287
 20
414.956015354
 11
210.4762719472
 21
414.950619008
  0
LINE
  5
2AE
100
AcDbEntity
  8
ALL_DETAIL_ITEM
100
AcDbLine
 62
9
  6
CONTINUOUS
 10
210.4762719472
 20
414.950619008
 11
209.6701546877
 21
414.9415625813
  0
LINE
  5
2AF
100
AcDbEntity
  8
ALL_DETAIL_ITEM
100
AcDbLine
 62
9
  6
CONTINUOUS
 10
209.6701546877
 20
414.9415625813
 11
208.823529699
 21
414.9288999053
  0
LINE
  5
2B0
100
AcDbEntity
  8
ALL_DETAIL_ITEM
100
AcDbLine
 62
9
  6
CONTINUOUS
 10
208.823529699
 20
414.9288999053
 11
207.9406894975
 21
414.9126907573
  0
LINE
  5
2B1
100
AcDbEntity
  8
ALL_DETAIL_ITEM
100
AcDbLine
 62
9
  6
CONTINUOUS
 10
207.9406894975
 20
414.9126907573
 11
207.025628437
 21
414.892994341
  0
LINE
  5
2B2
100
AcDbEntity
  8
ALL_DETAIL_ITEM
100
AcDbLine
 62
9
  6
CONTINUOUS
 10
207.025628437
 20
414.892994341
 11
206.086641223
 21
414.8699832908
  0
LINE
  5
2B3
100
AcDbEntity
  8
ALL_DETAIL_ITEM
100
AcDbLine
 62
9
  6
CONTINUOUS
 10
206.086641223
 20
414.8699832908
 11
205.1137215055
 21
414.8433509778
  0
LINE
  5
2B4
100
AcDbEntity
  8
ALL_DETAIL_ITEM
100
AcDbLine
 62
9
  6
CONTINUOUS
 10
205.1137215055
 20
414.8433509778
 11
204.1107874825
 21
414.8130748953
  0
LINE
  5
2B5
100
AcDbEntity
  8
ALL_DETAIL_ITEM
100
AcDbLine
 62
9
  6
CONTINUOUS
 10
204.1107874825
 20
414.8130748953
 11
203.0939939842
 21
414.7795436198
  0
LINE
  5
2B6
100
AcDbEntity
  8
ALL_DETAIL_ITEM
100
AcDbLine
 62
9
  6
CONTINUOUS
 10
243.2595412327
 20
358.9949825373
 11
242.7039883937
 21
359.04117446
  0
LINE
  5
2B7
100
AcDbEntity
  8
ALL_DETAIL_ITEM
100
AcDbLine
 62
9
  6
CONTINUOUS
 10
242.7039883937
 20
359.04117446
 11
242.1553680335
 21
359.082437687
  0
LINE
  5
2B8
100
AcDbEntity
  8
ALL_DETAIL_ITEM
100
AcDbLine
 62
9
  6
CONTINUOUS
 10
242.1553680335
 20
359.082437687
 11
241.6205261242
 21
359.118257314
  0
LINE
  5
2B9
100
AcDbEntity
  8
ALL_DETAIL_ITEM
100
AcDbLine
 62
9
  6
CONTINUOUS
 10
241.6205261242
 20
359.118257314
 11
241.1061367025
 21
359.1481863653
  0
LINE
  5
2BA
100
AcDbEntity
  8
ALL_DETAIL_ITEM
100
AcDbLine
 62
9
  6
CONTINUOUS
 10
241.1061367025
 20
359.1481863653
 11
240.618618589
 21
359.17185137
  0
LINE
  5
2BB
100
AcDbEntity
  8
ALL_DETAIL_ITEM
100
AcDbLine
 62
9
  6
CONTINUOUS
 10
240.618618589
 20
359.17185137
 11
240.1640552895
 21
359.188957024
  0
LINE
  5
2BC
100
AcDbEntity
  8
ALL_DETAIL_ITEM
100
AcDbLine
 62
9
  6
CONTINUOUS
 10
240.1640552895
 20
359.188957024
 11
239.7481190827
 21
359.1992898743
  0
LINE
  5
2BD
100
AcDbEntity
  8
ALL_DETAIL_ITEM
100
AcDbLine
 62
9
  6
CONTINUOUS
 10
239.7481190827
 20
359.1992898743
 11
239.376000238
 21
359.202720982
  0
LINE
  5
2BE
100
AcDbEntity
  8
ALL_DETAIL_ITEM
100
AcDbLine
 62
9
  6
CONTINUOUS
 10
239.376000238
 20
359.202720982
 11
239.052342249
 21
359.1992075318
  0
LINE
  5
2BF
100
AcDbEntity
  8
ALL_DETAIL_ITEM
100
AcDbLine
 62
9
  6
CONTINUOUS
 10
239.052342249
 20
359.1992075318
 11
238.7811838895
 21
359.1887933665
  0
LINE
  5
2C0
100
AcDbEntity
  8
ALL_DETAIL_ITEM
100
AcDbLine
 62
9
  6
CONTINUOUS
 10
238.7811838895
 20
359.1887933665
 11
238.5659088152
 21
359.1716084395
  0
LINE
  5
2C1
100
AcDbEntity
  8
ALL_DETAIL_ITEM
100
AcDbLine
 62
9
  6
CONTINUOUS
 10
238.5659088152
 20
359.1716084395
 11
238.4092033412
 21
359.1478671933
  0
LINE
  5
2C2
100
AcDbEntity
  8
ALL_DETAIL_ITEM
100
AcDbLine
 62
9
  6
CONTINUOUS
 10
238.4092033412
 20
359.1478671933
 11
238.3130229205
 21
359.1178658835
  0
LINE
  5
2C3
100
AcDbEntity
  8
ALL_DETAIL_ITEM
100
AcDbLine
 62
9
  6
CONTINUOUS
 10
238.3130229205
 20
359.1178658835
 11
238.2785677422
 21
359.0819788823
  0
LINE
  5
2C4
100
AcDbEntity
  8
ALL_DETAIL_ITEM
100
AcDbLine
 62
9
  6
CONTINUOUS
 10
254.0256006115
 20
358.9949825373
 11
243.2595412327
 21
358.9949825373
  0
LINE
  5
2C5
100
AcDbEntity
  8
ALL_DETAIL_ITEM
100
AcDbLine
 62
9
  6
CONTINUOUS
 10
245.1275320557
 20
380.3462153453
 11
244.5719793065
 21
380.3924072615
  0
LINE
  5
2C6
100
AcDbEntity
  8
ALL_DETAIL_ITEM
100
AcDbLine
 62
9
  6
CONTINUOUS
 10
244.5719793065
 20
380.3924072615
 11
244.023359017
 21
380.4336704848
  0
LINE
  5
2C7
100
AcDbEntity
  8
ALL_DETAIL_ITEM
100
AcDbLine
 62
9
  6
CONTINUOUS
 10
244.023359017
 20
380.4336704848
 11
243.4885171575
 21
380.4694901105
  0
LINE
  5
2C8
100
AcDbEntity
  8
ALL_DETAIL_ITEM
100
AcDbLine
 62
9
  6
CONTINUOUS
 10
243.4885171575
 20
380.4694901105
 11
242.9741277645
 21
380.4994191625
  0
LINE
  5
2C9
100
AcDbEntity
  8
ALL_DETAIL_ITEM
100
AcDbLine
 62
9
  6
CONTINUOUS
 10
242.9741277645
 20
380.4994191625
 11
242.4866096595
 21
380.5230841695
  0
LINE
  5
2CA
100
AcDbEntity
  8
ALL_DETAIL_ITEM
100
AcDbLine
 62
9
  6
CONTINUOUS
 10
242.4866096595
 20
380.5230841695
 11
242.0320463507
 21
380.540189827
  0
LINE
  5
2CB
100
AcDbEntity
  8
ALL_DETAIL_ITEM
100
AcDbLine
 62
9
  6
CONTINUOUS
 10
242.0320463507
 20
380.540189827
 11
241.61611012
 21
380.5505226813
  0
LINE
  5
2CC
100
AcDbEntity
  8
ALL_DETAIL_ITEM
100
AcDbLine
 62
9
  6
CONTINUOUS
 10
241.61611012
 20
380.5505226813
 11
241.243991241
 21
380.5539537925
  0
LINE
  5
2CD
100
AcDbEntity
  8
ALL_DETAIL_ITEM
100
AcDbLine
 62
9
  6
CONTINUOUS
 10
241.243991241
 20
380.5539537925
 11
240.9203332117
 21
380.5504403455
  0
LINE
  5
2CE
100
AcDbEntity
  8
ALL_DETAIL_ITEM
100
AcDbLine
 62
9
  6
CONTINUOUS
 10
240.9203332117
 20
380.5504403455
 11
240.6491748105
 21
380.540026182
  0
LINE
  5
2CF
100
AcDbEntity
  8
ALL_DETAIL_ITEM
100
AcDbLine
 62
9
  6
CONTINUOUS
 10
240.6491748105
 20
380.540026182
 11
240.4338996977
 21
380.5228412558
  0
LINE
  5
2D0
100
AcDbEntity
  8
ALL_DETAIL_ITEM
100
AcDbLine
 62
9
  6
CONTINUOUS
 10
240.4338996977
 20
380.5228412558
 11
240.2771941925
 21
380.4991000085
  0
LINE
  5
2D1
100
AcDbEntity
  8
ALL_DETAIL_ITEM
100
AcDbLine
 62
9
  6
CONTINUOUS
 10
240.2771941925
 20
380.4991000085
 11
240.181013751
 21
380.469098696
  0
LINE
  5
2D2
100
AcDbEntity
  8
ALL_DETAIL_ITEM
100
AcDbLine
 62
9
  6
CONTINUOUS
 10
240.181013751
 20
380.469098696
 11
240.1465585652
 21
380.4332116903
  0
LINE
  5
2D3
100
AcDbEntity
  8
ALL_DETAIL_ITEM
100
AcDbLine
 62
9
  6
CONTINUOUS
 10
252.5989922912
 20
387.1925472745
 11
264.2886748547
 21
387.1925472745
  0
LINE
  5
2D4
100
AcDbEntity
  8
ALL_DETAIL_ITEM
100
AcDbLine
 62
9
  6
CONTINUOUS
 10
189.4677231337
 20
401.3625238943
 11
168.5110992972
 21
401.3625238943
  0
LINE
  5
2D5
100
AcDbEntity
  8
ALL_DETAIL_ITEM
100
AcDbLine
 62
9
  6
CONTINUOUS
 10
210.1773886157
 20
405.7804619395
 11
210.5474088637
 21
405.7335107908
  0
LINE
  5
2D6
100
AcDbEntity
  8
ALL_DETAIL_ITEM
100
AcDbLine
 62
9
  6
CONTINUOUS
 10
210.5474088637
 20
405.7335107908
 11
210.9458349237
 21
405.6256470278
  0
LINE
  5
2D7
100
AcDbEntity
  8
ALL_DETAIL_ITEM
100
AcDbLine
 62
9
  6
CONTINUOUS
 10
210.9458349237
 20
405.6256470278
 11
211.373979609
 21
405.449732946
  0
LINE
  5
2D8
100
AcDbEntity
  8
ALL_DETAIL_ITEM
100
AcDbLine
 62
9
  6
CONTINUOUS
 10
211.373979609
 20
405.449732946
 11
211.8320395652
 21
405.196765951
  0
LINE
  5
2D9
100
AcDbEntity
  8
ALL_DETAIL_ITEM
100
AcDbLine
 62
9
  6
CONTINUOUS
 10
211.8320395652
 20
405.196765951
 11
212.319032197
 21
404.8541768435
  0
LINE
  5
2DA
100
AcDbEntity
  8
ALL_DETAIL_ITEM
100
AcDbLine
 62
9
  6
CONTINUOUS
 10
212.319032197
 20
404.8541768435
 11
212.8293650867
 21
404.4045186995
  0
LINE
  5
2DB
100
AcDbEntity
  8
ALL_DETAIL_ITEM
100
AcDbLine
 62
9
  6
CONTINUOUS
 10
212.8293650867
 20
404.4045186995
 11
213.3442391187
 21
403.8274989533
  0
LINE
  5
2DC
100
AcDbEntity
  8
ALL_DETAIL_ITEM
100
AcDbLine
 62
9
  6
CONTINUOUS
 10
213.3442391187
 20
403.8274989533
 11
213.8047406525
 21
403.135105605
  0
LINE
  5
2DD
100
AcDbEntity
  8
ALL_DETAIL_ITEM
100
AcDbLine
 62
9
  6
CONTINUOUS
 10
213.8047406525
 20
403.135105605
 11
214.1364879137
 21
402.3892739015
  0
LINE
  5
2DE
100
AcDbEntity
  8
ALL_DETAIL_ITEM
100
AcDbLine
 62
9
  6
CONTINUOUS
 10
214.1364879137
 20
402.3892739015
 11
214.3127193555
 21
401.6235978313
  0
LINE
  5
2DF
100
AcDbEntity
  8
ALL_DETAIL_ITEM
100
AcDbLine
 62
9
  6
CONTINUOUS
 10
214.3127193555
 20
401.6235978313
 11
214.3268806307
 21
400.840066822
  0
LINE
  5
2E0
100
AcDbEntity
  8
ALL_DETAIL_ITEM
100
AcDbLine
 62
9
  6
CONTINUOUS
 10
210.1773886225
 20
405.7804620608
 11
210.746744711
 21
405.8129645178
  0
LINE
  5
2E1
100
AcDbEntity
  8
ALL_DETAIL_ITEM
100
AcDbLine
 62
9
  6
CONTINUOUS
 10
210.746744711
 20
405.8129645178
 11
211.3086930225
 21
405.910078992
  0
LINE
  5
2E2
100
AcDbEntity
  8
ALL_DETAIL_ITEM
100
AcDbLine
 62
9
  6
CONTINUOUS
 10
211.3086930225
 20
405.910078992
 11
211.8559242332
 21
406.070542106
  0
LINE
  5
2E3
100
AcDbEntity
  8
ALL_DETAIL_ITEM
100
AcDbLine
 62
9
  6
CONTINUOUS
 10
211.8559242332
 20
406.070542106
 11
212.3813194445
 21
406.292266401
  0
LINE
  5
2E4
100
AcDbEntity
  8
ALL_DETAIL_ITEM
100
AcDbLine
 62
9
  6
CONTINUOUS
 10
212.3813194445
 20
406.292266401
 11
212.8780438212
 21
406.5723674755
  0
LINE
  5
2E5
100
AcDbEntity
  8
ALL_DETAIL_ITEM
100
AcDbLine
 62
9
  6
CONTINUOUS
 10
212.8780438212
 20
406.5723674755
 11
213.3396355062
 21
406.9072015093
  0
LINE
  5
2E6
100
AcDbEntity
  8
ALL_DETAIL_ITEM
100
AcDbLine
 62
9
  6
CONTINUOUS
 10
213.3396355062
 20
406.9072015093
 11
213.760089681
 21
407.2924126638
  0
LINE
  5
2E7
100
AcDbEntity
  8
ALL_DETAIL_ITEM
100
AcDbLine
 62
9
  6
CONTINUOUS
 10
213.760089681
 20
407.2924126638
 11
214.133936683
 21
407.7229897495
  0
LINE
  5
2E8
100
AcDbEntity
  8
ALL_DETAIL_ITEM
100
AcDbLine
 62
9
  6
CONTINUOUS
 10
214.133936683
 20
407.7229897495
 11
214.4563131592
 21
408.1933314135
  0
LINE
  5
2E9
100
AcDbEntity
  8
ALL_DETAIL_ITEM
100
AcDbLine
 62
9
  6
CONTINUOUS
 10
214.4563131592
 20
408.1933314135
 11
214.723025333
 21
408.697319009
  0
LINE
  5
2EA
100
AcDbEntity
  8
ALL_DETAIL_ITEM
100
AcDbLine
 62
9
  6
CONTINUOUS
 10
214.723025333
 20
408.697319009
 11
214.9306035612
 21
409.2283961915
  0
LINE
  5
2EB
100
AcDbEntity
  8
ALL_DETAIL_ITEM
100
AcDbLine
 62
9
  6
CONTINUOUS
 10
214.9306035612
 20
409.2283961915
 11
215.0763474697
 21
409.779654209
  0
LINE
  5
2EC
100
AcDbEntity
  8
ALL_DETAIL_ITEM
100
AcDbLine
 62
9
  6
CONTINUOUS
 10
215.0763474697
 20
409.779654209
 11
215.1583610835
 21
410.3439217793
  0
LINE
  5
2ED
100
AcDbEntity
  8
ALL_DETAIL_ITEM
100
AcDbLine
 62
9
  6
CONTINUOUS
 10
210.4708348517
 20
409.134579532
 11
211.0401900477
 21
409.1670817865
  0
LINE
  5
2EE
100
AcDbEntity
  8
ALL_DETAIL_ITEM
100
AcDbLine
 62
9
  6
CONTINUOUS
 10
211.0401900477
 20
409.1670817865
 11
211.6021385292
 21
409.2641960743
  0
LINE
  5
2EF
100
AcDbEntity
  8
ALL_DETAIL_ITEM
100
AcDbLine
 62
9
  6
CONTINUOUS
 10
211.6021385292
 20
409.2641960743
 11
212.1493699355
 21
409.42465904
  0
LINE
  5
2F0
100
AcDbEntity
  8
ALL_DETAIL_ITEM
100
AcDbLine
 62
9
  6
CONTINUOUS
 10
212.1493699355
 20
409.42465904
 11
212.6747653595
 21
409.6463832288
  0
LINE
  5
2F1
100
AcDbEntity
  8
ALL_DETAIL_ITEM
100
AcDbLine
 62
9
  6
CONTINUOUS
 10
212.6747653595
 20
409.6463832288
 11
213.1714899572
 21
409.9264842413
  0
LINE
  5
2F2
100
AcDbEntity
  8
ALL_DETAIL_ITEM
100
AcDbLine
 62
9
  6
CONTINUOUS
 10
213.1714899572
 20
409.9264842413
 11
213.6330818625
 21
410.2613182565
  0
LINE
  5
2F3
100
AcDbEntity
  8
ALL_DETAIL_ITEM
100
AcDbLine
 62
9
  6
CONTINUOUS
 10
213.6330818625
 20
410.2613182565
 11
214.053536248
 21
410.6465294355
  0
LINE
  5
2F4
100
AcDbEntity
  8
ALL_DETAIL_ITEM
100
AcDbLine
 62
9
  6
CONTINUOUS
 10
214.053536248
 20
410.6465294355
 11
214.427383443
 21
411.077106584
  0
LINE
  5
2F5
100
AcDbEntity
  8
ALL_DETAIL_ITEM
100
AcDbLine
 62
9
  6
CONTINUOUS
 10
214.427383443
 20
411.077106584
 11
214.7497600872
 21
411.5474483448
  0
LINE
  5
2F6
100
AcDbEntity
  8
ALL_DETAIL_ITEM
100
AcDbLine
 62
9
  6
CONTINUOUS
 10
214.7497600872
 20
411.5474483448
 11
215.0164723985
 21
412.0514360643
  0
LINE
  5
2F7
100
AcDbEntity
  8
ALL_DETAIL_ITEM
100
AcDbLine
 62
9
  6
CONTINUOUS
 10
215.0164723985
 20
412.0514360643
 11
215.224050729
 21
412.5825133905
  0
LINE
  5
2F8
100
AcDbEntity
  8
ALL_DETAIL_ITEM
100
AcDbLine
 62
9
  6
CONTINUOUS
 10
215.224050729
 20
412.5825133905
 11
215.3697947025
 21
413.1337715643
  0
LINE
  5
2F9
100
AcDbEntity
  8
ALL_DETAIL_ITEM
100
AcDbLine
 62
9
  6
CONTINUOUS
 10
215.3697947025
 20
413.1337715643
 11
215.4518083422
 21
413.698039294
  0
LINE
  5
2FA
100
AcDbEntity
  8
ALL_DETAIL_ITEM
100
AcDbLine
 62
9
  6
CONTINUOUS
 10
189.4677231337
 20
405.9259836563
 11
168.721162482
 21
405.9259836563
  0
LINE
  5
2FB
100
AcDbEntity
  8
ALL_DETAIL_ITEM
100
AcDbLine
 62
9
  6
CONTINUOUS
 10
168.911266272
 20
409.2651938193
 11
203.0108018855
 21
409.2651938193
  0
LINE
  5
2FC
100
AcDbEntity
  8
ALL_DETAIL_ITEM
100
AcDbLine
 62
9
  6
CONTINUOUS
 10
169.4011420412
 20
413.8286535813
 11
203.0108018855
 21
413.8286535813
  0
LINE
  5
2FD
100
AcDbEntity
  8
ALL_DETAIL_ITEM
100
AcDbLine
 62
9
  6
CONTINUOUS
 10
203.0939939842
 20
414.7795436198
 11
169.5032176622
 21
414.7795436198
  0
LINE
  5
2FE
100
AcDbEntity
  8
ALL_DETAIL_ITEM
100
AcDbLine
 62
9
  6
CONTINUOUS
 10
203.0108018855
 20
409.2651938193
 11
203.6664265657
 21
409.2646933858
  0
LINE
  5
2FF
100
AcDbEntity
  8
ALL_DETAIL_ITEM
100
AcDbLine
 62
9
  6
CONTINUOUS
 10
203.6664265657
 20
409.2646933858
 11
204.3117773605
 21
409.263210572
  0
LINE
  5
300
100
AcDbEntity
  8
ALL_DETAIL_ITEM
100
AcDbLine
 62
9
  6
CONTINUOUS
 10
204.3117773605
 20
409.263210572
 11
204.9471441852
 21
409.260755159
  0
LINE
  5
301
100
AcDbEntity
  8
ALL_DETAIL_ITEM
100
AcDbLine
 62
9
  6
CONTINUOUS
 10
204.9471441852
 20
409.260755159
 11
205.5672371455
 21
409.2573475058
  0
LINE
  5
302
100
AcDbEntity
  8
ALL_DETAIL_ITEM
100
AcDbLine
 62
9
  6
CONTINUOUS
 10
205.5672371455
 20
409.2573475058
 11
206.1675906742
 21
409.2530129328
  0
LINE
  5
303
100
AcDbEntity
  8
ALL_DETAIL_ITEM
100
AcDbLine
 62
9
  6
CONTINUOUS
 10
206.1675906742
 20
409.2530129328
 11
206.7437186077
 21
409.2477841863
  0
LINE
  5
304
100
AcDbEntity
  8
ALL_DETAIL_ITEM
100
AcDbLine
 62
9
  6
CONTINUOUS
 10
206.7437186077
 20
409.2477841863
 11
207.2913517527
 21
409.241700253
  0
LINE
  5
305
100
AcDbEntity
  8
ALL_DETAIL_ITEM
100
AcDbLine
 62
9
  6
CONTINUOUS
 10
207.2913517527
 20
409.241700253
 11
207.806421036
 21
409.2348063638
  0
LINE
  5
306
100
AcDbEntity
  8
ALL_DETAIL_ITEM
100
AcDbLine
 62
9
  6
CONTINUOUS
 10
207.806421036
 20
409.2348063638
 11
208.2850947857
 21
409.227153605
  0
LINE
  5
307
100
AcDbEntity
  8
ALL_DETAIL_ITEM
100
AcDbLine
 62
9
  6
CONTINUOUS
 10
208.2850947857
 20
409.227153605
 11
208.723801803
 21
409.218798616
  0
LINE
  5
308
100
AcDbEntity
  8
ALL_DETAIL_ITEM
100
AcDbLine
 62
9
  6
CONTINUOUS
 10
208.723801803
 20
409.218798616
 11
209.1192572147
 21
409.2098032113
  0
LINE
  5
309
100
AcDbEntity
  8
ALL_DETAIL_ITEM
100
AcDbLine
 62
9
  6
CONTINUOUS
 10
209.1192572147
 20
409.2098032113
 11
209.4684873277
 21
409.2002339453
  0
LINE
  5
30A
100
AcDbEntity
  8
ALL_DETAIL_ITEM
100
AcDbLine
 62
9
  6
CONTINUOUS
 10
209.4684873277
 20
409.2002339453
 11
209.768840571
 21
409.1901620598
  0
LINE
  5
30B
100
AcDbEntity
  8
ALL_DETAIL_ITEM
100
AcDbLine
 62
9
  6
CONTINUOUS
 10
209.768840571
 20
409.1901620598
 11
210.018059764
 21
409.1796610423
  0
LINE
  5
30C
100
AcDbEntity
  8
ALL_DETAIL_ITEM
100
AcDbLine
 62
9
  6
CONTINUOUS
 10
210.018059764
 20
409.1796610423
 11
210.2141127015
 21
409.168815393
  0
LINE
  5
30D
100
AcDbEntity
  8
ALL_DETAIL_ITEM
100
AcDbLine
 62
9
  6
CONTINUOUS
 10
210.2141127015
 20
409.168815393
 11
210.3563624482
 21
409.1576263135
  0
LINE
  5
30E
100
AcDbEntity
  8
ALL_DETAIL_ITEM
100
AcDbLine
 62
9
  6
CONTINUOUS
 10
210.3563624482
 20
409.1576263135
 11
210.4425680837
 21
409.1461718568
  0
LINE
  5
30F
100
AcDbEntity
  8
ALL_DETAIL_ITEM
100
AcDbLine
 62
9
  6
CONTINUOUS
 10
210.4425680837
 20
409.1461718568
 11
210.4708348517
 21
409.134579532
  0
LINE
  5
310
100
AcDbEntity
  8
ALL_DETAIL_ITEM
100
AcDbLine
 62
9
  6
CONTINUOUS
 10
210.1773886227
 20
405.7804620613
 11
208.7798723775
 21
405.8025246403
  0
LINE
  5
311
100
AcDbEntity
  8
ALL_DETAIL_ITEM
100
AcDbLine
 62
9
  6
CONTINUOUS
 10
208.7798723775
 20
405.8025246403
 11
207.3045033217
 21
405.823004562
  0
LINE
  5
312
100
AcDbEntity
  8
ALL_DETAIL_ITEM
100
AcDbLine
 62
9
  6
CONTINUOUS
 10
207.3045033217
 20
405.823004562
 11
205.757062795
 21
405.8418186638
  0
LINE
  5
313
100
AcDbEntity
  8
ALL_DETAIL_ITEM
100
AcDbLine
 62
9
  6
CONTINUOUS
 10
205.757062795
 20
405.8418186638
 11
204.143938936
 21
405.858887402
  0
LINE
  5
314
100
AcDbEntity
  8
ALL_DETAIL_ITEM
100
AcDbLine
 62
9
  6
CONTINUOUS
 10
204.143938936
 20
405.858887402
 11
202.4711991587
 21
405.8741449373
  0
LINE
  5
315
100
AcDbEntity
  8
ALL_DETAIL_ITEM
100
AcDbLine
 62
9
  6
CONTINUOUS
 10
202.4711991587
 20
405.8741449373
 11
200.7443432845
 21
405.8875367883
  0
LINE
  5
316
100
AcDbEntity
  8
ALL_DETAIL_ITEM
100
AcDbLine
 62
9
  6
CONTINUOUS
 10
200.7443432845
 20
405.8875367883
 11
198.9694126297
 21
405.8990085468
  0
LINE
  5
317
100
AcDbEntity
  8
ALL_DETAIL_ITEM
100
AcDbLine
 62
9
  6
CONTINUOUS
 10
198.9694126297
 20
405.8990085468
 11
197.1548872005
 21
405.9084997313
  0
LINE
  5
318
100
AcDbEntity
  8
ALL_DETAIL_ITEM
100
AcDbLine
 62
9
  6
CONTINUOUS
 10
197.1548872005
 20
405.9084997313
 11
195.3043293195
 21
405.9159825763
  0
LINE
  5
319
100
AcDbEntity
  8
ALL_DETAIL_ITEM
100
AcDbLine
 62
9
  6
CONTINUOUS
 10
195.3043293195
 20
405.9159825763
 11
193.39595952
 21
405.921479849
  0
LINE
  5
31A
100
AcDbEntity
  8
ALL_DETAIL_ITEM
100
AcDbLine
 62
9
  6
CONTINUOUS
 10
193.39595952
 20
405.921479849
 11
191.4417399375
 21
405.9248506303
  0
LINE
  5
31B
100
AcDbEntity
  8
ALL_DETAIL_ITEM
100
AcDbLine
 62
9
  6
CONTINUOUS
 10
191.4417399375
 20
405.9248506303
 11
189.4677231337
 21
405.9259836563
  0
LINE
  5
31C
100
AcDbEntity
  8
ALL_DETAIL_ITEM
100
AcDbLine
 62
9
  6
CONTINUOUS
 10
203.0108018855
 20
413.8286535813
 11
204.100387456
 21
413.7921327668
  0
LINE
  5
31D
100
AcDbEntity
  8
ALL_DETAIL_ITEM
100
AcDbLine
 62
9
  6
CONTINUOUS
 10
204.100387456
 20
413.7921327668
 11
205.1732407187
 21
413.758440728
  0
LINE
  5
31E
100
AcDbEntity
  8
ALL_DETAIL_ITEM
100
AcDbLine
 62
9
  6
CONTINUOUS
 10
205.1732407187
 20
413.758440728
 11
206.229840212
 21
413.7275426973
  0
LINE
  5
31F
100
AcDbEntity
  8
ALL_DETAIL_ITEM
100
AcDbLine
 62
9
  6
CONTINUOUS
 10
206.229840212
 20
413.7275426973
 11
207.261388877
 21
413.699693459
  0
LINE
  5
320
100
AcDbEntity
  8
ALL_DETAIL_ITEM
100
AcDbLine
 62
9
  6
CONTINUOUS
 10
207.261388877
 20
413.699693459
 11
208.2604578512
 21
413.675092757
  0
LINE
  5
321
100
AcDbEntity
  8
ALL_DETAIL_ITEM
100
AcDbLine
 62
9
  6
CONTINUOUS
 10
208.2604578512
 20
413.675092757
 11
209.2195814145
 21
413.6539233168
  0
LINE
  5
322
100
AcDbEntity
  8
ALL_DETAIL_ITEM
100
AcDbLine
 62
9
  6
CONTINUOUS
 10
209.2195814145
 20
413.6539233168
 11
210.1316522415
 21
413.6363415345
  0
LINE
  5
323
100
AcDbEntity
  8
ALL_DETAIL_ITEM
100
AcDbLine
 62
9
  6
CONTINUOUS
 10
210.1316522415
 20
413.6363415345
 11
210.989893371
 21
413.6224779715
  0
LINE
  5
324
100
AcDbEntity
  8
ALL_DETAIL_ITEM
100
AcDbLine
 62
9
  6
CONTINUOUS
 10
210.989893371
 20
413.6224779715
 11
211.7879202967
 21
413.6124362163
  0
LINE
  5
325
100
AcDbEntity
  8
ALL_DETAIL_ITEM
100
AcDbLine
 62
9
  6
CONTINUOUS
 10
211.7879202967
 20
413.6124362163
 11
212.519779407
 21
413.6062922235
  0
LINE
  5
326
100
AcDbEntity
  8
ALL_DETAIL_ITEM
100
AcDbLine
 62
9
  6
CONTINUOUS
 10
212.519779407
 20
413.6062922235
 11
213.179991074
 21
413.6040936978
  0
LINE
  5
327
100
AcDbEntity
  8
ALL_DETAIL_ITEM
100
AcDbLine
 62
9
  6
CONTINUOUS
 10
213.179991074
 20
413.6040936978
 11
213.7635910995
 21
413.6058596433
  0
LINE
  5
328
100
AcDbEntity
  8
ALL_DETAIL_ITEM
100
AcDbLine
 62
9
  6
CONTINUOUS
 10
213.7635910995
 20
413.6058596433
 11
214.266148924
 21
413.6115799178
  0
LINE
  5
329
100
AcDbEntity
  8
ALL_DETAIL_ITEM
100
AcDbLine
 62
9
  6
CONTINUOUS
 10
214.266148924
 20
413.6115799178
 11
214.6838885282
 21
413.6212164128
  0
LINE
  5
32A
100
AcDbEntity
  8
ALL_DETAIL_ITEM
100
AcDbLine
 62
9
  6
CONTINUOUS
 10
214.6838885282
 20
413.6212164128
 11
215.0134039815
 21
413.6346936025
  0
LINE
  5
32B
100
AcDbEntity
  8
ALL_DETAIL_ITEM
100
AcDbLine
 62
9
  6
CONTINUOUS
 10
215.0134039815
 20
413.6346936025
 11
215.2536363742
 21
413.6520439603
  0
LINE
  5
32C
100
AcDbEntity
  8
ALL_DETAIL_ITEM
100
AcDbLine
 62
9
  6
CONTINUOUS
 10
215.2536363742
 20
413.6520439603
 11
215.4008354742
 21
413.6732216153
  0
LINE
  5
32D
100
AcDbEntity
  8
ALL_DETAIL_ITEM
100
AcDbLine
 62
9
  6
CONTINUOUS
 10
215.4008354742
 20
413.6732216153
 11
215.4518083422
 21
413.698039294
  0
LINE
  5
32E
100
AcDbEntity
  8
ALL_DETAIL_ITEM
100
AcDbLine
 62
2
  6
CONTINUOUS
 10
320.9457453307
 20
454.343764906
 11
320.9457453307
 21
419.343764906
  0
LINE
  5
32F
100
AcDbEntity
  8
ALL_DETAIL_ITEM
100
AcDbLine
 62
2
  6
CONTINUOUS
 10
320.9457453307
 20
419.343764906
 11
218.4457453307
 21
419.343764906
  0
LINE
  5
330
100
AcDbEntity
  8
ALL_DETAIL_ITEM
100
AcDbLine
 62
2
  6
CONTINUOUS
 10
218.4457453307
 20
419.343764906
 11
218.4457453307
 21
519.343764906
  0
LINE
  5
331
100
AcDbEntity
  8
ALL_DETAIL_ITEM
100
AcDbLine
 62
2
  6
CONTINUOUS
 10
218.4457453307
 20
519.343764906
 11
446.2852331575
 21
519.343764906
  0
SPLINE
  5
332
100
AcDbEntity
  8
ALL_DETAIL_ITEM
100
AcDbSpline
 62
2
  6
CONTINUOUS
 70
0
 71
3
 72
31
 73
27
 74
0
 42
0.0000001
 43
0.0000001
 44
0.0000000001
 40
0.0
 40
0.0
 40
0.0
 40
0.0
 40
0.0416666667
 40
0.0833333333
 40
0.125
 40
0.1666666667
 40
0.2083333333
 40
0.25
 40
0.2916666667
 40
0.3333333333
 40
0.375
 40
0.4166666667
 40
0.4583333333
 40
0.5
 40
0.5416666667
 40
0.5833333333
 40
0.625
 40
0.6666666667
 40
0.7083333333
 40
0.75
 40
0.7916666667
 40
0.8333333333
 40
0.875
 40
0.9166666667
 40
0.9583333333
 40
1.0
 40
1.0
 40
1.0
 40
1.0
 10
446.2852331575
 20
519.343764906
 30
0.0
 10
446.4152817485
 20
518.122295925
 30
0.0
 10
446.7053965652
 20
515.834053165
 30
0.0
 10
447.2153530527
 20
512.9541491703
 30
0.0
 10
447.8458997267
 20
510.3615816978
 30
0.0
 10
448.697550178
 20
507.655309451
 30
0.0
 10
449.8588602085
 20
504.617254792
 30
0.0
 10
451.3281378792
 20
501.2930989788
 30
0.0
 10
453.1130245115
 20
497.591200985
 30
0.0
 10
454.922925004
 20
493.8548566328
 30
0.0
 10
456.339921394
 20
490.68691523
 30
0.0
 10
457.451759862
 20
487.8336603495
 30
0.0
 10
458.2634351517
 20
485.2886661478
 30
0.0
 10
458.891747385
 20
482.7427615878
 30
0.0
 10
459.3920194595
 20
479.9518139233
 30
0.0
 10
459.7480450727
 20
476.8536602278
 30
0.0
 10
459.9375419182
 20
473.315651375
 30
0.0
 10
459.9170132127
 20
469.1976339755
 30
0.0
 10
459.6405776355
 20
464.4221190128
 30
0.0
 10
459.0837126017
 20
458.930562447
 30
0.0
 10
458.2936595242
 20
452.8065575738
 30
0.0
 10
457.378914288
 20
446.0881549878
 30
0.0
 10
456.560823598
 20
438.4939466073
 30
0.0
 10
456.1105995815
 20
431.2699353898
 30
0.0
 10
456.0374104315
 20
425.2802583425
 30
0.0
 10
456.1846565035
 20
421.277906005
 30
0.0
 10
456.3118990607
 20
419.343764906
 30
0.0
  0
LINE
  5
333
100
AcDbEntity
  8
ALL_DETAIL_ITEM
100
AcDbLine
 62
2
  6
CONTINUOUS
 10
456.3118990607
 20
419.343764906
 11
340.9457453307
 21
419.343764906
  0
LINE
  5
334
100
AcDbEntity
  8
ALL_DETAIL_ITEM
100
AcDbLine
 62
2
  6
CONTINUOUS
 10
340.9457453307
 20
419.343764906
 11
340.9457453307
 21
454.343764906
  0
LINE
  5
335
100
AcDbEntity
  8
ALL_DETAIL_ITEM
100
AcDbLine
 62
2
  6
CONTINUOUS
 10
340.9457453307
 20
454.343764906
 11
330.9457453307
 21
460.1172675978
  0
LINE
  5
336
100
AcDbEntity
  8
ALL_DETAIL_ITEM
100
AcDbLine
 62
2
  6
CONTINUOUS
 10
330.9457453307
 20
460.1172675978
 11
320.9457453307
 21
454.343764906
  0
LINE
  5
337
100
AcDbEntity
  8
ALL_DETAIL_ITEM
100
AcDbLine
 62
2
  6
CONTINUOUS
 10
444.8370387927
 20
419.343764906
 11
456.1514374462
 21
430.6581635595
  0
LINE
  5
338
100
AcDbEntity
  8
ALL_DETAIL_ITEM
100
AcDbLine
 62
2
  6
CONTINUOUS
 10
427.1593692632
 20
419.343764906
 11
457.9281402993
 21
450.1125359421
  0
LINE
  5
339
100
AcDbEntity
  8
ALL_DETAIL_ITEM
100
AcDbLine
 62
2
  6
CONTINUOUS
 10
409.4816997337
 20
419.343764906
 11
459.8788147768
 21
469.7408799491
  0
LINE
  5
33A
100
AcDbEntity
  8
ALL_DETAIL_ITEM
100
AcDbLine
 62
2
  6
CONTINUOUS
 10
391.8040302042
 20
419.343764906
 11
458.1154910451
 21
485.6552257469
  0
LINE
  5
33B
100
AcDbEntity
  8
ALL_DETAIL_ITEM
100
AcDbLine
 62
2
  6
CONTINUOUS
 10
374.1263606747
 20
419.343764906
 11
452.8754520841
 21
498.0928563154
  0
LINE
  5
33C
100
AcDbEntity
  8
ALL_DETAIL_ITEM
100
AcDbLine
 62
2
  6
CONTINUOUS
 10
356.4486911452
 20
419.343764906
 11
447.7975598214
 21
510.6926335822
  0
LINE
  5
33D
100
AcDbEntity
  8
ALL_DETAIL_ITEM
100
AcDbLine
 62
2
  6
CONTINUOUS
 10
340.9457453307
 20
421.518488621
 11
438.7710216157
 21
519.343764906
  0
LINE
  5
33E
100
AcDbEntity
  8
ALL_DETAIL_ITEM
100
AcDbLine
 62
2
  6
CONTINUOUS
 10
340.9457453307
 20
439.1961581505
 11
421.0933520862
 21
519.343764906
  0
LINE
  5
33F
100
AcDbEntity
  8
ALL_DETAIL_ITEM
100
AcDbLine
 62
2
  6
CONTINUOUS
 10
303.4156825567
 20
419.343764906
 11
320.9457453307
 21
436.87382768
  0
LINE
  5
340
100
AcDbEntity
  8
ALL_DETAIL_ITEM
100
AcDbLine
 62
2
  6
CONTINUOUS
 10
339.3417498051
 20
455.2698321545
 11
403.4156825567
 21
519.343764906
  0
LINE
  5
341
100
AcDbEntity
  8
ALL_DETAIL_ITEM
100
AcDbLine
 62
2
  6
CONTINUOUS
 10
285.7380130272
 20
419.343764906
 11
385.7380130272
 21
519.343764906
  0
LINE
  5
342
100
AcDbEntity
  8
ALL_DETAIL_ITEM
100
AcDbLine
 62
2
  6
CONTINUOUS
 10
268.0603434977
 20
419.343764906
 11
368.0603434977
 21
519.343764906
  0
LINE
  5
343
100
AcDbEntity
  8
ALL_DETAIL_ITEM
100
AcDbLine
 62
2
  6
CONTINUOUS
 10
250.3826739682
 20
419.343764906
 11
350.3826739682
 21
519.343764906
  0
LINE
  5
344
100
AcDbEntity
  8
ALL_DETAIL_ITEM
100
AcDbLine
 62
2
  6
CONTINUOUS
 10
232.7050044387
 20
419.343764906
 11
332.7050044387
 21
519.343764906
  0
LINE
  5
345
100
AcDbEntity
  8
ALL_DETAIL_ITEM
100
AcDbLine
 62
2
  6
CONTINUOUS
 10
218.4457453307
 20
422.7621753275
 11
315.0273349092
 21
519.343764906
  0
LINE
  5
346
100
AcDbEntity
  8
ALL_DETAIL_ITEM
100
AcDbLine
 62
2
  6
CONTINUOUS
 10
218.4457453307
 20
440.439844857
 11
297.3496653797
 21
519.343764906
  0
LINE
  5
347
100
AcDbEntity
  8
ALL_DETAIL_ITEM
100
AcDbLine
 62
2
  6
CONTINUOUS
 10
218.4457453307
 20
458.1175143865
 11
279.6719958502
 21
519.343764906
  0
LINE
  5
348
100
AcDbEntity
  8
ALL_DETAIL_ITEM
100
AcDbLine
 62
2
  6
CONTINUOUS
 10
218.4457453307
 20
475.795183916
 11
261.9943263207
 21
519.343764906
  0
LINE
  5
349
100
AcDbEntity
  8
ALL_DETAIL_ITEM
100
AcDbLine
 62
2
  6
CONTINUOUS
 10
218.4457453307
 20
493.4728534455
 11
244.3166567912
 21
519.343764906
  0
LINE
  5
34A
100
AcDbEntity
  8
ALL_DETAIL_ITEM
100
AcDbLine
 62
2
  6
CONTINUOUS
 10
218.4457453307
 20
511.150522975
 11
226.6389872617
 21
519.343764906
  0
LINE
  5
34B
100
AcDbEntity
  8
ALL_DETAIL_ITEM
100
AcDbLine
 62
2
  6
CONTINUOUS
 10
447.279526704
 20
512.8209566367
 11
440.7567184347
 21
519.343764906
  0
LINE
  5
34C
100
AcDbEntity
  8
ALL_DETAIL_ITEM
100
AcDbLine
 62
2
  6
CONTINUOUS
 10
458.5922157793
 20
483.830598032
 11
423.0790489052
 21
519.343764906
  0
LINE
  5
34D
100
AcDbEntity
  8
ALL_DETAIL_ITEM
100
AcDbLine
 62
2
  6
CONTINUOUS
 10
459.6408272445
 20
465.1043170372
 11
405.4013793757
 21
519.343764906
  0
LINE
  5
34E
100
AcDbEntity
  8
ALL_DETAIL_ITEM
100
AcDbLine
 62
2
  6
CONTINUOUS
 10
457.8148850794
 20
449.2525896728
 11
387.7237098462
 21
519.343764906
  0
LINE
  5
34F
100
AcDbEntity
  8
ALL_DETAIL_ITEM
100
AcDbLine
 62
2
  6
CONTINUOUS
 10
456.2589904185
 20
433.1308148043
 11
370.0460403167
 21
519.343764906
  0
LINE
  5
350
100
AcDbEntity
  8
ALL_DETAIL_ITEM
100
AcDbLine
 62
2
  6
CONTINUOUS
 10
452.3683707872
 20
419.343764906
 11
352.3683707872
 21
519.343764906
  0
LINE
  5
351
100
AcDbEntity
  8
ALL_DETAIL_ITEM
100
AcDbLine
 62
2
  6
CONTINUOUS
 10
434.6907012577
 20
419.343764906
 11
334.6907012577
 21
519.343764906
  0
LINE
  5
352
100
AcDbEntity
  8
ALL_DETAIL_ITEM
100
AcDbLine
 62
2
  6
CONTINUOUS
 10
417.0130317282
 20
419.343764906
 11
317.0130317282
 21
519.343764906
  0
LINE
  5
353
100
AcDbEntity
  8
ALL_DETAIL_ITEM
100
AcDbLine
 62
2
  6
CONTINUOUS
 10
399.3353621987
 20
419.343764906
 11
299.3353621987
 21
519.343764906
  0
LINE
  5
354
100
AcDbEntity
  8
ALL_DETAIL_ITEM
100
AcDbLine
 62
2
  6
CONTINUOUS
 10
381.6576926692
 20
419.343764906
 11
281.6576926692
 21
519.343764906
  0
LINE
  5
355
100
AcDbEntity
  8
ALL_DETAIL_ITEM
100
AcDbLine
 62
2
  6
CONTINUOUS
 10
363.9800231397
 20
419.343764906
 11
340.9457453307
 21
442.378042715
  0
LINE
  5
356
100
AcDbEntity
  8
ALL_DETAIL_ITEM
100
AcDbLine
 62
2
  6
CONTINUOUS
 10
326.0392733606
 20
457.2845146851
 11
263.9800231397
 21
519.343764906
  0
LINE
  5
357
100
AcDbEntity
  8
ALL_DETAIL_ITEM
100
AcDbLine
 62
2
  6
CONTINUOUS
 10
346.3023536102
 20
419.343764906
 11
340.9457453307
 21
424.7003731855
  0
LINE
  5
358
100
AcDbEntity
  8
ALL_DETAIL_ITEM
100
AcDbLine
 62
2
  6
CONTINUOUS
 10
320.9457453307
 20
444.7003731855
 11
246.3023536102
 21
519.343764906
  0
LINE
  5
359
100
AcDbEntity
  8
ALL_DETAIL_ITEM
100
AcDbLine
 62
2
  6
CONTINUOUS
 10
320.9457453307
 20
427.022703656
 11
228.6246840807
 21
519.343764906
  0
LINE
  5
35A
100
AcDbEntity
  8
ALL_DETAIL_ITEM
100
AcDbLine
 62
2
  6
CONTINUOUS
 10
310.9470145512
 20
419.343764906
 11
218.4457453307
 21
511.8450341265
  0
LINE
  5
35B
100
AcDbEntity
  8
ALL_DETAIL_ITEM
100
AcDbLine
 62
2
  6
CONTINUOUS
 10
293.2693450217
 20
419.343764906
 11
218.4457453307
 21
494.167364597
  0
LINE
  5
35C
100
AcDbEntity
  8
ALL_DETAIL_ITEM
100
AcDbLine
 62
2
  6
CONTINUOUS
 10
275.5916754922
 20
419.343764906
 11
218.4457453307
 21
476.4896950675
  0
LINE
  5
35D
100
AcDbEntity
  8
ALL_DETAIL_ITEM
100
AcDbLine
 62
2
  6
CONTINUOUS
 10
257.9140059627
 20
419.343764906
 11
218.4457453307
 21
458.812025538
  0
LINE
  5
35E
100
AcDbEntity
  8
ALL_DETAIL_ITEM
100
AcDbLine
 62
2
  6
CONTINUOUS
 10
240.2363364332
 20
419.343764906
 11
218.4457453307
 21
441.1343560085
  0
LINE
  5
35F
100
AcDbEntity
  8
ALL_DETAIL_ITEM
100
AcDbLine
 62
2
  6
CONTINUOUS
 10
222.5586669037
 20
419.343764906
 11
218.4457453307
 21
423.456686479
  0
ARC
  5
360
100
AcDbEntity
  8
ALL_DETAIL_ITEM
100
AcDbCircle
 62
2
  6
CONTINUOUS
 10
288.244527794
 20
395.093764906
 40
5.0
100
AcDbArc
 50
36.8698976458
 51
90.0
  0
LINE
  5
361
100
AcDbEntity
  8
ALL_DETAIL_ITEM
100
AcDbLine
 62
2
  6
CONTINUOUS
 10
288.244527794
 20
400.093764906
 11
285.3974817127
 21
400.093764906
  0
ARC
  5
362
100
AcDbEntity
  8
ALL_DETAIL_ITEM
100
AcDbCircle
 62
2
  6
CONTINUOUS
 10
285.3974817127
 20
392.593764906
 40
7.5
100
AcDbArc
 50
90.0
 51
160.0
  0
LINE
  5
363
100
AcDbEntity
  8
ALL_DETAIL_ITEM
100
AcDbLine
 62
2
  6
CONTINUOUS
 10
278.349787057
 20
395.1589159808
 11
278.220853615
 21
394.804674261
  0
ARC
  5
364
100
AcDbEntity
  8
ALL_DETAIL_ITEM
100
AcDbCircle
 62
2
  6
CONTINUOUS
 10
273.9922368215
 20
396.343764906
 40
4.5
100
AcDbArc
 50
270.0
 51
340.0
  0
LINE
  5
365
100
AcDbEntity
  8
ALL_DETAIL_ITEM
100
AcDbLine
 62
2
  6
CONTINUOUS
 10
273.9922368215
 20
391.843764906
 11
252.5989922912
 21
391.843764906
  0
ARC
  5
366
100
AcDbEntity
  8
ALL_DETAIL_ITEM
100
AcDbCircle
 62
2
  6
CONTINUOUS
 10
252.5989922912
 20
379.343764906
 40
12.5
100
AcDbArc
 50
90.0
 51
175.0
  0
LINE
  5
367
100
AcDbEntity
  8
ALL_DETAIL_ITEM
100
AcDbLine
 62
2
  6
CONTINUOUS
 10
240.1465585652
 20
380.4332116903
 11
225.6846102132
 21
215.1323856288
  0
SPLINE
  5
368
100
AcDbEntity
  8
ALL_DETAIL_ITEM
100
AcDbSpline
 62
2
  6
CONTINUOUS
 70
0
 71
3
 72
26
 73
22
 74
0
 42
0.0000001
 43
0.0000001
 44
0.0000000001
 40
0.0
 40
0.0
 40
0.0
 40
0.0
 40
0.0526315789
 40
0.1052631579
 40
0.1578947368
 40
0.2105263158
 40
0.2631578947
 40
0.3157894737
 40
0.3684210526
 40
0.4210526316
 40
0.4736842105
 40
0.5263157895
 40
0.5789473684
 40
0.6315789474
 40
0.6842105263
 40
0.7368421053
 40
0.7894736842
 40
0.8421052632
 40
0.8947368421
 40
0.9473684211
 40
1.0
 40
1.0
 40
1.0
 40
1.0
 10
225.6846102132
 20
215.1323856288
 30
0.0
 10
224.701041304
 20
215.0935414205
 30
0.0
 10
222.731288925
 20
215.0095990533
 30
0.0
 10
219.6069255067
 20
214.821960838
 30
0.0
 10
216.79850075
 20
214.7014863983
 30
0.0
 10
214.350089145
 20
214.6859009458
 30
0.0
 10
212.2922477375
 20
214.7831037415
 30
0.0
 10
210.5598875592
 20
214.9786350103
 30
0.0
 10
209.1013859227
 20
215.2542333155
 30
0.0
 10
207.8648485915
 20
215.592659326
 30
0.0
 10
206.803458252
 20
215.9820239698
 30
0.0
 10
205.8758538825
 20
216.4172664788
 30
0.0
 10
205.0469503685
 20
216.9007519045
 30
0.0
 10
204.2864675117
 20
217.443069131
 30
0.0
 10
203.572516251
 20
218.063360009
 30
0.0
 10
202.8779448465
 20
218.7961272523
 30
0.0
 10
202.1748467547
 20
219.685171101
 30
0.0
 10
201.4389912545
 20
220.79278786
 30
0.0
 10
200.6622055552
 20
222.174819645
 30
0.0
 10
199.856175776
 20
223.8477485695
 30
0.0
 10
199.299039552
 20
225.1393767483
 30
0.0
 10
199.0155495957
 20
225.8307421613
 30
0.0
  0
LINE
  5
369
100
AcDbEntity
  8
ALL_DETAIL_ITEM
100
AcDbLine
 62
2
  6
CONTINUOUS
 10
199.0155495957
 20
225.8307421613
 11
215.5464277102
 21
414.7795436198
  0
ARC
  5
36A
100
AcDbEntity
  8
ALL_DETAIL_ITEM
100
AcDbCircle
 62
2
  6
CONTINUOUS
 10
220.5274012007
 20
414.343764906
 40
5.0
100
AcDbArc
 50
90.0
 51
175.0
  0
LINE
  5
36B
100
AcDbEntity
  8
ALL_DETAIL_ITEM
100
AcDbLine
 62
2
  6
CONTINUOUS
 10
220.5274012007
 20
419.343764906
 11
307.0288948562
 21
419.343764906
  0
ARC
  5
36C
100
AcDbEntity
  8
ALL_DETAIL_ITEM
100
AcDbCircle
 62
2
  6
CONTINUOUS
 10
307.0288948562
 20
411.843764906
 40
7.5
100
AcDbArc
 50
4.0
 51
90.0
  0
LINE
  5
36D
100
AcDbEntity
  8
ALL_DETAIL_ITEM
100
AcDbLine
 62
2
  6
CONTINUOUS
 10
314.510625233
 20
412.366938459
 11
315.508702756
 21
398.093764906
  0
LINE
  5
36E
100
AcDbEntity
  8
ALL_DETAIL_ITEM
100
AcDbLine
 62
2
  6
CONTINUOUS
 10
315.508702756
 20
398.093764906
 11
292.244527794
 21
398.093764906
  0
LINE
  5
36F
100
AcDbEntity
  8
ALL_DETAIL_ITEM
100
AcDbLine
 62
2
  6
CONTINUOUS
 10
219.0862651442
 20
214.806194691
 11
226.2859642572
 21
222.005893804
  0
LINE
  5
370
100
AcDbEntity
  8
ALL_DETAIL_ITEM
100
AcDbLine
 62
2
  6
CONTINUOUS
 10
206.3497529736
 20
216.2118181439
 11
227.6418669136
 21
237.5039320839
  0
LINE
  5
371
100
AcDbEntity
  8
ALL_DETAIL_ITEM
100
AcDbLine
 62
2
  6
CONTINUOUS
 10
199.8628364252
 20
223.8670372191
 11
228.9977695699
 21
253.0019703638
  0
LINE
  5
372
100
AcDbEntity
  8
ALL_DETAIL_ITEM
100
AcDbLine
 62
2
  6
CONTINUOUS
 10
200.1019433666
 20
238.2482797839
 11
230.3536722263
 21
268.5000086437
  0
LINE
  5
373
100
AcDbEntity
  8
ALL_DETAIL_ITEM
100
AcDbLine
 62
2
  6
CONTINUOUS
 10
201.457846023
 20
253.7463180638
 11
231.7095748827
 21
283.9980469235
  0
LINE
  5
374
100
AcDbEntity
  8
ALL_DETAIL_ITEM
100
AcDbLine
 62
2
  6
CONTINUOUS
 10
202.8137486794
 20
269.2443563437
 11
233.0654775391
 21
299.4960852034
  0
LINE
  5
375
100
AcDbEntity
  8
ALL_DETAIL_ITEM
100
AcDbLine
 62
2
  6
CONTINUOUS
 10
204.1696513358
 20
284.7423946236
 11
234.4213801955
 21
314.9941234833
  0
LINE
  5
376
100
AcDbEntity
  8
ALL_DETAIL_ITEM
100
AcDbLine
 62
2
  6
CONTINUOUS
 10
205.5255539921
 20
300.2404329035
 11
235.7772828518
 21
330.4921617632
  0
LINE
  5
377
100
AcDbEntity
  8
ALL_DETAIL_ITEM
100
AcDbLine
 62
2
  6
CONTINUOUS
 10
303.3788859947
 20
398.093764906
 11
314.7159387967
 21
409.4308177081
  0
LINE
  5
378
100
AcDbEntity
  8
ALL_DETAIL_ITEM
100
AcDbLine
 62
2
  6
CONTINUOUS
 10
206.8814566485
 20
315.7384711834
 11
237.1331855082
 21
345.9902000431
  0
LINE
  5
379
100
AcDbEntity
  8
ALL_DETAIL_ITEM
100
AcDbLine
 62
2
  6
CONTINUOUS
 10
290.6294794583
 20
399.4864939931
 11
309.9092998877
 21
418.7663144226
  0
LINE
  5
37A
100
AcDbEntity
  8
ALL_DETAIL_ITEM
100
AcDbLine
 62
2
  6
CONTINUOUS
 10
208.2373593049
 20
331.2365094632
 11
238.4890881646
 21
361.4882383229
  0
LINE
  5
37B
100
AcDbEntity
  8
ALL_DETAIL_ITEM
100
AcDbLine
 62
2
  6
CONTINUOUS
 10
268.8446147477
 20
391.843764906
 11
296.3446147477
 21
419.343764906
  0
LINE
  5
37C
100
AcDbEntity
  8
ALL_DETAIL_ITEM
100
AcDbLine
 62
2
  6
CONTINUOUS
 10
209.5932619613
 20
346.7345477431
 11
239.844990821
 21
376.9862766028
  0
LINE
  5
37D
100
AcDbEntity
  8
ALL_DETAIL_ITEM
100
AcDbLine
 62
2
  6
CONTINUOUS
 10
254.7024791242
 20
391.843764906
 11
282.2024791242
 21
419.343764906
  0
LINE
  5
37E
100
AcDbEntity
  8
ALL_DETAIL_ITEM
100
AcDbLine
 62
2
  6
CONTINUOUS
 10
210.9491646177
 20
362.232586023
 11
268.0603435007
 21
419.343764906
  0
LINE
  5
37F
100
AcDbEntity
  8
ALL_DETAIL_ITEM
100
AcDbLine
 62
2
  6
CONTINUOUS
 10
212.3050672741
 20
377.7306243029
 11
253.9182078772
 21
419.343764906
  0
LINE
  5
380
100
AcDbEntity
  8
ALL_DETAIL_ITEM
100
AcDbLine
 62
2
  6
CONTINUOUS
 10
213.6609699305
 20
393.2286625828
 11
239.7760722537
 21
419.343764906
  0
LINE
  5
381
100
AcDbEntity
  8
ALL_DETAIL_ITEM
100
AcDbLine
 62
2
  6
CONTINUOUS
 10
215.0168725868
 20
408.7267008627
 11
225.6339366302
 21
419.343764906
  0
SPLINE
  5
382
100
AcDbEntity
  8
ALL_DETAIL_ITEM
100
AcDbSpline
 62
2
  6
CONTINUOUS
 70
0
 71
3
 72
23
 73
19
 74
0
 42
0.0000001
 43
0.0000001
 44
0.0000000001
 40
0.0
 40
0.0
 40
0.0
 40
0.0
 40
0.0625
 40
0.125
 40
0.1875
 40
0.25
 40
0.3125
 40
0.375
 40
0.4375
 40
0.5
 40
0.5625
 40
0.625
 40
0.6875
 40
0.75
 40
0.8125
 40
0.875
 40
0.9375
 40
1.0
 40
1.0
 40
1.0
 40
1.0
 10
425.9457453307
 20
208.6974156528
 30
0.0
 10
425.2362076362
 20
207.7366322963
 30
0.0
 10
423.8656415952
 20
205.979692853
 30
0.0
 10
421.9543900762
 20
203.8635905853
 30
0.0
 10
420.190527601
 20
202.1905199495
 30
0.0
 10
418.560480518
 20
200.8826430028
 30
0.0
 10
416.9898336327
 20
199.8288334693
 30
0.0
 10
415.3880967992
 20
198.957010451
 30
0.0
 10
413.6609242232
 20
198.2064924745
 30
0.0
 10
411.7226005157
 20
197.555889397
 30
0.0
 10
409.4894263355
 20
197.0096314745
 30
0.0
 10
406.8660313167
 20
196.5877152873
 30
0.0
 10
403.7497172317
 20
196.3238445055
 30
0.0
 10
400.0989192162
 20
196.2504371228
 30
0.0
 10
395.869675252
 20
196.3705203205
 30
0.0
 10
391.180694058
 20
196.6282697613
 30
0.0
 10
385.7796587527
 20
196.9125956218
 30
0.0
 10
382.5429768162
 20
196.9321752048
 30
0.0
 10
380.9457453307
 20
196.9151129658
 30
0.0
  0
LINE
  5
383
100
AcDbEntity
  8
ALL_DETAIL_ITEM
100
AcDbLine
 62
2
  6
CONTINUOUS
 10
380.9457453307
 20
196.9151129658
 11
380.9457453307
 21
419.343764906
  0
LINE
  5
384
100
AcDbEntity
  8
ALL_DETAIL_ITEM
100
AcDbLine
 62
2
  6
CONTINUOUS
 10
380.9457453307
 20
419.343764906
 11
425.9457453307
 21
419.343764906
  0
LINE
  5
385
100
AcDbEntity
  8
ALL_DETAIL_ITEM
100
AcDbLine
 62
2
  6
CONTINUOUS
 10
425.9457453307
 20
419.343764906
 11
425.9457453307
 21
208.6974156528
  0
LINE
  5
386
100
AcDbEntity
  8
ALL_DETAIL_ITEM
100
AcDbLine
 62
2
  6
CONTINUOUS
 10
415.4158822124
 20
199.0037774067
 11
425.9457453307
 21
209.533640525
  0
LINE
  5
387
100
AcDbEntity
  8
ALL_DETAIL_ITEM
100
AcDbLine
 62
2
  6
CONTINUOUS
 10
398.5769005604
 20
196.3069313783
 11
425.9457453307
 21
223.6757761485
  0
LINE
  5
388
100
AcDbEntity
  8
ALL_DETAIL_ITEM
100
AcDbLine
 62
2
  6
CONTINUOUS
 10
385.0145189373
 20
196.8866853787
 11
425.9457453307
 21
237.817911772
  0
LINE
  5
389
100
AcDbEntity
  8
ALL_DETAIL_ITEM
100
AcDbLine
 62
2
  6
CONTINUOUS
 10
380.9457453307
 20
206.9600473955
 11
425.9457453307
 21
251.9600473955
  0
LINE
  5
38A
100
AcDbEntity
  8
ALL_DETAIL_ITEM
100
AcDbLine
 62
2
  6
CONTINUOUS
 10
380.9457453307
 20
221.102183019
 11
425.9457453307
 21
266.102183019
  0
LINE
  5
38B
100
AcDbEntity
  8
ALL_DETAIL_ITEM
100
AcDbLine
 62
2
  6
CONTINUOUS
 10
380.9457453307
 20
235.2443186425
 11
425.9457453307
 21
280.2443186425
  0
LINE
  5
38C
100
AcDbEntity
  8
ALL_DETAIL_ITEM
100
AcDbLine
 62
2
  6
CONTINUOUS
 10
380.9457453307
 20
249.386454266
 11
425.9457453307
 21
294.386454266
  0
LINE
  5
38D
100
AcDbEntity
  8
ALL_DETAIL_ITEM
100
AcDbLine
 62
2
  6
CONTINUOUS
 10
380.9457453307
 20
263.5285898895
 11
425.9457453307
 21
308.5285898895
  0
LINE
  5
38E
100
AcDbEntity
  8
ALL_DETAIL_ITEM
100
AcDbLine
 62
2
  6
CONTINUOUS
 10
380.9457453307
 20
277.670725513
 11
425.9457453307
 21
322.670725513
  0
LINE
  5
38F
100
AcDbEntity
  8
ALL_DETAIL_ITEM
100
AcDbLine
 62
2
  6
CONTINUOUS
 10
380.9457453307
 20
291.8128611365
 11
425.9457453307
 21
336.8128611365
  0
LINE
  5
390
100
AcDbEntity
  8
ALL_DETAIL_ITEM
100
AcDbLine
 62
2
  6
CONTINUOUS
 10
380.9457453307
 20
305.95499676
 11
425.9457453307
 21
350.95499676
  0
LINE
  5
391
100
AcDbEntity
  8
ALL_DETAIL_ITEM
100
AcDbLine
 62
2
  6
CONTINUOUS
 10
380.9457453307
 20
320.0971323835
 11
425.9457453307
 21
365.0971323835
  0
LINE
  5
392
100
AcDbEntity
  8
ALL_DETAIL_ITEM
100
AcDbLine
 62
2
  6
CONTINUOUS
 10
380.9457453307
 20
334.239268007
 11
425.9457453307
 21
379.239268007
  0
LINE
  5
393
100
AcDbEntity
  8
ALL_DETAIL_ITEM
100
AcDbLine
 62
2
  6
CONTINUOUS
 10
380.9457453307
 20
348.3814036305
 11
425.9457453307
 21
393.3814036305
  0
LINE
  5
394
100
AcDbEntity
  8
ALL_DETAIL_ITEM
100
AcDbLine
 62
2
  6
CONTINUOUS
 10
380.9457453307
 20
362.523539254
 11
425.9457453307
 21
407.523539254
  0
LINE
  5
395
100
AcDbEntity
  8
ALL_DETAIL_ITEM
100
AcDbLine
 62
2
  6
CONTINUOUS
 10
380.9457453307
 20
376.6656748775
 11
423.6238353592
 21
419.343764906
  0
LINE
  5
396
100
AcDbEntity
  8
ALL_DETAIL_ITEM
100
AcDbLine
 62
2
  6
CONTINUOUS
 10
380.9457453307
 20
390.807810501
 11
409.4816997357
 21
419.343764906
  0
LINE
  5
397
100
AcDbEntity
  8
ALL_DETAIL_ITEM
100
AcDbLine
 62
2
  6
CONTINUOUS
 10
380.9457453307
 20
404.9499461245
 11
395.3395641122
 21
419.343764906
  0
LINE
  5
398
100
AcDbEntity
  8
ALL_DETAIL_ITEM
100
AcDbLine
 62
2
  6
CONTINUOUS
 10
380.9457453307
 20
419.092081748
 11
381.1974284887
 21
419.343764906
  0
LINE
  5
399
100
AcDbEntity
  8
ALL_DETAIL_ITEM
100
AcDbLine
 62
2
  6
CONTINUOUS
 10
425.9457453307
 20
413.946585199
 11
420.5485656237
 21
419.343764906
  0
LINE
  5
39A
100
AcDbEntity
  8
ALL_DETAIL_ITEM
100
AcDbLine
 62
2
  6
CONTINUOUS
 10
425.9457453307
 20
399.8044495755
 11
406.4064300002
 21
419.343764906
  0
LINE
  5
39B
100
AcDbEntity
  8
ALL_DETAIL_ITEM
100
AcDbLine
 62
2
  6
CONTINUOUS
 10
425.9457453307
 20
385.662313952
 11
392.2642943767
 21
419.343764906
  0
LINE
  5
39C
100
AcDbEntity
  8
ALL_DETAIL_ITEM
100
AcDbLine
 62
2
  6
CONTINUOUS
 10
425.9457453307
 20
371.5201783285
 11
380.9457453307
 21
416.5201783285
  0
LINE
  5
39D
100
AcDbEntity
  8
ALL_DETAIL_ITEM
100
AcDbLine
 62
2
  6
CONTINUOUS
 10
425.9457453307
 20
357.378042705
 11
380.9457453307
 21
402.378042705
  0
LINE
  5
39E
100
AcDbEntity
  8
ALL_DETAIL_ITEM
100
AcDbLine
 62
2
  6
CONTINUOUS
 10
425.9457453307
 20
343.2359070815
 11
380.9457453307
 21
388.2359070815
  0
LINE
  5
39F
100
AcDbEntity
  8
ALL_DETAIL_ITEM
100
AcDbLine
 62
2
  6
CONTINUOUS
 10
425.9457453307
 20
329.093771458
 11
380.9457453307
 21
374.093771458
  0
LINE
  5
3A0
100
AcDbEntity
  8
ALL_DETAIL_ITEM
100
AcDbLine
 62
2
  6
CONTINUOUS
 10
425.9457453307
 20
314.9516358345
 11
380.9457453307
 21
359.9516358345
  0
LINE
  5
3A1
100
AcDbEntity
  8
ALL_DETAIL_ITEM
100
AcDbLine
 62
2
  6
CONTINUOUS
 10
425.9457453307
 20
300.809500211
 11
380.9457453307
 21
345.809500211
  0
LINE
  5
3A2
100
AcDbEntity
  8
ALL_DETAIL_ITEM
100
AcDbLine
 62
2
  6
CONTINUOUS
 10
425.9457453307
 20
286.6673645875
 11
380.9457453307
 21
331.6673645875
  0
LINE
  5
3A3
100
AcDbEntity
  8
ALL_DETAIL_ITEM
100
AcDbLine
 62
2
  6
CONTINUOUS
 10
425.9457453307
 20
272.525228964
 11
380.9457453307
 21
317.525228964
  0
LINE
  5
3A4
100
AcDbEntity
  8
ALL_DETAIL_ITEM
100
AcDbLine
 62
2
  6
CONTINUOUS
 10
425.9457453307
 20
258.3830933405
 11
380.9457453307
 21
303.3830933405
  0
LINE
  5
3A5
100
AcDbEntity
  8
ALL_DETAIL_ITEM
100
AcDbLine
 62
2
  6
CONTINUOUS
 10
425.9457453307
 20
244.240957717
 11
380.9457453307
 21
289.240957717
  0
LINE
  5
3A6
100
AcDbEntity
  8
ALL_DETAIL_ITEM
100
AcDbLine
 62
2
  6
CONTINUOUS
 10
425.9457453307
 20
230.0988220935
 11
380.9457453307
 21
275.0988220935
  0
LINE
  5
3A7
100
AcDbEntity
  8
ALL_DETAIL_ITEM
100
AcDbLine
 62
2
  6
CONTINUOUS
 10
425.9457453307
 20
215.95668647
 11
380.9457453307
 21
260.95668647
  0
LINE
  5
3A8
100
AcDbEntity
  8
ALL_DETAIL_ITEM
100
AcDbLine
 62
2
  6
CONTINUOUS
 10
422.869037556
 20
204.8912586212
 11
380.9457453307
 21
246.8145508465
  0
LINE
  5
3A9
100
AcDbEntity
  8
ALL_DETAIL_ITEM
100
AcDbLine
 62
2
  6
CONTINUOUS
 10
414.860387573
 20
198.7577729808
 11
380.9457453307
 21
232.672415223
  0
LINE
  5
3AA
100
AcDbEntity
  8
ALL_DETAIL_ITEM
100
AcDbLine
 62
2
  6
CONTINUOUS
 10
403.1383789173
 20
196.337646013
 11
380.9457453307
 21
218.5302795995
  0
LINE
  5
3AB
100
AcDbEntity
  8
ALL_DETAIL_ITEM
100
AcDbLine
 62
2
  6
CONTINUOUS
 10
388.5731759109
 20
196.7607133958
 11
380.9457453307
 21
204.388143976
  0
LINE
  5
3AC
100
AcDbEntity
  8
ALL_DETAIL_ITEM
100
AcDbLine
 62
2
  6
CONTINUOUS
 10
357.14860628
 20
390.4533340198
 11
368.294576725
 21
391.9797162923
  0
ARC
  5
3AD
100
AcDbEntity
  8
ALL_DETAIL_ITEM
100
AcDbCircle
 62
2
  6
CONTINUOUS
 10
367.9553806642
 20
394.4565986133
 40
2.5
100
AcDbArc
 50
277.7978516935
 51
7.7978516935
  0
LINE
  5
3AE
100
AcDbEntity
  8
ALL_DETAIL_ITEM
100
AcDbLine
 62
2
  6
CONTINUOUS
 10
370.4322629855
 20
394.795794674
 11
367.20990041
 21
418.3261767243
  0
LINE
  5
3AF
100
AcDbEntity
  8
ALL_DETAIL_ITEM
100
AcDbLine
 62
2
  6
CONTINUOUS
 10
367.20990041
 20
418.3261767243
 11
374.6405473732
 21
419.343764906
  0
LINE
  5
3B0
100
AcDbEntity
  8
ALL_DETAIL_ITEM
100
AcDbLine
 62
2
  6
CONTINUOUS
 10
374.6405473732
 20
419.343764906
 11
377.8629099487
 21
395.8133828555
  0
ARC
  5
3B1
100
AcDbEntity
  8
ALL_DETAIL_ITEM
100
AcDbCircle
 62
2
  6
CONTINUOUS
 10
367.9553806642
 20
394.4565986133
 40
10.0
100
AcDbArc
 50
277.7978516935
 51
7.7978516935
  0
LINE
  5
3B2
100
AcDbEntity
  8
ALL_DETAIL_ITEM
100
AcDbLine
 62
2
  6
CONTINUOUS
 10
369.3121649065
 20
384.549069329
 11
358.1661944617
 21
383.0226870565
  0
LINE
  5
3B3
100
AcDbEntity
  8
ALL_DETAIL_ITEM
100
AcDbLine
 62
2
  6
CONTINUOUS
 10
358.1661944617
 20
383.0226870565
 11
357.14860628
 21
390.4533340198
  0
LINE
  5
3B4
100
AcDbEntity
  8
ALL_DETAIL_ITEM
100
AcDbLine
 62
2
  6
CONTINUOUS
 10
316.0591950032
 20
377.2563540268
 11
295.005695274
 21
374.373187512
  0
ARC
  5
3B5
100
AcDbEntity
  8
ALL_DETAIL_ITEM
100
AcDbCircle
 62
2
  6
CONTINUOUS
 10
293.6489110317
 20
384.2807167963
 40
10.0
100
AcDbArc
 50
187.7978516935
 51
277.7978516935
  0
LINE
  5
3B6
100
AcDbEntity
  8
ALL_DETAIL_ITEM
100
AcDbLine
 62
2
  6
CONTINUOUS
 10
283.7413817475
 20
382.923932554
 11
281.5366073537
 21
399.023667641
  0
LINE
  5
3B7
100
AcDbEntity
  8
ALL_DETAIL_ITEM
100
AcDbLine
 62
2
  6
CONTINUOUS
 10
281.5366073537
 20
399.023667641
 11
288.967254317
 21
400.0412558228
  0
LINE
  5
3B8
100
AcDbEntity
  8
ALL_DETAIL_ITEM
100
AcDbLine
 62
2
  6
CONTINUOUS
 10
288.967254317
 20
400.0412558228
 11
291.1720287107
 21
383.9415207358
  0
ARC
  5
3B9
100
AcDbEntity
  8
ALL_DETAIL_ITEM
100
AcDbCircle
 62
2
  6
CONTINUOUS
 10
293.6489110317
 20
384.2807167963
 40
2.5
100
AcDbArc
 50
187.7978516935
 51
277.7978516935
  0
LINE
  5
3BA
100
AcDbEntity
  8
ALL_DETAIL_ITEM
100
AcDbLine
 62
2
  6
CONTINUOUS
 10
293.9881070925
 20
381.8038344753
 11
315.0416068215
 21
384.68700099
  0
LINE
  5
3BB
100
AcDbEntity
  8
ALL_DETAIL_ITEM
100
AcDbLine
 62
2
  6
CONTINUOUS
 10
315.0416068215
 20
384.68700099
 11
316.0591950032
 21
377.2563540268
  0
LINE
  5
3BC
100
AcDbEntity
  8
ALL_DETAIL_ITEM
100
AcDbLine
 62
2
  6
CONTINUOUS
 10
375.2101021702
 20
415.1847537275
 11
371.4834402729
 21
418.9114156248
  0
LINE
  5
3BD
100
AcDbEntity
  8
ALL_DETAIL_ITEM
100
AcDbLine
 62
2
  6
CONTINUOUS
 10
376.051600192
 20
409.0399548467
 11
367.2804346817
 21
417.811120357
  0
LINE
  5
3BE
100
AcDbEntity
  8
ALL_DETAIL_ITEM
100
AcDbLine
 62
2
  6
CONTINUOUS
 10
376.8930982138
 20
402.8951559659
 11
368.1219327034
 21
411.6663214763
  0
LINE
  5
3BF
100
AcDbEntity
  8
ALL_DETAIL_ITEM
100
AcDbLine
 62
2
  6
CONTINUOUS
 10
377.7345962356
 20
396.7503570851
 11
368.9634307252
 21
405.5215225955
  0
LINE
  5
3C0
100
AcDbEntity
  8
ALL_DETAIL_ITEM
100
AcDbLine
 62
2
  6
CONTINUOUS
 10
377.5471343654
 20
391.6345180964
 11
369.8049287469
 21
399.3767237148
  0
LINE
  5
3C1
100
AcDbEntity
  8
ALL_DETAIL_ITEM
100
AcDbLine
 62
2
  6
CONTINUOUS
 10
375.7154444834
 20
388.1629071194
 11
370.294928322
 21
393.5834232808
  0
LINE
  5
3C2
100
AcDbEntity
  8
ALL_DETAIL_ITEM
100
AcDbLine
 62
2
  6
CONTINUOUS
 10
372.8329047584
 20
385.7421459853
 11
366.800007833
 21
391.7750429107
  0
LINE
  5
3C3
100
AcDbEntity
  8
ALL_DETAIL_ITEM
100
AcDbLine
 62
2
  6
CONTINUOUS
 10
368.7936838243
 20
384.4780660604
 11
362.1354884692
 21
391.1362614155
  0
LINE
  5
3C4
100
AcDbEntity
  8
ALL_DETAIL_ITEM
100
AcDbLine
 62
2
  6
CONTINUOUS
 10
364.1291644605
 20
383.8392845652
 11
357.4709691055
 21
390.4974799203
  0
LINE
  5
3C5
100
AcDbEntity
  8
ALL_DETAIL_ITEM
100
AcDbLine
 62
2
  6
CONTINUOUS
 10
359.4646450967
 20
383.20050307
 11
357.9319487537
 21
384.733199413
  0
LINE
  5
3C6
100
AcDbEntity
  8
ALL_DETAIL_ITEM
100
AcDbLine
 62
2
  6
CONTINUOUS
 10
315.8021597247
 20
379.1332807111
 11
310.8257754681
 21
384.1096649677
  0
LINE
  5
3C7
100
AcDbEntity
  8
ALL_DETAIL_ITEM
100
AcDbLine
 62
2
  6
CONTINUOUS
 10
312.8194514593
 20
376.8126881174
 11
306.1612561043
 21
383.4708834724
  0
LINE
  5
3C8
100
AcDbEntity
  8
ALL_DETAIL_ITEM
100
AcDbLine
 62
2
  6
CONTINUOUS
 10
308.1549320955
 20
376.1739066222
 11
301.4967367406
 21
382.8321019772
  0
LINE
  5
3C9
100
AcDbEntity
  8
ALL_DETAIL_ITEM
100
AcDbLine
 62
2
  6
CONTINUOUS
 10
289.7097983191
 20
394.6190403987
 11
284.8512483531
 21
399.4775903646
  0
LINE
  5
3CA
100
AcDbEntity
  8
ALL_DETAIL_ITEM
100
AcDbLine
 62
2
  6
CONTINUOUS
 10
303.4904127318
 20
375.535125127
 11
296.8322173768
 21
382.1933204819
  0
LINE
  5
3CB
100
AcDbEntity
  8
ALL_DETAIL_ITEM
100
AcDbLine
 62
2
  6
CONTINUOUS
 10
290.5512963409
 20
388.4742415179
 11
281.7801308305
 21
397.2454070282
  0
LINE
  5
3CC
100
AcDbEntity
  8
ALL_DETAIL_ITEM
100
AcDbLine
 62
2
  6
CONTINUOUS
 10
298.825893368
 20
374.8963436317
 11
282.6216288523
 21
391.1006081474
  0
LINE
  5
3CD
100
AcDbEntity
  8
ALL_DETAIL_ITEM
100
AcDbLine
 62
2
  6
CONTINUOUS
 10
294.1200821966
 20
374.2988539442
 11
283.463126874
 21
384.9558092667
  0
LINE
  5
3CE
100
AcDbEntity
  8
ALL_DETAIL_ITEM
100
AcDbLine
 62
2
  6
CONTINUOUS
 10
330.9457453307
 20
554.5617027325
 11
330.9457453307
 21
589.409176387
  0
LINE
  5
3CF
100
AcDbEntity
  8
ALL_DETAIL_ITEM
100
AcDbLine
 62
2
  6
CONTINUOUS
 10
218.4457453307
 20
462.1559427325
 11
218.4457453307
 21
589.409176387
  0
LINE
  5
3D0
100
AcDbEntity
  8
ALL_DETAIL_ITEM
100
AcDbLine
 62
2
  6
CONTINUOUS
 10
330.9457453307
 20
584.409176387
 11
274.6957453307
 21
584.409176387
  0
LINE
  5
3D1
100
AcDbEntity
  8
ALL_DETAIL_ITEM
100
AcDbLine
 62
2
  6
CONTINUOUS
 10
218.4457453307
 20
584.409176387
 11
274.6957453307
 21
584.409176387
  0
LINE
  5
3D2
100
AcDbEntity
  8
ALL_DETAIL_ITEM
100
AcDbLine
 62
2
  6
CONTINUOUS
 10
313.4457453307
 20
588.1591763873
 11
313.4457453307
 21
580.6591763868
  0
LINE
  5
3D3
100
AcDbEntity
  8
ALL_DETAIL_ITEM
100
AcDbLine
 62
2
  6
CONTINUOUS
 10
313.4457453307
 20
580.6591763868
 11
330.9457453307
 21
584.409176387
  0
LINE
  5
3D4
100
AcDbEntity
  8
ALL_DETAIL_ITEM
100
AcDbLine
 62
2
  6
CONTINUOUS
 10
330.9457453307
 20
584.409176387
 11
313.4457453307
 21
588.1591763873
  0
SOLID
  5
3D5
100
AcDbEntity
  8
ALL_DETAIL_ITEM
100
AcDbTrace
 62
2
  6
CONTINUOUS
 10
313.4457453307
 20
588.1591763873
 11
330.9457453307
 21
584.409176387
 12
313.4457453307
 22
580.6591763868
 13
313.4457453307
 23
580.6591763868
  0
LINE
  5
3D6
100
AcDbEntity
  8
ALL_DETAIL_ITEM
100
AcDbLine
 62
2
  6
CONTINUOUS
 10
235.9457453307
 20
580.6591763868
 11
235.9457453307
 21
588.1591763873
  0
LINE
  5
3D7
100
AcDbEntity
  8
ALL_DETAIL_ITEM
100
AcDbLine
 62
2
  6
CONTINUOUS
 10
235.9457453307
 20
588.1591763873
 11
218.4457453307
 21
584.409176387
  0
LINE
  5
3D8
100
AcDbEntity
  8
ALL_DETAIL_ITEM
100
AcDbLine
 62
2
  6
CONTINUOUS
 10
218.4457453307
 20
584.409176387
 11
235.9457453307
 21
580.6591763868
  0
SOLID
  5
3D9
100
AcDbEntity
  8
ALL_DETAIL_ITEM
100
AcDbTrace
 62
2
  6
CONTINUOUS
 10
235.9457453307
 20
580.6591763868
 11
218.4457453307
 21
584.409176387
 12
235.9457453307
 22
588.1591763873
 13
235.9457453307
 23
588.1591763873
  0
LINE
  5
3DA
100
AcDbEntity
  8
ALL_DETAIL_ITEM
100
AcDbLine
 62
2
  6
CONTINUOUS
 10
340.9457453307
 20
419.343764906
 11
487.1772529307
 21
419.343764906
  0
LINE
  5
3DB
100
AcDbEntity
  8
ALL_DETAIL_ITEM
100
AcDbLine
 62
2
  6
CONTINUOUS
 10
340.9457453307
 20
454.343764906
 11
487.1772529307
 21
454.343764906
  0
LINE
  5
3DC
100
AcDbEntity
  8
ALL_DETAIL_ITEM
100
AcDbLine
 62
2
  6
CONTINUOUS
 10
482.1772529307
 20
419.343764906
 11
482.1772529307
 21
361.071614506
  0
LINE
  5
3DD
100
AcDbEntity
  8
ALL_DETAIL_ITEM
100
AcDbLine
 62
2
  6
CONTINUOUS
 10
482.1772529307
 20
361.071614506
 11
482.1772529307
 21
436.843764906
  0
LINE
  5
3DE
100
AcDbEntity
  8
ALL_DETAIL_ITEM
100
AcDbLine
 62
2
  6
CONTINUOUS
 10
482.1772529307
 20
454.343764906
 11
482.1772529307
 21
479.343764906
  0
LINE
  5
3DF
100
AcDbEntity
  8
ALL_DETAIL_ITEM
100
AcDbLine
 62
2
  6
CONTINUOUS
 10
482.1772529307
 20
479.343764906
 11
482.1772529307
 21
436.843764906
  0
LINE
  5
3E0
100
AcDbEntity
  8
ALL_DETAIL_ITEM
100
AcDbLine
 62
2
  6
CONTINUOUS
 10
478.4272529305
 20
401.843764906
 11
485.927252931
 21
401.843764906
  0
LINE
  5
3E1
100
AcDbEntity
  8
ALL_DETAIL_ITEM
100
AcDbLine
 62
2
  6
CONTINUOUS
 10
485.927252931
 20
401.843764906
 11
482.1772529307
 21
419.343764906
  0
LINE
  5
3E2
100
AcDbEntity
  8
ALL_DETAIL_ITEM
100
AcDbLine
 62
2
  6
CONTINUOUS
 10
482.1772529307
 20
419.343764906
 11
478.4272529305
 21
401.843764906
  0
SOLID
  5
3E3
100
AcDbEntity
  8
ALL_DETAIL_ITEM
100
AcDbTrace
 62
2
  6
CONTINUOUS
 10
478.4272529305
 20
401.843764906
 11
482.1772529307
 21
419.343764906
 12
485.927252931
 22
401.843764906
 13
485.927252931
 23
401.843764906
  0
LINE
  5
3E4
100
AcDbEntity
  8
ALL_DETAIL_ITEM
100
AcDbLine
 62
2
  6
CONTINUOUS
 10
485.927252931
 20
471.843764906
 11
478.4272529305
 21
471.843764906
  0
LINE
  5
3E5
100
AcDbEntity
  8
ALL_DETAIL_ITEM
100
AcDbLine
 62
2
  6
CONTINUOUS
 10
478.4272529305
 20
471.843764906
 11
482.1772529307
 21
454.343764906
  0
LINE
  5
3E6
100
AcDbEntity
  8
ALL_DETAIL_ITEM
100
AcDbLine
 62
2
  6
CONTINUOUS
 10
482.1772529307
 20
454.343764906
 11
485.927252931
 21
471.843764906
  0
SOLID
  5
3E7
100
AcDbEntity
  8
ALL_DETAIL_ITEM
100
AcDbTrace
 62
2
  6
CONTINUOUS
 10
485.927252931
 20
471.843764906
 11
482.1772529307
 21
454.343764906
 12
478.4272529305
 22
471.843764906
 13
478.4272529305
 23
471.843764906
  0
LINE
  5
3E8
100
AcDbEntity
  8
ALL_DETAIL_ITEM
100
AcDbLine
 62
2
  6
CONTINUOUS
 10
320.9457453307
 20
419.343764906
 11
320.9457453307
 21
551.909176387
  0
LINE
  5
3E9
100
AcDbEntity
  8
ALL_DETAIL_ITEM
100
AcDbLine
 62
2
  6
CONTINUOUS
 10
340.9457453307
 20
419.343764906
 11
340.9457453307
 21
551.909176387
  0
LINE
  5
3EA
100
AcDbEntity
  8
ALL_DETAIL_ITEM
100
AcDbLine
 62
2
  6
CONTINUOUS
 10
320.9457453307
 20
546.909176387
 11
249.1199958692
 21
546.909176387
  0
LINE
  5
3EB
100
AcDbEntity
  8
ALL_DETAIL_ITEM
100
AcDbLine
 62
2
  6
CONTINUOUS
 10
249.1199958692
 20
546.909176387
 11
330.9457453307
 21
546.909176387
  0
LINE
  5
3EC
100
AcDbEntity
  8
ALL_DETAIL_ITEM
100
AcDbLine
 62
2
  6
CONTINUOUS
 10
340.9457453307
 20
546.909176387
 11
365.9457453307
 21
546.909176387
  0
LINE
  5
3ED
100
AcDbEntity
  8
ALL_DETAIL_ITEM
100
AcDbLine
 62
2
  6
CONTINUOUS
 10
365.9457453307
 20
546.909176387
 11
330.9457453307
 21
546.909176387
  0
LINE
  5
3EE
100
AcDbEntity
  8
ALL_DETAIL_ITEM
100
AcDbLine
 62
2
  6
CONTINUOUS
 10
303.4457453307
 20
550.6591763873
 11
303.4457453307
 21
543.1591763868
  0
LINE
  5
3EF
100
AcDbEntity
  8
ALL_DETAIL_ITEM
100
AcDbLine
 62
2
  6
CONTINUOUS
 10
303.4457453307
 20
543.1591763868
 11
320.9457453307
 21
546.909176387
  0
LINE
  5
3F0
100
AcDbEntity
  8
ALL_DETAIL_ITEM
100
AcDbLine
 62
2
  6
CONTINUOUS
 10
320.9457453307
 20
546.909176387
 11
303.4457453307
 21
550.6591763873
  0
SOLID
  5
3F1
100
AcDbEntity
  8
ALL_DETAIL_ITEM
100
AcDbTrace
 62
2
  6
CONTINUOUS
 10
303.4457453307
 20
550.6591763873
 11
320.9457453307
 21
546.909176387
 12
303.4457453307
 22
543.1591763868
 13
303.4457453307
 23
543.1591763868
  0
LINE
  5
3F2
100
AcDbEntity
  8
ALL_DETAIL_ITEM
100
AcDbLine
 62
2
  6
CONTINUOUS
 10
358.4457453307
 20
543.1591763868
 11
358.4457453307
 21
550.6591763873
  0
LINE
  5
3F3
100
AcDbEntity
  8
ALL_DETAIL_ITEM
100
AcDbLine
 62
2
  6
CONTINUOUS
 10
358.4457453307
 20
550.6591763873
 11
340.9457453307
 21
546.909176387
  0
LINE
  5
3F4
100
AcDbEntity
  8
ALL_DETAIL_ITEM
100
AcDbLine
 62
2
  6
CONTINUOUS
 10
340.9457453307
 20
546.909176387
 11
358.4457453307
 21
543.1591763868
  0
SOLID
  5
3F5
100
AcDbEntity
  8
ALL_DETAIL_ITEM
100
AcDbTrace
 62
2
  6
CONTINUOUS
 10
358.4457453307
 20
543.1591763868
 11
340.9457453307
 21
546.909176387
 12
358.4457453307
 22
550.6591763873
 13
358.4457453307
 23
550.6591763873
  0
LINE
  5
3F6
100
AcDbEntity
  8
ALL_DETAIL_ITEM
100
AcDbLine
 62
2
  6
CONTINUOUS
 10
380.9457453307
 20
419.343764906
 11
380.9457453307
 21
626.909176387
  0
LINE
  5
3F7
100
AcDbEntity
  8
ALL_DETAIL_ITEM
100
AcDbLine
 62
2
  6
CONTINUOUS
 10
218.4457453307
 20
419.343764906
 11
218.4457453307
 21
626.909176387
  0
LINE
  5
3F8
100
AcDbEntity
  8
ALL_DETAIL_ITEM
100
AcDbLine
 62
2
  6
CONTINUOUS
 10
380.9457453307
 20
621.909176387
 11
299.6957453307
 21
621.909176387
  0
LINE
  5
3F9
100
AcDbEntity
  8
ALL_DETAIL_ITEM
100
AcDbLine
 62
2
  6
CONTINUOUS
 10
218.4457453307
 20
621.909176387
 11
299.6957453307
 21
621.909176387
  0
LINE
  5
3FA
100
AcDbEntity
  8
ALL_DETAIL_ITEM
100
AcDbLine
 62
2
  6
CONTINUOUS
 10
363.4457453307
 20
625.6591763873
 11
363.4457453307
 21
618.1591763868
  0
LINE
  5
3FB
100
AcDbEntity
  8
ALL_DETAIL_ITEM
100
AcDbLine
 62
2
  6
CONTINUOUS
 10
363.4457453307
 20
618.1591763868
 11
380.9457453307
 21
621.909176387
  0
LINE
  5
3FC
100
AcDbEntity
  8
ALL_DETAIL_ITEM
100
AcDbLine
 62
2
  6
CONTINUOUS
 10
380.9457453307
 20
621.909176387
 11
363.4457453307
 21
625.6591763873
  0
SOLID
  5
3FD
100
AcDbEntity
  8
ALL_DETAIL_ITEM
100
AcDbTrace
 62
2
  6
CONTINUOUS
 10
363.4457453307
 20
625.6591763873
 11
380.9457453307
 21
621.909176387
 12
363.4457453307
 22
618.1591763868
 13
363.4457453307
 23
618.1591763868
  0
LINE
  5
3FE
100
AcDbEntity
  8
ALL_DETAIL_ITEM
100
AcDbLine
 62
2
  6
CONTINUOUS
 10
235.9457453307
 20
618.1591763868
 11
235.9457453307
 21
625.6591763873
  0
LINE
  5
3FF
100
AcDbEntity
  8
ALL_DETAIL_ITEM
100
AcDbLine
 62
2
  6
CONTINUOUS
 10
235.9457453307
 20
625.6591763873
 11
218.4457453307
 21
621.909176387
  0
LINE
  5
400
100
AcDbEntity
  8
ALL_DETAIL_ITEM
100
AcDbLine
 62
2
  6
CONTINUOUS
 10
218.4457453307
 20
621.909176387
 11
235.9457453307
 21
618.1591763868
  0
SOLID
  5
401
100
AcDbEntity
  8
ALL_DETAIL_ITEM
100
AcDbTrace
 62
2
  6
CONTINUOUS
 10
235.9457453307
 20
618.1591763868
 11
218.4457453307
 21
621.909176387
 12
235.9457453307
 22
625.6591763873
 13
235.9457453307
 23
625.6591763873
  0
LINE
  5
402
100
AcDbEntity
  8
ALL_DETAIL_ITEM
100
AcDbLine
 62
2
  6
CONTINUOUS
 10
169.7142617567
 20
519.343764906
 11
169.1168408127
 21
517.5065330778
  0
LINE
  5
403
100
AcDbEntity
  8
ALL_DETAIL_ITEM
100
AcDbLine
 62
2
  6
CONTINUOUS
 10
203.6768408127
 20
217.9865330778
 11
212.9339848697
 21
214.7595508735
  0
LINE
  5
404
100
AcDbEntity
  8
ALL_DETAIL_ITEM
100
AcDbLine
 62
2
  6
CONTINUOUS
 10
201.389412867
 20
220.9092132633
 11
203.6768408127
 21
217.9865330778
  0
LINE
  5
405
100
AcDbEntity
  8
ALL_DETAIL_ITEM
100
AcDbLine
 62
2
  6
CONTINUOUS
 10
199.5527068757
 20
224.5617272415
 11
201.389412867
 21
220.9092132633
  0
LINE
  5
406
100
AcDbEntity
  8
ALL_DETAIL_ITEM
100
AcDbLine
 62
2
  6
CONTINUOUS
 10
168.8475489977
 20
408.6716326845
 11
168.1568408127
 21
393.6665330778
  0
LINE
  5
407
100
AcDbEntity
  8
ALL_DETAIL_ITEM
100
AcDbLine
 62
2
  6
CONTINUOUS
 10
172.4816494982
 20
447.7472370335
 11
171.9968408127
 21
438.7865330778
  0
LINE
  5
408
100
AcDbEntity
  8
ALL_DETAIL_ITEM
100
AcDbLine
 62
2
  6
CONTINUOUS
 10
169.1168408127
 20
517.5065330778
 11
167.891321094
 21
500.199697818
  0
LINE
  5
409
100
AcDbEntity
  8
ALL_DETAIL_ITEM
100
AcDbLine
 62
2
  6
CONTINUOUS
 10
171.9968408127
 20
438.7865330778
 11
170.4621698887
 21
423.7127062178
  0
LINE
  5
40A
100
AcDbEntity
  8
ALL_DETAIL_ITEM
100
AcDbLine
 62
2
  6
CONTINUOUS
 10
170.4621698887
 20
423.7127062178
 11
168.8475489977
 21
408.6716326845
  0
LINE
  5
40B
100
AcDbEntity
  8
ALL_DETAIL_ITEM
100
AcDbLine
 62
2
  6
CONTINUOUS
 10
392.5885559627
 20
196.5471470508
 11
405.500134633
 21
196.4817201455
  0
LINE
  5
40C
100
AcDbEntity
  8
ALL_DETAIL_ITEM
100
AcDbLine
 62
2
  6
CONTINUOUS
 10
380.9457453307
 20
196.8281802343
 11
392.5885559627
 21
196.5471470508
  0
LINE
  5
40D
100
AcDbEntity
  8
ALL_DETAIL_ITEM
100
AcDbLine
 62
2
  6
CONTINUOUS
 10
224.7157674842
 20
215.096761297
 11
225.67462226
 21
215.0182227998
  0
LINE
  5
40E
100
AcDbEntity
  8
ALL_DETAIL_ITEM
100
AcDbLine
 62
2
  6
CONTINUOUS
 10
188.962786988
 20
249.3952372128
 11
197.9168408127
 21
228.5465330778
  0
LINE
  5
40F
100
AcDbEntity
  8
ALL_DETAIL_ITEM
100
AcDbLine
 62
2
  6
CONTINUOUS
 10
197.9168408127
 20
228.5465330778
 11
199.5527068757
 21
224.5617272415
  0
LINE
  5
410
100
AcDbEntity
  8
ALL_DETAIL_ITEM
100
AcDbLine
 62
2
  6
CONTINUOUS
 10
181.3299678052
 20
269.4960126173
 11
188.962786988
 21
249.3952372128
  0
LINE
  5
411
100
AcDbEntity
  8
ALL_DETAIL_ITEM
100
AcDbLine
 62
2
  6
CONTINUOUS
 10
177.7568408127
 20
289.9865330778
 11
181.3299678052
 21
269.4960126173
  0
LINE
  5
412
100
AcDbEntity
  8
ALL_DETAIL_ITEM
100
AcDbLine
 62
2
  6
CONTINUOUS
 10
167.891321094
 20
500.199697818
 11
169.7461687892
 21
482.9359527148
  0
LINE
  5
413
100
AcDbEntity
  8
ALL_DETAIL_ITEM
100
AcDbLine
 62
2
  6
CONTINUOUS
 10
168.1568408127
 20
393.6665330778
 11
169.4783187017
 21
375.7190848038
  0
LINE
  5
414
100
AcDbEntity
  8
ALL_DETAIL_ITEM
100
AcDbLine
 62
2
  6
CONTINUOUS
 10
171.9968408127
 20
465.6665330778
 11
172.507378736
 21
456.710014557
  0
LINE
  5
415
100
AcDbEntity
  8
ALL_DETAIL_ITEM
100
AcDbLine
 62
2
  6
CONTINUOUS
 10
178.3291777685
 20
322.673591199
 11
178.7168408127
 21
313.9865330778
  0
LINE
  5
416
100
AcDbEntity
  8
ALL_DETAIL_ITEM
100
AcDbLine
 62
2
  6
CONTINUOUS
 10
172.507378736
 20
456.710014557
 11
172.4816494982
 21
447.7472370335
  0
LINE
  5
417
100
AcDbEntity
  8
ALL_DETAIL_ITEM
100
AcDbLine
 62
2
  6
CONTINUOUS
 10
177.8968927085
 20
297.900778626
 11
177.7568408127
 21
289.9865330778
  0
LINE
  5
418
100
AcDbEntity
  8
ALL_DETAIL_ITEM
100
AcDbLine
 62
2
  6
CONTINUOUS
 10
178.7168408127
 20
313.9865330778
 11
178.4064021412
 21
305.9320270415
  0
LINE
  5
419
100
AcDbEntity
  8
ALL_DETAIL_ITEM
100
AcDbLine
 62
2
  6
CONTINUOUS
 10
178.4064021412
 20
305.9320270415
 11
177.8968927085
 21
297.900778626
  0
LINE
  5
41A
100
AcDbEntity
  8
ALL_DETAIL_ITEM
100
AcDbLine
 62
2
  6
CONTINUOUS
 10
212.9339848697
 20
214.7595508735
 11
224.7157674842
 21
215.096761297
  0
LINE
  5
41B
100
AcDbEntity
  8
ALL_DETAIL_ITEM
100
AcDbLine
 62
2
  6
CONTINUOUS
 10
172.4218208947
 20
357.8063151493
 11
175.8368408127
 21
339.9065330778
  0
LINE
  5
41C
100
AcDbEntity
  8
ALL_DETAIL_ITEM
100
AcDbLine
 62
2
  6
CONTINUOUS
 10
175.8368408127
 20
339.9065330778
 11
177.2860287382
 21
331.3045810215
  0
LINE
  5
41D
100
AcDbEntity
  8
ALL_DETAIL_ITEM
100
AcDbLine
 62
2
  6
CONTINUOUS
 10
169.4783187017
 20
375.7190848038
 11
172.4218208947
 21
357.8063151493
  0
LINE
  5
41E
100
AcDbEntity
  8
ALL_DETAIL_ITEM
100
AcDbLine
 62
2
  6
CONTINUOUS
 10
177.2860287382
 20
331.3045810215
 11
178.3291777685
 21
322.673591199
  0
LINE
  5
41F
100
AcDbEntity
  8
ALL_DETAIL_ITEM
100
AcDbLine
 62
2
  6
CONTINUOUS
 10
169.7461687892
 20
482.9359527148
 11
171.9968408127
 21
465.6665330778
  0
LINE
  5
420
100
AcDbEntity
  8
ALL_DETAIL_ITEM
100
AcDbLine
 62
2
  6
CONTINUOUS
 10
456.4515880072
 20
436.4851313205
 11
457.1168408127
 21
443.5865330778
  0
LINE
  5
421
100
AcDbEntity
  8
ALL_DETAIL_ITEM
100
AcDbLine
 62
2
  6
CONTINUOUS
 10
457.1168408127
 20
443.5865330778
 11
458.9490634192
 21
457.9889451893
  0
LINE
  5
422
100
AcDbEntity
  8
ALL_DETAIL_ITEM
100
AcDbLine
 62
2
  6
CONTINUOUS
 10
456.4199324807
 20
419.343764906
 11
456.1568408127
 21
422.4665330778
  0
LINE
  5
423
100
AcDbEntity
  8
ALL_DETAIL_ITEM
100
AcDbLine
 62
2
  6
CONTINUOUS
 10
456.1568408127
 20
422.4665330778
 11
456.1126424625
 21
429.4559876938
  0
LINE
  5
424
100
AcDbEntity
  8
ALL_DETAIL_ITEM
100
AcDbLine
 62
2
  6
CONTINUOUS
 10
456.1126424625
 20
429.4559876938
 11
456.4515880072
 21
436.4851313205
  0
LINE
  5
425
100
AcDbEntity
  8
ALL_DETAIL_ITEM
100
AcDbLine
 62
2
  6
CONTINUOUS
 10
458.9490634192
 20
457.9889451893
 11
459.9161729897
 21
472.2542133625
  0
LINE
  5
426
100
AcDbEntity
  8
ALL_DETAIL_ITEM
100
AcDbLine
 62
2
  6
CONTINUOUS
 10
447.5168408127
 20
511.7465330778
 11
446.3771696562
 21
519.343764906
  0
LINE
  5
427
100
AcDbEntity
  8
ALL_DETAIL_ITEM
100
AcDbLine
 62
2
  6
CONTINUOUS
 10
459.9161729897
 20
472.2542133625
 11
458.0768408127
 21
485.8265330778
  0
LINE
  5
428
100
AcDbEntity
  8
ALL_DETAIL_ITEM
100
AcDbLine
 62
2
  6
CONTINUOUS
 10
405.500134633
 20
196.4817201455
 11
416.7968408127
 21
199.7465330778
  0
LINE
  5
429
100
AcDbEntity
  8
ALL_DETAIL_ITEM
100
AcDbLine
 62
2
  6
CONTINUOUS
 10
450.6960461887
 20
502.7396147035
 11
447.5168408127
 21
511.7465330778
  0
LINE
  5
42A
100
AcDbEntity
  8
ALL_DETAIL_ITEM
100
AcDbLine
 62
2
  6
CONTINUOUS
 10
421.867345459
 20
203.8235628895
 11
425.9457453307
 21
208.7519674733
  0
LINE
  5
42B
100
AcDbEntity
  8
ALL_DETAIL_ITEM
100
AcDbLine
 62
2
  6
CONTINUOUS
 10
416.7968408127
 20
199.7465330778
 11
421.867345459
 21
203.8235628895
  0
LINE
  5
42C
100
AcDbEntity
  8
ALL_DETAIL_ITEM
100
AcDbLine
 62
2
  6
CONTINUOUS
 10
454.7008912147
 20
494.2825946645
 11
450.6960461887
 21
502.7396147035
  0
LINE
  5
42D
100
AcDbEntity
  8
ALL_DETAIL_ITEM
100
AcDbLine
 62
2
  6
CONTINUOUS
 10
458.0768408127
 20
485.8265330778
 11
454.7008912147
 21
494.2825946645
  0
LINE
  5
42E
100
AcDbEntity
  8
ALL_DETAIL_ITEM
100
AcDbLine
 62
2
  6
CENTER
 10
330.9457453307
 20
539.3466866778
 11
330.9457453307
 21
410.593764906
  0
LINE
  5
42F
100
AcDbEntity
  8
ALL_DETAIL_ITEM
100
AcDbLine
 62
7
  6
CONTINUOUS
 10
320.4457453307
 20
223.343764906
 11
341.4457453307
 21
223.343764906
  0
LINE
  5
430
100
AcDbEntity
  8
ALL_DETAIL_ITEM
100
AcDbLine
 62
7
  6
CONTINUOUS
 10
215.5464277102
 20
414.7795436198
 11
199.0183944345
 21
225.8632588165
  0
LINE
  5
431
100
AcDbEntity
  8
ALL_DETAIL_ITEM
100
AcDbLine
 62
7
  6
CONTINUOUS
 10
315.9820575355
 20
244.343764906
 11
345.9094331257
 21
244.343764906
  0
LINE
  5
432
100
AcDbEntity
  8
ALL_DETAIL_ITEM
100
AcDbLine
 62
7
  6
CONTINUOUS
 10
337.0926203307
 20
249.343764906
 11
324.7988703307
 21
249.343764906
  0
LINE
  5
433
100
AcDbEntity
  8
ALL_DETAIL_ITEM
100
AcDbLine
 62
7
  6
CONTINUOUS
 10
338.4457453307
 20
250.124991989
 11
323.4457453307
 21
250.124991989
  0
LINE
  5
434
100
AcDbEntity
  8
ALL_DETAIL_ITEM
100
AcDbLine
 62
7
  6
CONTINUOUS
 10
218.4457453307
 20
519.343764906
 11
218.4457453307
 21
419.343764906
  0
LINE
  5
435
100
AcDbEntity
  8
ALL_DETAIL_ITEM
100
AcDbLine
 62
7
  6
CONTINUOUS
 10
324.7988703307
 20
249.343764906
 11
323.4457453307
 21
250.124991989
  0
LINE
  5
436
100
AcDbEntity
  8
ALL_DETAIL_ITEM
100
AcDbLine
 62
7
  6
CONTINUOUS
 10
240.1465585652
 20
380.4332116903
 11
225.67462226
 21
215.0182227998
  0
LINE
  5
437
100
AcDbEntity
  8
ALL_DETAIL_ITEM
100
AcDbLine
 62
7
  6
CONTINUOUS
 10
330.9457453307
 20
460.1172675978
 11
320.9457453307
 21
454.343764906
  0
LINE
  5
438
100
AcDbEntity
  8
ALL_DETAIL_ITEM
100
AcDbLine
 62
7
  6
CONTINUOUS
 10
364.6737029507
 20
231.1638409035
 11
345.9094331257
 21
244.343764906
  0
LINE
  5
439
100
AcDbEntity
  8
ALL_DETAIL_ITEM
100
AcDbLine
 62
7
  6
CONTINUOUS
 10
245.9457453307
 20
378.843764906
 11
245.9457453307
 21
384.343764906
  0
LINE
  5
43A
100
AcDbEntity
  8
ALL_DETAIL_ITEM
100
AcDbLine
 62
7
  6
CONTINUOUS
 10
271.1755220877
 20
391.843764906
 11
268.4457453307
 21
384.343764906
  0
LINE
  5
43B
100
AcDbEntity
  8
ALL_DETAIL_ITEM
100
AcDbLine
 62
7
  6
CONTINUOUS
 10
266.4439090422
 20
378.843764906
 11
258.7240637155
 21
357.6336641893
  0
LINE
  5
43C
100
AcDbEntity
  8
ALL_DETAIL_ITEM
100
AcDbLine
 62
7
  6
CONTINUOUS
 10
278.220853615
 20
394.804674261
 11
278.349787057
 21
395.1589159808
  0
LINE
  5
43D
100
AcDbEntity
  8
ALL_DETAIL_ITEM
100
AcDbLine
 62
7
  6
CONTINUOUS
 10
338.4457453307
 20
326.218764906
 11
323.4457453307
 21
326.218764906
  0
LINE
  5
43E
100
AcDbEntity
  8
ALL_DETAIL_ITEM
100
AcDbLine
 62
7
  6
CONTINUOUS
 10
281.5366073537
 20
399.023667641
 11
283.7413817475
 21
382.923932554
  0
LINE
  5
43F
100
AcDbEntity
  8
ALL_DETAIL_ITEM
100
AcDbLine
 62
7
  6
CONTINUOUS
 10
335.9457453307
 20
336.843764906
 11
325.9457453307
 21
336.843764906
  0
LINE
  5
440
100
AcDbEntity
  8
ALL_DETAIL_ITEM
100
AcDbLine
 62
7
  6
CONTINUOUS
 10
340.9457453307
 20
341.843764906
 11
320.9457453307
 21
341.843764906
  0
LINE
  5
441
100
AcDbEntity
  8
ALL_DETAIL_ITEM
100
AcDbLine
 62
7
  6
CONTINUOUS
 10
316.2858697367
 20
244.343764906
 11
317.9265809035
 21
236.8005991043
  0
LINE
  5
442
100
AcDbEntity
  8
ALL_DETAIL_ITEM
100
AcDbLine
 62
7
  6
CONTINUOUS
 10
317.9265809035
 20
236.8005991043
 11
319.4574110347
 21
229.805935453
  0
LINE
  5
443
100
AcDbEntity
  8
ALL_DETAIL_ITEM
100
AcDbLine
 62
7
  6
CONTINUOUS
 10
319.4574110347
 20
229.805935453
 11
320.883439432
 21
223.343764906
  0
LINE
  5
444
100
AcDbEntity
  8
ALL_DETAIL_ITEM
100
AcDbLine
 62
7
  6
CONTINUOUS
 10
291.1720287107
 20
383.9415207358
 11
288.967254317
 21
400.0412558228
  0
LINE
  5
445
100
AcDbEntity
  8
ALL_DETAIL_ITEM
100
AcDbLine
 62
7
  6
CONTINUOUS
 10
323.4718323785
 20
376.843764906
 11
322.714683485
 21
376.0890084388
  0
LINE
  5
446
100
AcDbEntity
  8
ALL_DETAIL_ITEM
100
AcDbLine
 62
7
  6
CONTINUOUS
 10
322.714683485
 20
376.0890084388
 11
321.8811097127
 21
375.257608174
  0
LINE
  5
447
100
AcDbEntity
  8
ALL_DETAIL_ITEM
100
AcDbLine
 62
7
  6
CONTINUOUS
 10
321.8811097127
 20
375.257608174
 11
320.9652956915
 21
374.3437648895
  0
LINE
  5
448
100
AcDbEntity
  8
ALL_DETAIL_ITEM
100
AcDbLine
 62
7
  6
CONTINUOUS
 10
254.0256006115
 20
354.343764906
 11
242.445683604
 21
354.343764906
  0
LINE
  5
449
100
AcDbEntity
  8
ALL_DETAIL_ITEM
100
AcDbLine
 62
7
  6
CONTINUOUS
 10
338.4457453307
 20
326.218764906
 11
336.2386385495
 21
328.425871687
  0
LINE
  5
44A
100
AcDbEntity
  8
ALL_DETAIL_ITEM
100
AcDbLine
 62
7
  6
CONTINUOUS
 10
315.508702756
 20
398.093764906
 11
314.510625233
 21
412.366938459
  0
LINE
  5
44B
100
AcDbEntity
  8
ALL_DETAIL_ITEM
100
AcDbLine
 62
7
  6
CONTINUOUS
 10
320.4457453307
 20
219.093764906
 11
320.4457453307
 21
223.343764906
  0
LINE
  5
44C
100
AcDbEntity
  8
ALL_DETAIL_ITEM
100
AcDbLine
 62
7
  6
CONTINUOUS
 10
320.9457453307
 20
454.343764906
 11
320.9457453307
 21
419.343764906
  0
LINE
  5
44D
100
AcDbEntity
  8
ALL_DETAIL_ITEM
100
AcDbLine
 62
7
  6
CONTINUOUS
 10
320.9457453307
 20
341.843764906
 11
320.9457453307
 21
359.343764906
  0
LINE
  5
44E
100
AcDbEntity
  8
ALL_DETAIL_ITEM
100
AcDbLine
 62
7
  6
CONTINUOUS
 10
320.9652956915
 20
359.343764906
 11
320.9652956915
 21
364.343764906
  0
LINE
  5
44F
100
AcDbEntity
  8
ALL_DETAIL_ITEM
100
AcDbLine
 62
7
  6
CONTINUOUS
 10
320.9652956915
 20
369.343764906
 11
320.9652956915
 21
374.3437648895
  0
LINE
  5
450
100
AcDbEntity
  8
ALL_DETAIL_ITEM
100
AcDbLine
 62
7
  6
CONTINUOUS
 10
321.71688435
 20
364.343764906
 11
321.71688435
 21
369.343764906
  0
LINE
  5
451
100
AcDbEntity
  8
ALL_DETAIL_ITEM
100
AcDbLine
 62
7
  6
CONTINUOUS
 10
323.4457453307
 20
250.124991989
 11
323.4457453307
 21
326.218764906
  0
LINE
  5
452
100
AcDbEntity
  8
ALL_DETAIL_ITEM
100
AcDbLine
 62
7
  6
CONTINUOUS
 10
325.9457453307
 20
329.1329784683
 11
325.9457453307
 21
336.843764906
  0
LINE
  5
453
100
AcDbEntity
  8
ALL_DETAIL_ITEM
100
AcDbLine
 62
7
  6
CONTINUOUS
 10
330.3207453307
 20
359.343764906
 11
330.3207453307
 21
376.843764906
  0
LINE
  5
454
100
AcDbEntity
  8
ALL_DETAIL_ITEM
100
AcDbLine
 62
7
  6
CONTINUOUS
 10
331.5707453307
 20
359.343764906
 11
331.5707453307
 21
376.843764906
  0
LINE
  5
455
100
AcDbEntity
  8
ALL_DETAIL_ITEM
100
AcDbLine
 62
7
  6
CONTINUOUS
 10
320.945745329
 20
359.343764906
 11
320.9652956915
 21
359.343764906
  0
LINE
  5
456
100
AcDbEntity
  8
ALL_DETAIL_ITEM
100
AcDbLine
 62
7
  6
CONTINUOUS
 10
330.3207453307
 20
359.343764906
 11
331.5707453307
 21
359.343764906
  0
LINE
  5
457
100
AcDbEntity
  8
ALL_DETAIL_ITEM
100
AcDbLine
 62
7
  6
CONTINUOUS
 10
340.9261949697
 20
359.343764906
 11
340.9457453325
 21
359.343764906
  0
LINE
  5
458
100
AcDbEntity
  8
ALL_DETAIL_ITEM
100
AcDbLine
 62
7
  6
CONTINUOUS
 10
340.9261949697
 20
364.343764906
 11
331.5707453307
 21
364.343764906
  0
LINE
  5
459
100
AcDbEntity
  8
ALL_DETAIL_ITEM
100
AcDbLine
 62
7
  6
CONTINUOUS
 10
330.3207453307
 20
364.343764906
 11
320.9652956915
 21
364.343764906
  0
LINE
  5
45A
100
AcDbEntity
  8
ALL_DETAIL_ITEM
100
AcDbLine
 62
7
  6
CONTINUOUS
 10
331.5707766317
 20
365.593764906
 11
330.3207140417
 21
365.593764906
  0
LINE
  5
45B
100
AcDbEntity
  8
ALL_DETAIL_ITEM
100
AcDbLine
 62
7
  6
CONTINUOUS
 10
340.9261949697
 20
369.343764906
 11
331.5707453307
 21
369.343764906
  0
LINE
  5
45C
100
AcDbEntity
  8
ALL_DETAIL_ITEM
100
AcDbLine
 62
7
  6
CONTINUOUS
 10
330.3207453307
 20
369.343764906
 11
320.9652956915
 21
369.343764906
  0
LINE
  5
45D
100
AcDbEntity
  8
ALL_DETAIL_ITEM
100
AcDbLine
 62
7
  6
CONTINUOUS
 10
315.0416068215
 20
384.68700099
 11
316.0591950032
 21
377.2563540268
  0
LINE
  5
45E
100
AcDbEntity
  8
ALL_DETAIL_ITEM
100
AcDbLine
 62
7
  6
CONTINUOUS
 10
335.9457453307
 20
329.1329784683
 11
335.9457453307
 21
336.843764906
  0
LINE
  5
45F
100
AcDbEntity
  8
ALL_DETAIL_ITEM
100
AcDbLine
 62
7
  6
CONTINUOUS
 10
338.4457453307
 20
250.124991989
 11
338.4457453307
 21
326.218764906
  0
LINE
  5
460
100
AcDbEntity
  8
ALL_DETAIL_ITEM
100
AcDbLine
 62
7
  6
CONTINUOUS
 10
340.1746063112
 20
364.343764906
 11
340.1746063112
 21
369.343764906
  0
LINE
  5
461
100
AcDbEntity
  8
ALL_DETAIL_ITEM
100
AcDbLine
 62
7
  6
CONTINUOUS
 10
340.9261949697
 20
359.343764906
 11
340.9261949697
 21
364.343764906
  0
LINE
  5
462
100
AcDbEntity
  8
ALL_DETAIL_ITEM
100
AcDbLine
 62
7
  6
CONTINUOUS
 10
340.9261949697
 20
369.343764906
 11
340.9261949697
 21
374.3437648895
  0
LINE
  5
463
100
AcDbEntity
  8
ALL_DETAIL_ITEM
100
AcDbLine
 62
7
  6
CONTINUOUS
 10
340.9457453307
 20
454.343764906
 11
340.9457453307
 21
419.343764906
  0
LINE
  5
464
100
AcDbEntity
  8
ALL_DETAIL_ITEM
100
AcDbLine
 62
7
  6
CONTINUOUS
 10
340.9457453307
 20
341.843764906
 11
340.9457453307
 21
359.343764906
  0
LINE
  5
465
100
AcDbEntity
  8
ALL_DETAIL_ITEM
100
AcDbLine
 62
7
  6
CONTINUOUS
 10
341.4457453307
 20
223.343764906
 11
341.4457453307
 21
219.093764906
  0
LINE
  5
466
100
AcDbEntity
  8
ALL_DETAIL_ITEM
100
AcDbLine
 62
7
  6
CONTINUOUS
 10
323.4457453307
 20
326.218764906
 11
325.6528521117
 21
328.425871687
  0
LINE
  5
467
100
AcDbEntity
  8
ALL_DETAIL_ITEM
100
AcDbLine
 62
7
  6
CONTINUOUS
 10
295.005695274
 20
374.373187512
 11
369.3121649065
 21
384.549069329
  0
LINE
  5
468
100
AcDbEntity
  8
ALL_DETAIL_ITEM
100
AcDbLine
 62
7
  6
CONTINUOUS
 10
293.9881070925
 20
381.8038344753
 11
368.294576725
 21
391.9797162923
  0
LINE
  5
469
100
AcDbEntity
  8
ALL_DETAIL_ITEM
100
AcDbLine
 62
7
  6
CONTINUOUS
 10
340.9261949697
 20
374.3437648895
 11
331.5707453307
 21
374.3437648895
  0
LINE
  5
46A
100
AcDbEntity
  8
ALL_DETAIL_ITEM
100
AcDbLine
 62
7
  6
CONTINUOUS
 10
330.3207453307
 20
374.3437648895
 11
320.9652956915
 21
374.3437648895
  0
LINE
  5
46B
100
AcDbEntity
  8
ALL_DETAIL_ITEM
100
AcDbLine
 62
7
  6
CONTINUOUS
 10
323.4718323785
 20
376.843764906
 11
330.3207453307
 21
376.843764906
  0
LINE
  5
46C
100
AcDbEntity
  8
ALL_DETAIL_ITEM
100
AcDbLine
 62
7
  6
CONTINUOUS
 10
331.5707453307
 20
376.843764906
 11
338.4196582827
 21
376.843764906
  0
LINE
  5
46D
100
AcDbEntity
  8
ALL_DETAIL_ITEM
100
AcDbLine
 62
7
  6
CONTINUOUS
 10
245.9457453307
 20
378.843764906
 11
266.4439090422
 21
378.843764906
  0
LINE
  5
46E
100
AcDbEntity
  8
ALL_DETAIL_ITEM
100
AcDbLine
 62
7
  6
CONTINUOUS
 10
245.9457453307
 20
384.343764906
 11
268.4457453307
 21
384.343764906
  0
LINE
  5
46F
100
AcDbEntity
  8
ALL_DETAIL_ITEM
100
AcDbLine
 62
7
  6
CONTINUOUS
 10
340.9261949697
 20
374.3437648895
 11
340.0103926707
 21
375.2575964798
  0
LINE
  5
470
100
AcDbEntity
  8
ALL_DETAIL_ITEM
100
AcDbLine
 62
7
  6
CONTINUOUS
 10
340.0103926707
 20
375.2575964798
 11
339.176817363
 21
376.0889982815
  0
LINE
  5
471
100
AcDbEntity
  8
ALL_DETAIL_ITEM
100
AcDbLine
 62
7
  6
CONTINUOUS
 10
339.176817363
 20
376.0889982815
 11
338.4196582827
 21
376.843764906
  0
LINE
  5
472
100
AcDbEntity
  8
ALL_DETAIL_ITEM
100
AcDbLine
 62
7
  6
CONTINUOUS
 10
252.5989922912
 20
391.843764906
 11
273.9922368215
 21
391.843764906
  0
LINE
  5
473
100
AcDbEntity
  8
ALL_DETAIL_ITEM
100
AcDbLine
 62
7
  6
CONTINUOUS
 10
280.3111241025
 20
398.093764906
 11
281.6639526627
 21
398.093764906
  0
LINE
  5
474
100
AcDbEntity
  8
ALL_DETAIL_ITEM
100
AcDbLine
 62
7
  6
CONTINUOUS
 10
289.2339529977
 20
398.093764906
 11
315.508702756
 21
398.093764906
  0
LINE
  5
475
100
AcDbEntity
  8
ALL_DETAIL_ITEM
100
AcDbLine
 62
7
  6
CONTINUOUS
 10
285.3974817127
 20
400.093764906
 11
288.244527794
 21
400.093764906
  0
LINE
  5
476
100
AcDbEntity
  8
ALL_DETAIL_ITEM
100
AcDbLine
 62
7
  6
CONTINUOUS
 10
357.14860628
 20
390.4533340198
 11
358.1661944617
 21
383.0226870565
  0
LINE
  5
477
100
AcDbEntity
  8
ALL_DETAIL_ITEM
100
AcDbLine
 62
7
  6
CONTINUOUS
 10
341.0080512295
 20
223.343764906
 11
342.4327448415
 21
229.799859552
  0
LINE
  5
478
100
AcDbEntity
  8
ALL_DETAIL_ITEM
100
AcDbLine
 62
7
  6
CONTINUOUS
 10
342.4327448415
 20
229.799859552
 11
343.9635253922
 21
236.7942525093
  0
LINE
  5
479
100
AcDbEntity
  8
ALL_DETAIL_ITEM
100
AcDbLine
 62
7
  6
CONTINUOUS
 10
343.9635253922
 20
236.7942525093
 11
345.6056209245
 21
244.343764906
  0
LINE
  5
47A
100
AcDbEntity
  8
ALL_DETAIL_ITEM
100
AcDbLine
 62
7
  6
CONTINUOUS
 10
288.967254317
 20
400.0412558228
 11
281.5366073537
 21
399.023667641
  0
LINE
  5
47B
100
AcDbEntity
  8
ALL_DETAIL_ITEM
100
AcDbLine
 62
7
  6
CONTINUOUS
 10
374.6405473732
 20
419.343764906
 11
367.20990041
 21
418.3261767243
  0
LINE
  5
47C
100
AcDbEntity
  8
ALL_DETAIL_ITEM
100
AcDbLine
 62
7
  6
CONTINUOUS
 10
367.20990041
 20
418.3261767243
 11
370.4322629855
 21
394.795794674
  0
LINE
  5
47D
100
AcDbEntity
  8
ALL_DETAIL_ITEM
100
AcDbLine
 62
7
  6
CONTINUOUS
 10
380.9457453307
 20
196.8281802343
 11
380.9457453307
 21
419.343764906
  0
LINE
  5
47E
100
AcDbEntity
  8
ALL_DETAIL_ITEM
100
AcDbLine
 62
7
  6
CONTINUOUS
 10
169.9931751792
 20
419.343764906
 11
456.4199324807
 21
419.343764906
  0
LINE
  5
47F
100
AcDbEntity
  8
ALL_DETAIL_ITEM
100
AcDbLine
 62
7
  6
CONTINUOUS
 10
377.8629099487
 20
395.8133828555
 11
374.6405473732
 21
419.343764906
  0
LINE
  5
480
100
AcDbEntity
  8
ALL_DETAIL_ITEM
100
AcDbLine
 62
7
  6
CONTINUOUS
 10
315.9820575355
 20
244.343764906
 11
297.2177877105
 21
231.1638409035
  0
LINE
  5
481
100
AcDbEntity
  8
ALL_DETAIL_ITEM
100
AcDbLine
 62
7
  6
CONTINUOUS
 10
337.0926203307
 20
249.343764906
 11
338.4457453307
 21
250.124991989
  0
LINE
  5
482
100
AcDbEntity
  8
ALL_DETAIL_ITEM
100
AcDbLine
 62
7
  6
CONTINUOUS
 10
340.9457453307
 20
454.343764906
 11
320.9457453307
 21
454.343764906
  0
LINE
  5
483
100
AcDbEntity
  8
ALL_DETAIL_ITEM
100
AcDbLine
 62
7
  6
CONTINUOUS
 10
330.9457453307
 20
460.1172675978
 11
340.9457453307
 21
454.343764906
  0
LINE
  5
484
100
AcDbEntity
  8
ALL_DETAIL_ITEM
100
AcDbLine
 62
7
  6
CONTINUOUS
 10
425.9457453307
 20
208.7519674733
 11
425.9457453307
 21
419.343764906
  0
LINE
  5
485
100
AcDbEntity
  8
ALL_DETAIL_ITEM
100
AcDbLine
 62
7
  6
CONTINUOUS
 10
169.7142617567
 20
519.343764906
 11
446.3771696562
 21
519.343764906
  0
ARC
  5
486
100
AcDbEntity
  8
ALL_DETAIL_ITEM
100
AcDbCircle
 62
7
  6
CONTINUOUS
 10
356.1957453307
 20
219.093764906
 40
14.75
100
AcDbArc
 50
180.0
 51
54.9159979915
  0
ARC
  5
487
100
AcDbEntity
  8
ALL_DETAIL_ITEM
100
AcDbCircle
 62
7
  6
CONTINUOUS
 10
305.6957453307
 20
219.093764906
 40
14.75
100
AcDbArc
 50
125.0840020085
 51
360.0
  0
ARC
  5
488
100
AcDbEntity
  8
ALL_DETAIL_ITEM
100
AcDbCircle
 62
7
  6
CONTINUOUS
 10
252.5989922912
 20
379.343764906
 40
12.5
100
AcDbArc
 50
90.0
 51
175.0
  0
ARC
  5
489
100
AcDbEntity
  8
ALL_DETAIL_ITEM
100
AcDbCircle
 62
7
  6
CONTINUOUS
 10
367.9553806642
 20
394.4565986133
 40
10.0
100
AcDbArc
 50
277.7978516935
 51
7.7978516935
  0
ARC
  5
48A
100
AcDbEntity
  8
ALL_DETAIL_ITEM
100
AcDbCircle
 62
7
  6
CONTINUOUS
 10
293.6489110317
 20
384.2807167963
 40
10.0
100
AcDbArc
 50
187.7978516935
 51
277.7978516935
  0
ARC
  5
48B
100
AcDbEntity
  8
ALL_DETAIL_ITEM
100
AcDbCircle
 62
7
  6
CONTINUOUS
 10
307.0288948562
 20
411.843764906
 40
7.5
100
AcDbArc
 50
4.0
 51
90.0
  0
ARC
  5
48C
100
AcDbEntity
  8
ALL_DETAIL_ITEM
100
AcDbCircle
 62
7
  6
CONTINUOUS
 10
285.3974817127
 20
392.593764906
 40
7.5
100
AcDbArc
 50
90.0
 51
160.0
  0
ARC
  5
48D
100
AcDbEntity
  8
ALL_DETAIL_ITEM
100
AcDbCircle
 62
7
  6
CONTINUOUS
 10
220.5274012007
 20
414.343764906
 40
5.0
100
AcDbArc
 50
90.0
 51
175.0
  0
ARC
  5
48E
100
AcDbEntity
  8
ALL_DETAIL_ITEM
100
AcDbCircle
 62
7
  6
CONTINUOUS
 10
288.244527794
 20
395.093764906
 40
5.0
100
AcDbArc
 50
36.8698976458
 51
90.0
  0
ARC
  5
48F
100
AcDbEntity
  8
ALL_DETAIL_ITEM
100
AcDbCircle
 62
7
  6
CONTINUOUS
 10
254.0256006115
 20
359.343764906
 40
5.0
100
AcDbArc
 50
270.0
 51
340.0
  0
ARC
  5
490
100
AcDbEntity
  8
ALL_DETAIL_ITEM
100
AcDbCircle
 62
7
  6
CONTINUOUS
 10
242.445683604
 20
349.343764906
 40
5.0
100
AcDbArc
 50
90.0
 51
175.0
  0
ARC
  5
491
100
AcDbEntity
  8
ALL_DETAIL_ITEM
100
AcDbCircle
 62
7
  6
CONTINUOUS
 10
273.9922368215
 20
396.343764906
 40
4.5
100
AcDbArc
 50
270.0
 51
340.0
  0
ARC
  5
492
100
AcDbEntity
  8
ALL_DETAIL_ITEM
100
AcDbCircle
 62
7
  6
CONTINUOUS
 10
293.6489110317
 20
384.2807167963
 40
2.5
100
AcDbArc
 50
187.7978516935
 51
277.7978516935
  0
ARC
  5
493
100
AcDbEntity
  8
ALL_DETAIL_ITEM
100
AcDbCircle
 62
7
  6
CONTINUOUS
 10
367.9553806642
 20
394.4565986133
 40
2.5
100
AcDbArc
 50
277.7978516935
 51
7.7978516935
  0
ARC
  5
494
100
AcDbEntity
  8
ALL_DETAIL_ITEM
100
AcDbCircle
 62
7
  6
CONTINUOUS
 10
336.9457453307
 20
329.1329784683
 40
1.0
100
AcDbArc
 50
180.0
 51
225.0
  0
ARC
  5
495
100
AcDbEntity
  8
ALL_DETAIL_ITEM
100
AcDbCircle
 62
7
  6
CONTINUOUS
 10
324.9457453307
 20
329.1329784683
 40
1.0
100
AcDbArc
 50
315.0
 51
360.0
  0
ENDBLK
  5
496
100
AcDbEntity
  8
0
  6
BYBLOCK
 62
0
100
AcDbBlockEnd
  0
BLOCK
  5
497
100
AcDbEntity
  8
ALL_DETAIL_ITEM
100
AcDbBlockBegin
 62
2
  6
CONTINUOUS
  2
B2B_NASLOV_RISBE_BL0
 70
64
 10
715.6440113268
 20
180.0417686006
  3
B2B_NASLOV_RISBE_BL0
  1

  0
TEXT
  5
498
100
AcDbEntity
  8
ALL_DETAIL_ITEM
100
AcDbText
 62
7
  6
CONTINUOUS
 10
617.1858769173
 20
259.7688430933
  7
STANDARD
 40
25.0
  1
Cut-out ATROX 30 U
 41
0.7671957672
 72
0
100
AcDbText
  0
TEXT
  5
499
100
AcDbEntity
  8
ALL_DETAIL_ITEM
100
AcDbText
 62
7
  6
CONTINUOUS
 10
702.5521734933
 20
228.6875351467
  7
STANDARD
 40
17.5
  1
1:5
 41
0.6111111111
 72
0
100
AcDbText
  0
TEXT
  5
49A
100
AcDbEntity
  8
ALL_DETAIL_ITEM
100
AcDbText
 62
7
  6
CONTINUOUS
 10
702.32847728
 20
198.4222167467
  7
STANDARD
 40
17.5
  1
A4
 41
0.9166666667
 72
0
100
AcDbText
  0
TEXT
  5
49B
100
AcDbEntity
  8
ALL_DETAIL_ITEM
100
AcDbText
 62
7
  6
CONTINUOUS
 10
617.450839364
 20
153.7029435142
  7
STANDARD
 40
12.5
  1
1134877_01
 41
0.7333333333
 72
0
100
AcDbText
  0
TEXT
  5
49C
100
AcDbEntity
  8
ALL_DETAIL_ITEM
100
AcDbText
 62
7
  6
CONTINUOUS
 10
617.3464328782
 20
174.6866141953
  7
STANDARD
 40
12.5
  1
21.05.2020
 41
0.7333333333
 72
0
100
AcDbText
  0
TEXT
  5
49D
100
AcDbEntity
  8
ALL_DETAIL_ITEM
100
AcDbText
 62
5
  6
CONTINUOUS
 10
617.144890464
 20
229.03706048
  7
STANDARD
 40
17.5
  1
Scale:
 41
0.6507936508
 72
0
100
AcDbText
  0
TEXT
  5
49E
100
AcDbEntity
  8
ALL_DETAIL_ITEM
100
AcDbText
 62
5
  6
CONTINUOUS
 10
617.0050803307
 20
198.72979904
  7
STANDARD
 40
17.5
  1
Format:
 41
0.6904761905
 72
0
100
AcDbText
  0
TEXT
  5
49F
100
AcDbEntity
  8
ALL_DETAIL_ITEM
100
AcDbText
 62
5
  6
CONTINUOUS
 10
468.8640504982
 20
75.314694108
  7
STANDARD
 40
10.0
  1
Subject to modifications. Latest version is on the internet.
 41
0.676984127
 72
0
100
AcDbText
  0
LINE
  5
4A0
100
AcDbEntity
  8
ALL_DETAIL_ITEM
100
AcDbLine
 62
4
  6
CONTINUOUS
 10
638.9891810412
 20
134.1896796182
 11
620.9121894514
 21
103.6504372967
  0
LINE
  5
4A1
100
AcDbEntity
  8
ALL_DETAIL_ITEM
100
AcDbLine
 62
4
  6
CONTINUOUS
 10
640.2799951887
 20
130.4808455402
 11
623.4938177457
 21
102.1223026929
  0
LINE
  5
4A2
100
AcDbEntity
  8
ALL_DETAIL_ITEM
100
AcDbLine
 62
4
  6
CONTINUOUS
 10
640.2799951887
 20
130.4808455402
 11
657.0661726309
 21
102.1223026929
  0
LINE
  5
4A3
100
AcDbEntity
  8
ALL_DETAIL_ITEM
100
AcDbLine
 62
4
  6
CONTINUOUS
 10
669.3323405232
 20
133.1290009194
 11
669.3323405232
 21
103.2821886107
  0
LINE
  5
4A4
100
AcDbEntity
  8
ALL_DETAIL_ITEM
100
AcDbLine
 62
4
  6
CONTINUOUS
 10
641.5708093362
 20
134.1896796182
 11
659.6478009259
 21
103.6504372967
  0
LINE
  5
4A5
100
AcDbEntity
  8
ALL_DETAIL_ITEM
100
AcDbLine
 62
4
  6
CONTINUOUS
 10
672.3323405262
 20
133.1290009194
 11
672.3323405262
 21
104.7821886129
  0
LINE
  5
4A6
100
AcDbEntity
  8
ALL_DETAIL_ITEM
100
AcDbLine
 62
4
  6
CONTINUOUS
 10
713.6362285347
 20
102.0082193079
 11
695.5100843209
 21
132.4411543719
  0
LINE
  5
4A7
100
AcDbEntity
  8
ALL_DETAIL_ITEM
100
AcDbLine
 62
4
  6
CONTINUOUS
 10
714.9249574639
 20
105.7070922602
 11
698.0875421802
 21
133.9763126717
  0
LINE
  5
4A8
100
AcDbEntity
  8
ALL_DETAIL_ITEM
100
AcDbLine
 62
4
  6
CONTINUOUS
 10
714.9249574639
 20
105.7070922602
 11
731.7623727477
 21
133.9763126717
  0
LINE
  5
4A9
100
AcDbEntity
  8
ALL_DETAIL_ITEM
100
AcDbLine
 62
4
  6
CONTINUOUS
 10
716.2136863932
 20
102.0082193079
 11
734.3398306069
 21
132.4411543719
  0
LINE
  5
4AA
100
AcDbEntity
  8
ALL_DETAIL_ITEM
100
AcDbLine
 62
4
  6
CONTINUOUS
 10
670.8323405247
 20
101.7821886092
 11
697.7103407584
 21
101.7821886092
  0
LINE
  5
4AB
100
AcDbEntity
  8
ALL_DETAIL_ITEM
100
AcDbLine
 62
4
  6
CONTINUOUS
 10
861.9179830129
 20
101.7828223524
 11
833.8011837019
 21
101.7828223524
  0
LINE
  5
4AC
100
AcDbEntity
  8
ALL_DETAIL_ITEM
100
AcDbLine
 62
4
  6
CONTINUOUS
 10
744.5082940624
 20
101.7857954589
 11
774.6046339767
 21
101.7886133867
  0
LINE
  5
4AD
100
AcDbEntity
  8
ALL_DETAIL_ITEM
100
AcDbLine
 62
4
  6
CONTINUOUS
 10
792.9877545034
 20
101.7928065722
 11
814.3897591482
 21
101.7928065722
  0
LINE
  5
4AE
100
AcDbEntity
  8
ALL_DETAIL_ITEM
100
AcDbLine
 62
4
  6
CONTINUOUS
 10
697.7103407584
 20
104.7821886129
 11
672.3323405262
 21
104.7821886129
  0
LINE
  5
4AF
100
AcDbEntity
  8
ALL_DETAIL_ITEM
100
AcDbLine
 62
4
  6
CONTINUOUS
 10
861.9179830129
 20
104.7828223562
 11
833.8011837019
 21
104.7828223562
  0
LINE
  5
4B0
100
AcDbEntity
  8
ALL_DETAIL_ITEM
100
AcDbLine
 62
4
  6
CONTINUOUS
 10
746.0081536159
 20
104.7859359077
 11
774.6043530859
 21
104.7886133769
  0
LINE
  5
4B1
100
AcDbEntity
  8
ALL_DETAIL_ITEM
100
AcDbLine
 62
4
  6
CONTINUOUS
 10
814.3897591482
 20
104.7928065759
 11
792.9877545034
 21
104.7928065759
  0
LINE
  5
4B2
100
AcDbEntity
  8
ALL_DETAIL_ITEM
100
AcDbLine
 62
4
  6
CONTINUOUS
 10
743.0081536159
 20
132.6977736939
 11
743.0081536159
 21
103.2857954544
  0
LINE
  5
4B3
100
AcDbEntity
  8
ALL_DETAIL_ITEM
100
AcDbLine
 62
4
  6
CONTINUOUS
 10
746.0081536159
 20
131.1977248817
 11
746.0081536159
 21
119.4908159154
  0
LINE
  5
4B4
100
AcDbEntity
  8
ALL_DETAIL_ITEM
100
AcDbLine
 62
4
  6
CONTINUOUS
 10
746.0081536159
 20
116.4908159124
 11
746.0081536159
 21
104.7859359077
  0
LINE
  5
4B5
100
AcDbEntity
  8
ALL_DETAIL_ITEM
100
AcDbLine
 62
4
  6
CONTINUOUS
 10
840.1616511214
 20
116.4897780407
 11
861.9179830129
 21
116.4908186042
  0
LINE
  5
4B6
100
AcDbEntity
  8
ALL_DETAIL_ITEM
100
AcDbLine
 62
4
  6
CONTINUOUS
 10
746.0081536159
 20
116.4908159124
 11
773.1639790782
 21
116.4908159124
  0
LINE
  5
4B7
100
AcDbEntity
  8
ALL_DETAIL_ITEM
100
AcDbLine
 62
4
  6
CONTINUOUS
 10
861.9179830129
 20
119.4908186072
 11
840.1616511214
 21
119.4897780437
  0
LINE
  5
4B8
100
AcDbEntity
  8
ALL_DETAIL_ITEM
100
AcDbLine
 62
4
  6
CONTINUOUS
 10
746.0081536159
 20
119.4908159154
 11
773.1639790782
 21
119.4908159154
  0
LINE
  5
4B9
100
AcDbEntity
  8
ALL_DETAIL_ITEM
100
AcDbLine
 62
4
  6
CONTINUOUS
 10
746.0081536159
 20
131.1977248817
 11
774.6062533962
 21
131.1967943019
  0
LINE
  5
4BA
100
AcDbEntity
  8
ALL_DETAIL_ITEM
100
AcDbLine
 62
4
  6
CONTINUOUS
 10
840.1616511214
 20
131.1977742849
 11
866.8388913357
 21
131.1977742849
  0
LINE
  5
4BB
100
AcDbEntity
  8
ALL_DETAIL_ITEM
100
AcDbLine
 62
4
  6
CONTINUOUS
 10
744.5082024274
 20
134.1977736947
 11
774.6063510162
 21
134.1967943042
  0
LINE
  5
4BC
100
AcDbEntity
  8
ALL_DETAIL_ITEM
100
AcDbLine
 62
4
  6
CONTINUOUS
 10
840.1616511214
 20
134.1977742887
 11
866.8388913357
 21
134.1977742887
  0
LINE
  5
4BD
100
AcDbEntity
  8
ALL_DETAIL_ITEM
100
AcDbLine
 62
4
  6
CONTINUOUS
 10
784.7377516557
 20
108.3962664797
 11
784.7371463757
 21
133.1554998099
  0
LINE
  5
4BE
100
AcDbEntity
  8
ALL_DETAIL_ITEM
100
AcDbLine
 62
4
  6
CONTINUOUS
 10
787.7377516579
 20
108.3963398199
 11
787.7371463787
 21
133.1554998099
  0
LINE
  5
4BF
100
AcDbEntity
  8
ALL_DETAIL_ITEM
100
AcDbLine
 62
4
  6
CONTINUOUS
 10
819.6403672767
 20
133.1554998099
 11
819.6397619937
 21
108.3963398192
  0
LINE
  5
4C0
100
AcDbEntity
  8
ALL_DETAIL_ITEM
100
AcDbLine
 62
4
  6
CONTINUOUS
 10
822.6403672797
 20
133.1554998099
 11
822.6397619959
 21
108.3962664789
  0
LINE
  5
4C1
100
AcDbEntity
  8
ALL_DETAIL_ITEM
100
AcDbLine
 62
4
  6
CONTINUOUS
 10
831.9116631747
 20
123.0926567657
 11
831.9116631747
 21
127.5948955629
  0
LINE
  5
4C2
100
AcDbEntity
  8
ALL_DETAIL_ITEM
100
AcDbLine
 62
4
  6
CONTINUOUS
 10
834.9116631784
 20
123.0926567657
 11
834.9116631784
 21
127.5948955629
  0
LINE
  5
4C3
100
AcDbEntity
  8
ALL_DETAIL_ITEM
100
AcDbLine
 62
4
  6
CONTINUOUS
 10
867.1679709619
 20
112.8879398784
 11
867.1679709619
 21
108.3857010812
  0
LINE
  5
4C4
100
AcDbEntity
  8
ALL_DETAIL_ITEM
100
AcDbLine
 62
4
  6
CONTINUOUS
 10
870.1679709657
 20
112.8879398784
 11
870.1679709657
 21
108.3857010812
  0
ARC
  5
4C5
100
AcDbEntity
  8
ALL_DETAIL_ITEM
100
AcDbCircle
 62
4
  6
CONTINUOUS
 10
744.5081536174
 20
103.2857954544
 40
1.5000000015
100
AcDbArc
 50
180.0
 51
270.0053646182
  0
ARC
  5
4C6
100
AcDbEntity
  8
ALL_DETAIL_ITEM
100
AcDbCircle
 62
4
  6
CONTINUOUS
 10
670.8323405247
 20
103.2821886107
 40
1.5000000015
100
AcDbArc
 50
180.0
 51
270.0
  0
ARC
  5
4C7
100
AcDbEntity
  8
ALL_DETAIL_ITEM
100
AcDbCircle
 62
4
  6
CONTINUOUS
 10
697.7103407584
 20
103.2821886107
 40
1.5000000015
100
AcDbArc
 50
270.0
 51
90.0
  0
ARC
  5
4C8
100
AcDbEntity
  8
ALL_DETAIL_ITEM
100
AcDbCircle
 62
4
  6
CONTINUOUS
 10
714.9249574639
 20
102.7757984574
 40
1.5000000015
100
AcDbArc
 50
210.7784283087
 51
329.2215716913
  0
ARC
  5
4C9
100
AcDbEntity
  8
ALL_DETAIL_ITEM
100
AcDbCircle
 62
4
  6
CONTINUOUS
 10
622.2030035982
 20
102.8863699944
 40
1.5000000015
100
AcDbArc
 50
149.3775791193
 51
329.3775791193
  0
ARC
  5
4CA
100
AcDbEntity
  8
ALL_DETAIL_ITEM
100
AcDbCircle
 62
4
  6
CONTINUOUS
 10
658.3569867784
 20
102.8863699944
 40
1.5000000015
100
AcDbArc
 50
210.6224208807
 51
30.6224208807
  0
ARC
  5
4CB
100
AcDbEntity
  8
ALL_DETAIL_ITEM
100
AcDbCircle
 62
4
  6
CONTINUOUS
 10
744.5081536174
 20
132.6977736939
 40
1.5000000015
100
AcDbArc
 50
89.9981356008
 51
180.0
  0
ARC
  5
4CC
100
AcDbEntity
  8
ALL_DETAIL_ITEM
100
AcDbCircle
 62
4
  6
CONTINUOUS
 10
670.8323405247
 20
133.1290009194
 40
1.5000000015
100
AcDbArc
 50
0.0
 51
180.0
  0
ARC
  5
4CD
100
AcDbEntity
  8
ALL_DETAIL_ITEM
100
AcDbCircle
 62
4
  6
CONTINUOUS
 10
733.0511016777
 20
133.2087335214
 40
1.5000000015
100
AcDbArc
 50
329.2215716913
 51
149.2215716913
  0
ARC
  5
4CE
100
AcDbEntity
  8
ALL_DETAIL_ITEM
100
AcDbCircle
 62
4
  6
CONTINUOUS
 10
696.7988132502
 20
133.2087335214
 40
1.5000000015
100
AcDbArc
 50
30.7784283087
 51
210.7784283087
  0
ARC
  5
4CF
100
AcDbEntity
  8
ALL_DETAIL_ITEM
100
AcDbCircle
 62
4
  6
CONTINUOUS
 10
640.2799951887
 20
133.4256123159
 40
1.5000000015
100
AcDbArc
 50
30.6224208807
 51
149.3775791193
  0
ARC
  5
4D0
100
AcDbEntity
  8
ALL_DETAIL_ITEM
100
AcDbCircle
 62
4
  6
CONTINUOUS
 10
861.9179830129
 20
112.2828223562
 40
10.5000000038
100
AcDbArc
 50
270.0
 51
299.9998228245
  0
ARC
  5
4D1
100
AcDbEntity
  8
ALL_DETAIL_ITEM
100
AcDbCircle
 62
4
  6
CONTINUOUS
 10
861.9179830129
 20
108.9908186042
 40
10.5000000038
100
AcDbArc
 50
60.0001771755
 51
90.0000000001
  0
ARC
  5
4D2
100
AcDbEntity
  8
ALL_DETAIL_ITEM
100
AcDbCircle
 62
4
  6
CONTINUOUS
 10
792.9877545034
 20
112.2881632014
 40
10.4953566293
100
AcDbArc
 50
239.9657832688
 51
270.0
  0
ARC
  5
4D3
100
AcDbEntity
  8
ALL_DETAIL_ITEM
100
AcDbCircle
 62
4
  6
CONTINUOUS
 10
814.3897591482
 20
112.2881632014
 40
10.4953566293
100
AcDbArc
 50
270.0
 51
300.0342167312
  0
ARC
  5
4D4
100
AcDbEntity
  8
ALL_DETAIL_ITEM
100
AcDbCircle
 62
4
  6
CONTINUOUS
 10
861.9179830129
 20
108.9908186042
 40
7.5
100
AcDbArc
 50
60.0001771755
 51
89.9999999999
  0
ARC
  5
4D5
100
AcDbEntity
  8
ALL_DETAIL_ITEM
100
AcDbCircle
 62
4
  6
CONTINUOUS
 10
861.9179830129
 20
112.2828223562
 40
7.5
100
AcDbArc
 50
270.0
 51
299.9998228245
  0
ARC
  5
4D6
100
AcDbEntity
  8
ALL_DETAIL_ITEM
100
AcDbCircle
 62
4
  6
CONTINUOUS
 10
814.3897591482
 20
112.2881632014
 40
7.4953566255
100
AcDbArc
 50
270.0
 51
300.0342167312
  0
ARC
  5
4D7
100
AcDbEntity
  8
ALL_DETAIL_ITEM
100
AcDbCircle
 62
4
  6
CONTINUOUS
 10
792.9877545034
 20
112.2881632014
 40
7.4953566255
100
AcDbArc
 50
239.9657832688
 51
270.0
  0
ARC
  5
4D8
100
AcDbEntity
  8
ALL_DETAIL_ITEM
100
AcDbCircle
 62
4
  6
CONTINUOUS
 10
790.7377516572
 20
108.3964131602
 40
6.0000000038
100
AcDbArc
 50
180.0014006897
 51
239.9657832688
  0
ARC
  5
4D9
100
AcDbEntity
  8
ALL_DETAIL_ITEM
100
AcDbCircle
 62
4
  6
CONTINUOUS
 10
816.6397619944
 20
108.3964131602
 40
6.0000000038
100
AcDbArc
 50
300.0342167312
 51
359.9985993027
  0
ARC
  5
4DA
100
AcDbEntity
  8
ALL_DETAIL_ITEM
100
AcDbCircle
 62
4
  6
CONTINUOUS
 10
864.1679709619
 20
108.3857010812
 40
6.0000000038
100
AcDbArc
 50
299.9998228245
 51
360.0
  0
ARC
  5
4DB
100
AcDbEntity
  8
ALL_DETAIL_ITEM
100
AcDbCircle
 62
4
  6
CONTINUOUS
 10
864.1679709619
 20
112.8879398784
 40
6.0000000038
100
AcDbArc
 50
0.0
 51
60.0001771755
  0
ARC
  5
4DC
100
AcDbEntity
  8
ALL_DETAIL_ITEM
100
AcDbCircle
 62
4
  6
CONTINUOUS
 10
816.6397619944
 20
108.3964131602
 40
3.0
100
AcDbArc
 50
300.0342167312
 51
359.9985993006
  0
ARC
  5
4DD
100
AcDbEntity
  8
ALL_DETAIL_ITEM
100
AcDbCircle
 62
4
  6
CONTINUOUS
 10
790.7377516572
 20
108.3964131602
 40
3.0
100
AcDbArc
 50
180.0014006917
 51
239.9657832688
  0
ARC
  5
4DE
100
AcDbEntity
  8
ALL_DETAIL_ITEM
100
AcDbCircle
 62
4
  6
CONTINUOUS
 10
864.1679709619
 20
112.8879398784
 40
3.0
100
AcDbArc
 50
0.0
 51
60.0001771755
  0
ARC
  5
4DF
100
AcDbEntity
  8
ALL_DETAIL_ITEM
100
AcDbCircle
 62
4
  6
CONTINUOUS
 10
864.1679709619
 20
108.3857010812
 40
3.0
100
AcDbArc
 50
299.9998228245
 51
360.0
  0
ARC
  5
4E0
100
AcDbEntity
  8
ALL_DETAIL_ITEM
100
AcDbCircle
 62
4
  6
CONTINUOUS
 10
833.8011837019
 20
103.2828223547
 40
1.5000000015
100
AcDbArc
 50
90.0
 51
270.0
  0
ARC
  5
4E1
100
AcDbEntity
  8
ALL_DETAIL_ITEM
100
AcDbCircle
 62
4
  6
CONTINUOUS
 10
774.6044935317
 20
103.2886133822
 40
1.5000000015
100
AcDbArc
 50
270.0053646182
 51
90.0053646182
  0
ARC
  5
4E2
100
AcDbEntity
  8
ALL_DETAIL_ITEM
100
AcDbCircle
 62
4
  6
CONTINUOUS
 10
773.1639790782
 20
117.9908159139
 40
1.5000000015
100
AcDbArc
 50
270.0
 51
90.0
  0
ARC
  5
4E3
100
AcDbEntity
  8
ALL_DETAIL_ITEM
100
AcDbCircle
 62
4
  6
CONTINUOUS
 10
840.1616511214
 20
123.6977742849
 40
10.5000000038
100
AcDbArc
 50
90.0
 51
119.9998227404
  0
ARC
  5
4E4
100
AcDbEntity
  8
ALL_DETAIL_ITEM
100
AcDbCircle
 62
4
  6
CONTINUOUS
 10
840.1616511214
 20
126.9897780437
 40
10.5000000038
100
AcDbArc
 50
240.0001772596
 51
269.9999999996
  0
ARC
  5
4E5
100
AcDbEntity
  8
ALL_DETAIL_ITEM
100
AcDbCircle
 62
4
  6
CONTINUOUS
 10
840.1616511214
 20
126.9897780437
 40
7.5
100
AcDbArc
 50
240.0001772596
 51
269.9999999998
  0
ARC
  5
4E6
100
AcDbEntity
  8
ALL_DETAIL_ITEM
100
AcDbCircle
 62
4
  6
CONTINUOUS
 10
840.1616511214
 20
123.6977742849
 40
7.5
100
AcDbArc
 50
90.0
 51
119.9998227404
  0
ARC
  5
4E7
100
AcDbEntity
  8
ALL_DETAIL_ITEM
100
AcDbCircle
 62
4
  6
CONTINUOUS
 10
837.9116631784
 20
127.5948955629
 40
6.0000000038
100
AcDbArc
 50
119.9998227404
 51
180.0
  0
ARC
  5
4E8
100
AcDbEntity
  8
ALL_DETAIL_ITEM
100
AcDbCircle
 62
4
  6
CONTINUOUS
 10
837.9116631784
 20
123.0926567657
 40
6.0000000038
100
AcDbArc
 50
180.0
 51
240.0001772596
  0
ARC
  5
4E9
100
AcDbEntity
  8
ALL_DETAIL_ITEM
100
AcDbCircle
 62
4
  6
CONTINUOUS
 10
837.9116631784
 20
123.0926567657
 40
3.0
100
AcDbArc
 50
180.0
 51
240.0001772596
  0
ARC
  5
4EA
100
AcDbEntity
  8
ALL_DETAIL_ITEM
100
AcDbCircle
 62
4
  6
CONTINUOUS
 10
837.9116631784
 20
127.5948955629
 40
3.0
100
AcDbArc
 50
119.9998227404
 51
180.0
  0
ARC
  5
4EB
100
AcDbEntity
  8
ALL_DETAIL_ITEM
100
AcDbCircle
 62
4
  6
CONTINUOUS
 10
821.1403672782
 20
133.1554998099
 40
1.5000000015
100
AcDbArc
 50
0.0
 51
180.0
  0
ARC
  5
4EC
100
AcDbEntity
  8
ALL_DETAIL_ITEM
100
AcDbCircle
 62
4
  6
CONTINUOUS
 10
786.2371463772
 20
133.1554998099
 40
1.5000000015
100
AcDbArc
 50
0.0
 51
180.0
  0
ARC
  5
4ED
100
AcDbEntity
  8
ALL_DETAIL_ITEM
100
AcDbCircle
 62
4
  6
CONTINUOUS
 10
866.8388913357
 20
132.6977742872
 40
1.5000000015
100
AcDbArc
 50
270.0
 51
90.0
  0
ARC
  5
4EE
100
AcDbEntity
  8
ALL_DETAIL_ITEM
100
AcDbCircle
 62
4
  6
CONTINUOUS
 10
774.6063022062
 20
132.6967943027
 40
1.5000000015
100
AcDbArc
 50
269.9981356008
 51
89.9981356008
  0
LWPOLYLINE
  5
4EF
100
AcDbEntity
  8
ALL_DETAIL_ITEM
100
AcDbPolyline
 62
4
  6
CONTINUOUS
 90
21
 70
0
 10
640.2799951887
 20
134.9256123174
 10
640.4523361269
 20
134.9156883112
 10
640.6223944998
 20
134.8860091754
 10
640.7879179733
 20
134.8370150464
 10
640.9467142758
 20
134.7693116209
 10
641.0966802335
 20
134.6838074439
 10
641.2358296259
 20
134.581646609
 10
641.3623194922
 20
134.464141459
 10
641.4744745405
 20
134.3329408348
 10
641.5708093362
 20
134.1896599274
 10
620.9121894514
 20
103.6504348592
 10
638.9891810415
 20
134.1896599274
 10
639.0855158369
 20
134.3329408348
 10
639.1976708852
 20
134.464141459
 10
639.3241607515
 20
134.581646609
 10
639.4633101438
 20
134.6838074439
 10
639.6132761015
 20
134.7693116209
 10
639.772072404
 20
134.8370150464
 10
639.9375958775
 20
134.8860091754
 10
640.1076542504
 20
134.9156883112
 10
640.2799951887
 20
134.9256123174
  0
HATCH
  5
4F0
100
AcDbEntity
  8
ALL_DETAIL_ITEM
100
AcDbHatch
 62
4
  6
CONTINUOUS
 10
0.0
 20
0.0
 30
0.0
210
0.0
220
0.0
230
1.0
  2
SOLID
 70
1
 71
1
 91
1
 92
1
 93
20
 72
1
 10
640.2799951887
 20
134.9256123174
 11
640.4523361269
 21
134.9156883112
 72
1
 10
640.4523361269
 20
134.9156883112
 11
640.6223944998
 21
134.8860091754
 72
1
 10
640.6223944998
 20
134.8860091754
 11
640.7879179733
 21
134.8370150464
 72
1
 10
640.7879179733
 20
134.8370150464
 11
640.9467142758
 21
134.7693116209
 72
1
 10
640.9467142758
 20
134.7693116209
 11
641.0966802335
 21
134.6838074439
 72
1
 10
641.0966802335
 20
134.6838074439
 11
641.2358296259
 21
134.581646609
 72
1
 10
641.2358296259
 20
134.581646609
 11
641.3623194922
 21
134.464141459
 72
1
 10
641.3623194922
 20
134.464141459
 11
641.4744745405
 21
134.3329408348
 72
1
 10
641.4744745405
 20
134.3329408348
 11
641.5708093362
 21
134.1896599274
 72
1
 10
641.5708093362
 20
134.1896599274
 11
620.9121894514
 21
103.6504348592
 72
1
 10
620.9121894514
 20
103.6504348592
 11
638.9891810415
 21
134.1896599274
 72
1
 10
638.9891810415
 20
134.1896599274
 11
639.0855158369
 21
134.3329408348
 72
1
 10
639.0855158369
 20
134.3329408348
 11
639.1976708852
 21
134.464141459
 72
1
 10
639.1976708852
 20
134.464141459
 11
639.3241607515
 21
134.581646609
 72
1
 10
639.3241607515
 20
134.581646609
 11
639.4633101438
 21
134.6838074439
 72
1
 10
639.4633101438
 20
134.6838074439
 11
639.6132761015
 21
134.7693116209
 72
1
 10
639.6132761015
 20
134.7693116209
 11
639.772072404
 21
134.8370150464
 72
1
 10
639.772072404
 20
134.8370150464
 11
639.9375958775
 21
134.8860091754
 72
1
 10
639.9375958775
 20
134.8860091754
 11
640.1076542504
 21
134.9156883112
 72
1
 10
640.1076542504
 20
134.9156883112
 11
640.2799951887
 21
134.9256123174
 97
1
330
4EF
 75
0
 76
1
 98
1
 10
0.0
 20
0.0
  0
LWPOLYLINE
  5
4F1
100
AcDbEntity
  8
ALL_DETAIL_ITEM
100
AcDbPolyline
 62
4
  6
CONTINUOUS
 90
46
 70
0
 10
696.5071224567
 20
134.6801059644
 10
696.7101901925
 20
134.7061172705
 10
696.9149088083
 20
134.7042328809
 10
697.1174647835
 20
134.6744864455
 10
697.3140848835
 20
134.617450011
 10
697.5011064479
 20
134.5341667217
 10
697.6750456188
 20
134.426184469
 10
697.8326622386
 20
134.2955558916
 10
697.9710202079
 20
134.1446364764
 10
698.0875421795
 20
133.9763201075
 10
714.9249574639
 20
105.7070922602
 10
734.339830607
 20
132.4411482995
 10
716.2136863932
 20
102.0082229933
 10
716.117237342
 20
101.8655814324
 10
716.0050799473
 20
101.734952855
 10
715.878691888
 20
101.6180534016
 10
715.7397383327
 20
101.5163973139
 10
715.5900500011
 20
101.4312969347
 10
715.431599044
 20
101.3639636572
 10
715.2664730602
 20
101.3152050769
 10
715.0968475923
 20
101.2856941901
 10
714.9249574639
 20
101.2757984559
 10
714.7530673355
 20
101.2856941901
 10
714.5834418677
 20
101.3152050769
 10
714.4183158839
 20
101.3639636572
 10
714.2598649267
 20
101.4312969347
 10
714.1101765951
 20
101.5163973139
 10
713.9712230398
 20
101.6180534016
 10
713.8448349805
 20
101.734952855
 10
713.7326775858
 20
101.8655814324
 10
713.6362285346
 20
102.0082229933
 10
695.5100843209
 20
132.4411482995
 10
695.4175689309
 20
132.6237994891
 10
695.3507835092
 20
132.8173195687
 10
695.3109721418
 20
133.0181416578
 10
695.2988764391
 20
133.2224969774
 10
695.3147217213
 20
133.4266167482
 10
695.3582128206
 20
133.6266648917
 10
695.4285395802
 20
133.8189399281
 10
695.5243919456
 20
133.9998413274
 10
695.6439843686
 20
134.1660041082
 10
695.7850890686
 20
134.3143324877
 10
695.9450775322
 20
134.4420671811
 10
696.1209694768
 20
134.5468527015
 10
696.3094883684
 20
134.62667006
 10
696.5071224567
 20
134.6801059644
  0
HATCH
  5
4F2
100
AcDbEntity
  8
ALL_DETAIL_ITEM
100
AcDbHatch
 62
4
  6
CONTINUOUS
 10
0.0
 20
0.0
 30
0.0
210
0.0
220
0.0
230
1.0
  2
SOLID
 70
1
 71
1
 91
1
 92
1
 93
45
 72
1
 10
696.5071224567
 20
134.6801059644
 11
696.7101901925
 21
134.7061172705
 72
1
 10
696.7101901925
 20
134.7061172705
 11
696.9149088083
 21
134.7042328809
 72
1
 10
696.9149088083
 20
134.7042328809
 11
697.1174647835
 21
134.6744864455
 72
1
 10
697.1174647835
 20
134.6744864455
 11
697.3140848835
 21
134.617450011
 72
1
 10
697.3140848835
 20
134.617450011
 11
697.5011064479
 21
134.5341667217
 72
1
 10
697.5011064479
 20
134.5341667217
 11
697.6750456188
 21
134.426184469
 72
1
 10
697.6750456188
 20
134.426184469
 11
697.8326622386
 21
134.2955558916
 72
1
 10
697.8326622386
 20
134.2955558916
 11
697.9710202079
 21
134.1446364764
 72
1
 10
697.9710202079
 20
134.1446364764
 11
698.0875421795
 21
133.9763201075
 72
1
 10
698.0875421795
 20
133.9763201075
 11
714.9249574639
 21
105.7070922602
 72
1
 10
714.9249574639
 20
105.7070922602
 11
734.339830607
 21
132.4411482995
 72
1
 10
734.339830607
 20
132.4411482995
 11
716.2136863932
 21
102.0082229933
 72
1
 10
716.2136863932
 20
102.0082229933
 11
716.117237342
 21
101.8655814324
 72
1
 10
716.117237342
 20
101.8655814324
 11
716.0050799473
 21
101.734952855
 72
1
 10
716.0050799473
 20
101.734952855
 11
715.878691888
 21
101.6180534016
 72
1
 10
715.878691888
 20
101.6180534016
 11
715.7397383327
 21
101.5163973139
 72
1
 10
715.7397383327
 20
101.5163973139
 11
715.5900500011
 21
101.4312969347
 72
1
 10
715.5900500011
 20
101.4312969347
 11
715.431599044
 21
101.3639636572
 72
1
 10
715.431599044
 20
101.3639636572
 11
715.2664730602
 21
101.3152050769
 72
1
 10
715.2664730602
 20
101.3152050769
 11
715.0968475923
 21
101.2856941901
 72
1
 10
715.0968475923
 20
101.2856941901
 11
714.9249574639
 21
101.2757984559
 72
1
 10
714.9249574639
 20
101.2757984559
 11
714.7530673355
 21
101.2856941901
 72
1
 10
714.7530673355
 20
101.2856941901
 11
714.5834418677
 21
101.3152050769
 72
1
 10
714.5834418677
 20
101.3152050769
 11
714.4183158839
 21
101.3639636572
 72
1
 10
714.4183158839
 20
101.3639636572
 11
714.2598649267
 21
101.4312969347
 72
1
 10
714.2598649267
 20
101.4312969347
 11
714.1101765951
 21
101.5163973139
 72
1
 10
714.1101765951
 20
101.5163973139
 11
713.9712230398
 21
101.6180534016
 72
1
 10
713.9712230398
 20
101.6180534016
 11
713.8448349805
 21
101.734952855
 72
1
 10
713.8448349805
 20
101.734952855
 11
713.7326775858
 21
101.8655814324
 72
1
 10
713.7326775858
 20
101.8655814324
 11
713.6362285346
 21
102.0082229933
 72
1
 10
713.6362285346
 20
102.0082229933
 11
695.5100843209
 21
132.4411482995
 72
1
 10
695.5100843209
 20
132.4411482995
 11
695.4175689309
 21
132.6237994891
 72
1
 10
695.4175689309
 20
132.6237994891
 11
695.3507835092
 21
132.8173195687
 72
1
 10
695.3507835092
 20
132.8173195687
 11
695.3109721418
 21
133.0181416578
 72
1
 10
695.3109721418
 20
133.0181416578
 11
695.2988764391
 21
133.2224969774
 72
1
 10
695.2988764391
 20
133.2224969774
 11
695.3147217213
 21
133.4266167482
 72
1
 10
695.3147217213
 20
133.4266167482
 11
695.3582128206
 21
133.6266648917
 72
1
 10
695.3582128206
 20
133.6266648917
 11
695.4285395802
 21
133.8189399281
 72
1
 10
695.4285395802
 20
133.8189399281
 11
695.5243919456
 21
133.9998413274
 72
1
 10
695.5243919456
 20
133.9998413274
 11
695.6439843686
 21
134.1660041082
 72
1
 10
695.6439843686
 20
134.1660041082
 11
695.7850890686
 21
134.3143324877
 72
1
 10
695.7850890686
 20
134.3143324877
 11
695.9450775322
 21
134.4420671811
 72
1
 10
695.9450775322
 20
134.4420671811
 11
696.1209694768
 21
134.5468527015
 72
1
 10
696.1209694768
 20
134.5468527015
 11
696.3094883684
 21
134.62667006
 72
1
 10
696.3094883684
 20
134.62667006
 11
696.5071224567
 21
134.6801059644
 97
1
330
4F1
 75
0
 76
1
 98
1
 10
0.0
 20
0.0
  0
LWPOLYLINE
  5
4F3
100
AcDbEntity
  8
ALL_DETAIL_ITEM
100
AcDbPolyline
 62
4
  6
CONTINUOUS
 90
19
 70
0
 10
733.1397247353
 20
134.7061172705
 10
733.3427924712
 20
134.6801059644
 10
733.5404265595
 20
134.62667006
 10
733.7289454511
 20
134.5468527015
 10
733.9048373957
 20
134.4420671811
 10
734.0648258592
 20
134.3143324877
 10
734.2059305593
 20
134.1660041082
 10
734.3255229823
 20
133.9998413274
 10
734.4213753477
 20
133.8189399281
 10
714.9249574639
 20
105.7070922602
 10
731.7623727484
 20
133.9763201075
 10
731.8788947199
 20
134.1446364764
 10
732.0172526892
 20
134.2955558916
 10
732.174869309
 20
134.426184469
 10
732.3488084799
 20
134.5341667217
 10
732.5358300444
 20
134.617450011
 10
732.7324501444
 20
134.6744864455
 10
732.9350061195
 20
134.7042328809
 10
733.1397247353
 20
134.7061172705
  0
HATCH
  5
4F4
100
AcDbEntity
  8
ALL_DETAIL_ITEM
100
AcDbHatch
 62
4
  6
CONTINUOUS
 10
0.0
 20
0.0
 30
0.0
210
0.0
220
0.0
230
1.0
  2
SOLID
 70
1
 71
1
 91
1
 92
1
 93
18
 72
1
 10
733.1397247353
 20
134.7061172705
 11
733.3427924712
 21
134.6801059644
 72
1
 10
733.3427924712
 20
134.6801059644
 11
733.5404265595
 21
134.62667006
 72
1
 10
733.5404265595
 20
134.62667006
 11
733.7289454511
 21
134.5468527015
 72
1
 10
733.7289454511
 20
134.5468527015
 11
733.9048373957
 21
134.4420671811
 72
1
 10
733.9048373957
 20
134.4420671811
 11
734.0648258592
 21
134.3143324877
 72
1
 10
734.0648258592
 20
134.3143324877
 11
734.2059305593
 21
134.1660041082
 72
1
 10
734.2059305593
 20
134.1660041082
 11
734.3255229823
 21
133.9998413274
 72
1
 10
734.3255229823
 20
133.9998413274
 11
734.4213753477
 21
133.8189399281
 72
1
 10
734.4213753477
 20
133.8189399281
 11
714.9249574639
 21
105.7070922602
 72
1
 10
714.9249574639
 20
105.7070922602
 11
731.7623727484
 21
133.9763201075
 72
1
 10
731.7623727484
 20
133.9763201075
 11
731.8788947199
 21
134.1446364764
 72
1
 10
731.8788947199
 20
134.1446364764
 11
732.0172526892
 21
134.2955558916
 72
1
 10
732.0172526892
 20
134.2955558916
 11
732.174869309
 21
134.426184469
 72
1
 10
732.174869309
 20
134.426184469
 11
732.3488084799
 21
134.5341667217
 72
1
 10
732.3488084799
 20
134.5341667217
 11
732.5358300444
 21
134.617450011
 72
1
 10
732.5358300444
 20
134.617450011
 11
732.7324501444
 21
134.6744864455
 72
1
 10
732.7324501444
 20
134.6744864455
 11
732.9350061195
 21
134.7042328809
 72
1
 10
732.9350061195
 20
134.7042328809
 11
733.1397247353
 21
134.7061172705
 97
1
330
4F3
 75
0
 76
1
 98
1
 10
0.0
 20
0.0
  0
LWPOLYLINE
  5
4F5
100
AcDbEntity
  8
ALL_DETAIL_ITEM
100
AcDbPolyline
 62
4
  6
CONTINUOUS
 90
27
 70
0
 10
786.2371463772
 20
134.6555079505
 10
786.4329356657
 20
134.6426537216
 10
786.6253749452
 20
134.6043938832
 10
786.8111715263
 20
134.541334132
 10
786.9871463779
 20
134.4545512621
 10
787.1502885216
 20
134.3455258652
 10
787.29780655
 20
134.2161759807
 10
787.4271763888
 20
134.0686551967
 10
787.5361844841
 20
133.9054872493
 10
787.6229656773
 20
133.7295323726
 10
787.6860351181
 20
133.5437181005
 10
787.7243136707
 20
133.351274815
 10
787.7371463787
 20
133.155500198
 10
784.7377516557
 20
108.396270007
 10
784.7371463757
 20
133.155500198
 10
784.7499790836
 20
133.351274815
 10
784.7882576363
 20
133.5437181005
 10
784.851327077
 20
133.7295323726
 10
784.9381082702
 20
133.9054872493
 10
785.0471163655
 20
134.0686551967
 10
785.1764862043
 20
134.2161759807
 10
785.3240042327
 20
134.3455258652
 10
785.4871463764
 20
134.4545512621
 10
785.663121228
 20
134.541334132
 10
785.8489178091
 20
134.6043938832
 10
786.0413570886
 20
134.6426537216
 10
786.2371463772
 20
134.6555079505
  0
HATCH
  5
4F6
100
AcDbEntity
  8
ALL_DETAIL_ITEM
100
AcDbHatch
 62
4
  6
CONTINUOUS
 10
0.0
 20
0.0
 30
0.0
210
0.0
220
0.0
230
1.0
  2
SOLID
 70
1
 71
1
 91
1
 92
1
 93
26
 72
1
 10
786.2371463772
 20
134.6555079505
 11
786.4329356657
 21
134.6426537216
 72
1
 10
786.4329356657
 20
134.6426537216
 11
786.6253749452
 21
134.6043938832
 72
1
 10
786.6253749452
 20
134.6043938832
 11
786.8111715263
 21
134.541334132
 72
1
 10
786.8111715263
 20
134.541334132
 11
786.9871463779
 21
134.4545512621
 72
1
 10
786.9871463779
 20
134.4545512621
 11
787.1502885216
 21
134.3455258652
 72
1
 10
787.1502885216
 20
134.3455258652
 11
787.29780655
 21
134.2161759807
 72
1
 10
787.29780655
 20
134.2161759807
 11
787.4271763888
 21
134.0686551967
 72
1
 10
787.4271763888
 20
134.0686551967
 11
787.5361844841
 21
133.9054872493
 72
1
 10
787.5361844841
 20
133.9054872493
 11
787.6229656773
 21
133.7295323726
 72
1
 10
787.6229656773
 20
133.7295323726
 11
787.6860351181
 21
133.5437181005
 72
1
 10
787.6860351181
 20
133.5437181005
 11
787.7243136707
 21
133.351274815
 72
1
 10
787.7243136707
 20
133.351274815
 11
787.7371463787
 21
133.155500198
 72
1
 10
787.7371463787
 20
133.155500198
 11
784.7377516557
 21
108.396270007
 72
1
 10
784.7377516557
 20
108.396270007
 11
784.7371463757
 21
133.155500198
 72
1
 10
784.7371463757
 20
133.155500198
 11
784.7499790836
 21
133.351274815
 72
1
 10
784.7499790836
 20
133.351274815
 11
784.7882576363
 21
133.5437181005
 72
1
 10
784.7882576363
 20
133.5437181005
 11
784.851327077
 21
133.7295323726
 72
1
 10
784.851327077
 20
133.7295323726
 11
784.9381082702
 21
133.9054872493
 72
1
 10
784.9381082702
 20
133.9054872493
 11
785.0471163655
 21
134.0686551967
 72
1
 10
785.0471163655
 20
134.0686551967
 11
785.1764862043
 21
134.2161759807
 72
1
 10
785.1764862043
 20
134.2161759807
 11
785.3240042327
 21
134.3455258652
 72
1
 10
785.3240042327
 20
134.3455258652
 11
785.4871463764
 21
134.4545512621
 72
1
 10
785.4871463764
 20
134.4545512621
 11
785.663121228
 21
134.541334132
 72
1
 10
785.663121228
 20
134.541334132
 11
785.8489178091
 21
134.6043938832
 72
1
 10
785.8489178091
 20
134.6043938832
 11
786.0413570886
 21
134.6426537216
 72
1
 10
786.0413570886
 20
134.6426537216
 11
786.2371463772
 21
134.6555079505
 97
1
330
4F5
 75
0
 76
1
 98
1
 10
0.0
 20
0.0
  0
LWPOLYLINE
  5
4F7
100
AcDbEntity
  8
ALL_DETAIL_ITEM
100
AcDbPolyline
 62
4
  6
CONTINUOUS
 90
50
 70
0
 10
821.1403672782
 20
134.6555079505
 10
821.3361565667
 20
134.6426537216
 10
821.5285958462
 20
134.6043938832
 10
821.7143924273
 20
134.541334132
 10
821.8903672789
 20
134.4545512621
 10
822.0535094226
 20
134.3455258652
 10
822.201027451
 20
134.2161759807
 10
822.3303972898
 20
134.0686551967
 10
822.4394053851
 20
133.9054872493
 10
822.5261865783
 20
133.7295323726
 10
822.5892560191
 20
133.5437181005
 10
822.6275345717
 20
133.351274815
 10
822.6403672797
 20
133.155500198
 10
822.6397619964
 20
108.396270007
 10
822.6169444902
 20
107.8736547479
 10
822.5486909737
 20
107.3549765171
 10
822.4355202813
 20
106.8442732921
 10
822.2782926885
 20
106.3453138521
 10
822.078203373
 20
105.8619679258
 10
821.8367733291
 20
105.3979033429
 10
816.5418338402
 20
105.1084139942
 10
816.956126052
 20
105.245839834
 10
817.361714676
 20
105.4071906915
 10
817.7572241975
 20
105.59186087
 10
818.141313284
 20
105.7992446728
 10
818.3618313224
 20
105.9399008947
 10
818.5692589189
 20
106.0992327634
 10
818.7620192969
 20
106.2760288854
 10
818.9386471735
 20
106.4689432683
 10
819.0977998984
 20
106.67652897
 10
819.2382676601
 20
106.8971707995
 10
819.358982682
 20
107.129186266
 10
819.4590273397
 20
107.3708592292
 10
819.537641136
 20
107.6203389492
 10
819.5942264822
 20
107.8757073866
 10
819.6283532404
 20
108.1350128522
 10
819.6397619937
 20
108.3963373066
 10
819.6403672767
 20
133.155500198
 10
819.6531999846
 20
133.351274815
 10
819.6914785373
 20
133.5437181005
 10
819.754547978
 20
133.7295323726
 10
819.8413291712
 20
133.9054872493
 10
819.9503372665
 20
134.0686551967
 10
820.0797071053
 20
134.2161759807
 10
820.2272251337
 20
134.3455258652
 10
820.3903672774
 20
134.4545512621
 10
820.566342129
 20
134.541334132
 10
820.7521387101
 20
134.6043938832
 10
820.9445779896
 20
134.6426537216
 10
821.1403672782
 20
134.6555079505
  0
HATCH
  5
4F8
100
AcDbEntity
  8
ALL_DETAIL_ITEM
100
AcDbHatch
 62
4
  6
CONTINUOUS
 10
0.0
 20
0.0
 30
0.0
210
0.0
220
0.0
230
1.0
  2
SOLID
 70
1
 71
1
 91
1
 92
1
 93
49
 72
1
 10
821.1403672782
 20
134.6555079505
 11
821.3361565667
 21
134.6426537216
 72
1
 10
821.3361565667
 20
134.6426537216
 11
821.5285958462
 21
134.6043938832
 72
1
 10
821.5285958462
 20
134.6043938832
 11
821.7143924273
 21
134.541334132
 72
1
 10
821.7143924273
 20
134.541334132
 11
821.8903672789
 21
134.4545512621
 72
1
 10
821.8903672789
 20
134.4545512621
 11
822.0535094226
 21
134.3455258652
 72
1
 10
822.0535094226
 20
134.3455258652
 11
822.201027451
 21
134.2161759807
 72
1
 10
822.201027451
 20
134.2161759807
 11
822.3303972898
 21
134.0686551967
 72
1
 10
822.3303972898
 20
134.0686551967
 11
822.4394053851
 21
133.9054872493
 72
1
 10
822.4394053851
 20
133.9054872493
 11
822.5261865783
 21
133.7295323726
 72
1
 10
822.5261865783
 20
133.7295323726
 11
822.5892560191
 21
133.5437181005
 72
1
 10
822.5892560191
 20
133.5437181005
 11
822.6275345717
 21
133.351274815
 72
1
 10
822.6275345717
 20
133.351274815
 11
822.6403672797
 21
133.155500198
 72
1
 10
822.6403672797
 20
133.155500198
 11
822.6397619964
 21
108.396270007
 72
1
 10
822.6397619964
 20
108.396270007
 11
822.6169444902
 21
107.8736547479
 72
1
 10
822.6169444902
 20
107.8736547479
 11
822.5486909737
 21
107.3549765171
 72
1
 10
822.5486909737
 20
107.3549765171
 11
822.4355202813
 21
106.8442732921
 72
1
 10
822.4355202813
 20
106.8442732921
 11
822.2782926885
 21
106.3453138521
 72
1
 10
822.2782926885
 20
106.3453138521
 11
822.078203373
 21
105.8619679258
 72
1
 10
822.078203373
 20
105.8619679258
 11
821.8367733291
 21
105.3979033429
 72
1
 10
821.8367733291
 20
105.3979033429
 11
816.5418338402
 21
105.1084139942
 72
1
 10
816.5418338402
 20
105.1084139942
 11
816.956126052
 21
105.245839834
 72
1
 10
816.956126052
 20
105.245839834
 11
817.361714676
 21
105.4071906915
 72
1
 10
817.361714676
 20
105.4071906915
 11
817.7572241975
 21
105.59186087
 72
1
 10
817.7572241975
 20
105.59186087
 11
818.141313284
 21
105.7992446728
 72
1
 10
818.141313284
 20
105.7992446728
 11
818.3618313224
 21
105.9399008947
 72
1
 10
818.3618313224
 20
105.9399008947
 11
818.5692589189
 21
106.0992327634
 72
1
 10
818.5692589189
 20
106.0992327634
 11
818.7620192969
 21
106.2760288854
 72
1
 10
818.7620192969
 20
106.2760288854
 11
818.9386471735
 21
106.4689432683
 72
1
 10
818.9386471735
 20
106.4689432683
 11
819.0977998984
 21
106.67652897
 72
1
 10
819.0977998984
 20
106.67652897
 11
819.2382676601
 21
106.8971707995
 72
1
 10
819.2382676601
 20
106.8971707995
 11
819.358982682
 21
107.129186266
 72
1
 10
819.358982682
 20
107.129186266
 11
819.4590273397
 21
107.3708592292
 72
1
 10
819.4590273397
 20
107.3708592292
 11
819.537641136
 21
107.6203389492
 72
1
 10
819.537641136
 20
107.6203389492
 11
819.5942264822
 21
107.8757073866
 72
1
 10
819.5942264822
 20
107.8757073866
 11
819.6283532404
 21
108.1350128522
 72
1
 10
819.6283532404
 20
108.1350128522
 11
819.6397619937
 21
108.3963373066
 72
1
 10
819.6397619937
 20
108.3963373066
 11
819.6403672767
 21
133.155500198
 72
1
 10
819.6403672767
 20
133.155500198
 11
819.6531999846
 21
133.351274815
 72
1
 10
819.6531999846
 20
133.351274815
 11
819.6914785373
 21
133.5437181005
 72
1
 10
819.6914785373
 20
133.5437181005
 11
819.754547978
 21
133.7295323726
 72
1
 10
819.754547978
 20
133.7295323726
 11
819.8413291712
 21
133.9054872493
 72
1
 10
819.8413291712
 20
133.9054872493
 11
819.9503372665
 21
134.0686551967
 72
1
 10
819.9503372665
 20
134.0686551967
 11
820.0797071053
 21
134.2161759807
 72
1
 10
820.0797071053
 20
134.2161759807
 11
820.2272251337
 21
134.3455258652
 72
1
 10
820.2272251337
 20
134.3455258652
 11
820.3903672774
 21
134.4545512621
 72
1
 10
820.3903672774
 20
134.4545512621
 11
820.566342129
 21
134.541334132
 72
1
 10
820.566342129
 20
134.541334132
 11
820.7521387101
 21
134.6043938832
 72
1
 10
820.7521387101
 20
134.6043938832
 11
820.9445779896
 21
134.6426537216
 72
1
 10
820.9445779896
 20
134.6426537216
 11
821.1403672782
 21
134.6555079505
 97
1
330
4F7
 75
0
 76
1
 98
1
 10
0.0
 20
0.0
  0
LWPOLYLINE
  5
4F9
100
AcDbEntity
  8
ALL_DETAIL_ITEM
100
AcDbPolyline
 62
4
  6
CONTINUOUS
 90
27
 70
0
 10
670.8323405247
 20
134.6290009209
 10
671.0281298132
 20
134.6161713181
 10
671.2205690927
 20
134.5778778299
 10
671.4063656738
 20
134.5148180787
 10
671.5823405254
 20
134.4280352088
 10
671.7454826691
 20
134.3190434617
 10
671.8930006975
 20
134.1896599274
 10
672.0223705363
 20
134.0421391434
 10
672.1313786316
 20
133.8790048458
 10
672.2181598248
 20
133.7030163193
 10
672.2812292655
 20
133.517235697
 10
672.3195078182
 20
133.3247924115
 10
672.3323405262
 20
133.1289841446
 10
669.3323405232
 20
103.2822049461
 10
669.3323405232
 20
133.1289841446
 10
669.3451732311
 20
133.3247924115
 10
669.3834517838
 20
133.517235697
 10
669.4465212245
 20
133.7030163193
 10
669.5333024177
 20
133.8790048458
 10
669.642310513
 20
134.0421391434
 10
669.7716803518
 20
134.1896599274
 10
669.9191983802
 20
134.3190434617
 10
670.0823405239
 20
134.4280352088
 10
670.2583153755
 20
134.5148180787
 10
670.4441119566
 20
134.5778778299
 10
670.6365512361
 20
134.6161713181
 10
670.8323405247
 20
134.6290009209
  0
HATCH
  5
4FA
100
AcDbEntity
  8
ALL_DETAIL_ITEM
100
AcDbHatch
 62
4
  6
CONTINUOUS
 10
0.0
 20
0.0
 30
0.0
210
0.0
220
0.0
230
1.0
  2
SOLID
 70
1
 71
1
 91
1
 92
1
 93
26
 72
1
 10
670.8323405247
 20
134.6290009209
 11
671.0281298132
 21
134.6161713181
 72
1
 10
671.0281298132
 20
134.6161713181
 11
671.2205690927
 21
134.5778778299
 72
1
 10
671.2205690927
 20
134.5778778299
 11
671.4063656738
 21
134.5148180787
 72
1
 10
671.4063656738
 20
134.5148180787
 11
671.5823405254
 21
134.4280352088
 72
1
 10
671.5823405254
 20
134.4280352088
 11
671.7454826691
 21
134.3190434617
 72
1
 10
671.7454826691
 20
134.3190434617
 11
671.8930006975
 21
134.1896599274
 72
1
 10
671.8930006975
 20
134.1896599274
 11
672.0223705363
 21
134.0421391434
 72
1
 10
672.0223705363
 20
134.0421391434
 11
672.1313786316
 21
133.8790048458
 72
1
 10
672.1313786316
 20
133.8790048458
 11
672.2181598248
 21
133.7030163193
 72
1
 10
672.2181598248
 20
133.7030163193
 11
672.2812292655
 21
133.517235697
 72
1
 10
672.2812292655
 20
133.517235697
 11
672.3195078182
 21
133.3247924115
 72
1
 10
672.3195078182
 20
133.3247924115
 11
672.3323405262
 21
133.1289841446
 72
1
 10
672.3323405262
 20
133.1289841446
 11
669.3323405232
 21
103.2822049461
 72
1
 10
669.3323405232
 20
103.2822049461
 11
669.3323405232
 21
133.1289841446
 72
1
 10
669.3323405232
 20
133.1289841446
 11
669.3451732311
 21
133.3247924115
 72
1
 10
669.3451732311
 20
133.3247924115
 11
669.3834517838
 21
133.517235697
 72
1
 10
669.3834517838
 20
133.517235697
 11
669.4465212245
 21
133.7030163193
 72
1
 10
669.4465212245
 20
133.7030163193
 11
669.5333024177
 21
133.8790048458
 72
1
 10
669.5333024177
 20
133.8790048458
 11
669.642310513
 21
134.0421391434
 72
1
 10
669.642310513
 20
134.0421391434
 11
669.7716803518
 21
134.1896599274
 72
1
 10
669.7716803518
 20
134.1896599274
 11
669.9191983802
 21
134.3190434617
 72
1
 10
669.9191983802
 20
134.3190434617
 11
670.0823405239
 21
134.4280352088
 72
1
 10
670.0823405239
 20
134.4280352088
 11
670.2583153755
 21
134.5148180787
 72
1
 10
670.2583153755
 20
134.5148180787
 11
670.4441119566
 21
134.5778778299
 72
1
 10
670.4441119566
 20
134.5778778299
 11
670.6365512361
 21
134.6161713181
 72
1
 10
670.6365512361
 20
134.6161713181
 11
670.8323405247
 21
134.6290009209
 97
1
330
4F9
 75
0
 76
1
 98
1
 10
0.0
 20
0.0
  0
LWPOLYLINE
  5
4FB
100
AcDbEntity
  8
ALL_DETAIL_ITEM
100
AcDbPolyline
 62
4
  6
CONTINUOUS
 90
32
 70
0
 10
744.3514062287
 20
134.1895612997
 10
744.5082024274
 20
134.1977695325
 10
774.606351016
 20
134.1967943034
 10
774.8021398869
 20
134.1839552245
 10
774.9945779207
 20
134.1456704099
 10
775.1803724494
 20
134.0825949234
 10
775.3563444771
 20
133.995808004
 10
775.5194830736
 20
133.8867946001
 10
775.6669968922
 20
133.7574199612
 10
775.7963619307
 20
133.6098977231
 10
775.9053647174
 20
133.4467520324
 10
775.9921401843
 20
133.2707743571
 10
776.0552035792
 20
133.0849757238
 10
776.0934758699
 20
132.8925351988
 10
776.1063022069
 20
132.6967454928
 10
746.0081536159
 20
131.1977248817
 10
743.0081536159
 20
103.2857954544
 10
743.0081536159
 20
132.69776178
 10
743.016371113
 20
132.8545696251
 10
743.0409335679
 20
133.0096475962
 10
743.0815718582
 20
133.1613084701
 10
743.1378407237
 20
133.3078905498
 10
743.2091236455
 20
133.4477824812
 10
743.2946396006
 20
133.5794673684
 10
743.3934516196
 20
133.7014865316
 10
743.5044770525
 20
133.8125083518
 10
743.6264994311
 20
133.9113164003
 10
743.7581817972
 20
133.9968128441
 10
743.8980813517
 20
134.06810644
 10
744.0446652623
 20
134.1243705358
 10
744.1963274585
 20
134.165003891
 10
744.3514062287
 20
134.1895612997
  0
HATCH
  5
4FC
100
AcDbEntity
  8
ALL_DETAIL_ITEM
100
AcDbHatch
 62
4
  6
CONTINUOUS
 10
0.0
 20
0.0
 30
0.0
210
0.0
220
0.0
230
1.0
  2
SOLID
 70
1
 71
1
 91
1
 92
1
 93
31
 72
1
 10
744.3514062287
 20
134.1895612997
 11
744.5082024274
 21
134.1977695325
 72
1
 10
744.5082024274
 20
134.1977695325
 11
774.606351016
 21
134.1967943034
 72
1
 10
774.606351016
 20
134.1967943034
 11
774.8021398869
 21
134.1839552245
 72
1
 10
774.8021398869
 20
134.1839552245
 11
774.9945779207
 21
134.1456704099
 72
1
 10
774.9945779207
 20
134.1456704099
 11
775.1803724494
 21
134.0825949234
 72
1
 10
775.1803724494
 20
134.0825949234
 11
775.3563444771
 21
133.995808004
 72
1
 10
775.3563444771
 20
133.995808004
 11
775.5194830736
 21
133.8867946001
 72
1
 10
775.5194830736
 20
133.8867946001
 11
775.6669968922
 21
133.7574199612
 72
1
 10
775.6669968922
 20
133.7574199612
 11
775.7963619307
 21
133.6098977231
 72
1
 10
775.7963619307
 20
133.6098977231
 11
775.9053647174
 21
133.4467520324
 72
1
 10
775.9053647174
 20
133.4467520324
 11
775.9921401843
 21
133.2707743571
 72
1
 10
775.9921401843
 20
133.2707743571
 11
776.0552035792
 21
133.0849757238
 72
1
 10
776.0552035792
 20
133.0849757238
 11
776.0934758699
 21
132.8925351988
 72
1
 10
776.0934758699
 20
132.8925351988
 11
776.1063022069
 21
132.6967454928
 72
1
 10
776.1063022069
 20
132.6967454928
 11
746.0081536159
 21
131.1977248817
 72
1
 10
746.0081536159
 20
131.1977248817
 11
743.0081536159
 21
103.2857954544
 72
1
 10
743.0081536159
 20
103.2857954544
 11
743.0081536159
 21
132.69776178
 72
1
 10
743.0081536159
 20
132.69776178
 11
743.016371113
 21
132.8545696251
 72
1
 10
743.016371113
 20
132.8545696251
 11
743.0409335679
 21
133.0096475962
 72
1
 10
743.0409335679
 20
133.0096475962
 11
743.0815718582
 21
133.1613084701
 72
1
 10
743.0815718582
 20
133.1613084701
 11
743.1378407237
 21
133.3078905498
 72
1
 10
743.1378407237
 20
133.3078905498
 11
743.2091236455
 21
133.4477824812
 72
1
 10
743.2091236455
 20
133.4477824812
 11
743.2946396006
 21
133.5794673684
 72
1
 10
743.2946396006
 20
133.5794673684
 11
743.3934516196
 21
133.7014865316
 72
1
 10
743.3934516196
 20
133.7014865316
 11
743.5044770525
 21
133.8125083518
 72
1
 10
743.5044770525
 20
133.8125083518
 11
743.6264994311
 21
133.9113164003
 72
1
 10
743.6264994311
 20
133.9113164003
 11
743.7581817972
 21
133.9968128441
 72
1
 10
743.7581817972
 20
133.9968128441
 11
743.8980813517
 21
134.06810644
 72
1
 10
743.8980813517
 20
134.06810644
 11
744.0446652623
 21
134.1243705358
 72
1
 10
744.0446652623
 20
134.1243705358
 11
744.1963274585
 21
134.165003891
 72
1
 10
744.1963274585
 20
134.165003891
 11
744.3514062287
 21
134.1895612997
 97
1
330
4FB
 75
0
 76
1
 98
1
 10
0.0
 20
0.0
  0
LWPOLYLINE
  5
4FD
100
AcDbEntity
  8
ALL_DETAIL_ITEM
100
AcDbPolyline
 62
4
  6
CONTINUOUS
 90
13
 70
0
 10
867.0346806242
 20
134.1849415807
 10
867.2271199037
 20
134.146663028
 10
867.4129164848
 20
134.0835935873
 10
867.5888913364
 20
133.9968128441
 10
867.7520334801
 20
133.8878042988
 10
837.1502344657
 20
133.7566693437
 10
837.7401985262
 20
133.9147487592
 10
838.3383559189
 20
134.0382575755
 10
838.9426826926
 20
134.126777883
 10
839.5511340209
 20
134.1800101604
 10
840.1616511214
 20
134.1977695325
 10
866.8388913357
 20
134.1977695325
 10
867.0346806242
 20
134.1849415807
  0
HATCH
  5
4FE
100
AcDbEntity
  8
ALL_DETAIL_ITEM
100
AcDbHatch
 62
4
  6
CONTINUOUS
 10
0.0
 20
0.0
 30
0.0
210
0.0
220
0.0
230
1.0
  2
SOLID
 70
1
 71
1
 91
1
 92
1
 93
12
 72
1
 10
867.0346806242
 20
134.1849415807
 11
867.2271199037
 21
134.146663028
 72
1
 10
867.2271199037
 20
134.146663028
 11
867.4129164848
 21
134.0835935873
 72
1
 10
867.4129164848
 20
134.0835935873
 11
867.5888913364
 21
133.9968128441
 72
1
 10
867.5888913364
 20
133.9968128441
 11
867.7520334801
 21
133.8878042988
 72
1
 10
867.7520334801
 20
133.8878042988
 11
837.1502344657
 21
133.7566693437
 72
1
 10
837.1502344657
 20
133.7566693437
 11
837.7401985262
 21
133.9147487592
 72
1
 10
837.7401985262
 20
133.9147487592
 11
838.3383559189
 21
134.0382575755
 72
1
 10
838.3383559189
 20
134.0382575755
 11
838.9426826926
 21
134.126777883
 72
1
 10
838.9426826926
 20
134.126777883
 11
839.5511340209
 21
134.1800101604
 72
1
 10
839.5511340209
 20
134.1800101604
 11
840.1616511214
 21
134.1977695325
 72
1
 10
840.1616511214
 20
134.1977695325
 11
866.8388913357
 21
134.1977695325
 72
1
 10
866.8388913357
 20
134.1977695325
 11
867.0346806242
 21
134.1849415807
 97
1
330
4FD
 75
0
 76
1
 98
1
 10
0.0
 20
0.0
  0
LWPOLYLINE
  5
4FF
100
AcDbEntity
  8
ALL_DETAIL_ITEM
100
AcDbPolyline
 62
4
  6
CONTINUOUS
 90
10
 70
0
 10
867.8995515085
 20
133.75843446
 10
868.0289213473
 20
133.6109164316
 10
868.1379294426
 20
133.4477824812
 10
868.2247106358
 20
133.2717994363
 10
835.4492855314
 20
133.0809299708
 10
836.0028367759
 20
133.3390534178
 10
836.5704599655
 20
133.5645542136
 10
837.1502344657
 20
133.7566693437
 10
867.7520334801
 20
133.8878042988
 10
867.8995515085
 20
133.75843446
  0
HATCH
  5
500
100
AcDbEntity
  8
ALL_DETAIL_ITEM
100
AcDbHatch
 62
4
  6
CONTINUOUS
 10
0.0
 20
0.0
 30
0.0
210
0.0
220
0.0
230
1.0
  2
SOLID
 70
1
 71
1
 91
1
 92
1
 93
9
 72
1
 10
867.8995515085
 20
133.75843446
 11
868.0289213473
 21
133.6109164316
 72
1
 10
868.0289213473
 20
133.6109164316
 11
868.1379294426
 21
133.4477824812
 72
1
 10
868.1379294426
 20
133.4477824812
 11
868.2247106358
 21
133.2717994363
 72
1
 10
868.2247106358
 20
133.2717994363
 11
835.4492855314
 21
133.0809299708
 72
1
 10
835.4492855314
 20
133.0809299708
 11
836.0028367759
 21
133.3390534178
 72
1
 10
836.0028367759
 20
133.3390534178
 11
836.5704599655
 21
133.5645542136
 72
1
 10
836.5704599655
 20
133.5645542136
 11
837.1502344657
 21
133.7566693437
 72
1
 10
837.1502344657
 20
133.7566693437
 11
867.7520334801
 21
133.8878042988
 72
1
 10
867.7520334801
 20
133.8878042988
 11
867.8995515085
 21
133.75843446
 97
1
330
4FF
 75
0
 76
1
 98
1
 10
0.0
 20
0.0
  0
LWPOLYLINE
  5
501
100
AcDbEntity
  8
ALL_DETAIL_ITEM
100
AcDbPolyline
 62
4
  6
CONTINUOUS
 90
10
 70
0
 10
868.2877800766
 20
133.0860028552
 10
868.3260586292
 20
132.8935635757
 10
868.3388913372
 20
132.69776178
 10
868.3260586292
 20
132.5019849986
 10
834.0549493677
 20
132.1911721677
 10
834.4702184966
 20
132.5098175915
 10
834.9116792522
 20
132.7910572701
 10
835.4492855314
 20
133.0809299708
 10
868.2247106358
 20
133.2717994363
 10
868.2877800766
 20
133.0860028552
  0
HATCH
  5
502
100
AcDbEntity
  8
ALL_DETAIL_ITEM
100
AcDbHatch
 62
4
  6
CONTINUOUS
 10
0.0
 20
0.0
 30
0.0
210
0.0
220
0.0
230
1.0
  2
SOLID
 70
1
 71
1
 91
1
 92
1
 93
9
 72
1
 10
868.2877800766
 20
133.0860028552
 11
868.3260586292
 21
132.8935635757
 72
1
 10
868.3260586292
 20
132.8935635757
 11
868.3388913372
 21
132.69776178
 72
1
 10
868.3388913372
 20
132.69776178
 11
868.3260586292
 21
132.5019849986
 72
1
 10
868.3260586292
 20
132.5019849986
 11
834.0549493677
 21
132.1911721677
 72
1
 10
834.0549493677
 20
132.1911721677
 11
834.4702184966
 21
132.5098175915
 72
1
 10
834.4702184966
 20
132.5098175915
 11
834.9116792522
 21
132.7910572701
 72
1
 10
834.9116792522
 20
132.7910572701
 11
835.4492855314
 21
133.0809299708
 72
1
 10
835.4492855314
 20
133.0809299708
 11
868.2247106358
 21
133.2717994363
 72
1
 10
868.2247106358
 20
133.2717994363
 11
868.2877800766
 21
133.0860028552
 97
1
330
501
 75
0
 76
1
 98
1
 10
0.0
 20
0.0
  0
LWPOLYLINE
  5
503
100
AcDbEntity
  8
ALL_DETAIL_ITEM
100
AcDbPolyline
 62
4
  6
CONTINUOUS
 90
6
 70
0
 10
868.2877800766
 20
132.3095457191
 10
868.2247106358
 20
132.123749138
 10
833.669032333
 20
131.837546097
 10
834.0549493677
 20
132.1911721677
 10
868.3260586292
 20
132.5019849986
 10
868.2877800766
 20
132.3095457191
  0
HATCH
  5
504
100
AcDbEntity
  8
ALL_DETAIL_ITEM
100
AcDbHatch
 62
4
  6
CONTINUOUS
 10
0.0
 20
0.0
 30
0.0
210
0.0
220
0.0
230
1.0
  2
SOLID
 70
1
 71
1
 91
1
 92
1
 93
5
 72
1
 10
868.2877800766
 20
132.3095457191
 11
868.2247106358
 21
132.123749138
 72
1
 10
868.2247106358
 20
132.123749138
 11
833.669032333
 21
131.837546097
 72
1
 10
833.669032333
 20
131.837546097
 11
834.0549493677
 21
132.1911721677
 72
1
 10
834.0549493677
 20
132.1911721677
 11
868.3260586292
 21
132.5019849986
 72
1
 10
868.3260586292
 20
132.5019849986
 11
868.2877800766
 21
132.3095457191
 97
1
330
503
 75
0
 76
1
 98
1
 10
0.0
 20
0.0
  0
LWPOLYLINE
  5
505
100
AcDbEntity
  8
ALL_DETAIL_ITEM
100
AcDbPolyline
 62
4
  6
CONTINUOUS
 90
6
 70
0
 10
868.1379294426
 20
131.9477742864
 10
868.0289213473
 20
131.7846321427
 10
833.3154044714
 20
131.4516307033
 10
833.669032333
 20
131.837546097
 10
868.2247106358
 20
132.123749138
 10
868.1379294426
 20
131.9477742864
  0
HATCH
  5
506
100
AcDbEntity
  8
ALL_DETAIL_ITEM
100
AcDbHatch
 62
4
  6
CONTINUOUS
 10
0.0
 20
0.0
 30
0.0
210
0.0
220
0.0
230
1.0
  2
SOLID
 70
1
 71
1
 91
1
 92
1
 93
5
 72
1
 10
868.1379294426
 20
131.9477742864
 11
868.0289213473
 21
131.7846321427
 72
1
 10
868.0289213473
 20
131.7846321427
 11
833.3154044714
 21
131.4516307033
 72
1
 10
833.3154044714
 20
131.4516307033
 11
833.669032333
 21
131.837546097
 72
1
 10
833.669032333
 20
131.837546097
 11
868.2247106358
 21
132.123749138
 72
1
 10
868.2247106358
 20
132.123749138
 11
868.1379294426
 21
131.9477742864
 97
1
330
505
 75
0
 76
1
 98
1
 10
0.0
 20
0.0
  0
LWPOLYLINE
  5
507
100
AcDbEntity
  8
ALL_DETAIL_ITEM
100
AcDbPolyline
 62
4
  6
CONTINUOUS
 90
8
 70
0
 10
867.7520334801
 20
131.5077442755
 10
867.5888913364
 20
131.3987361802
 10
840.1616511214
 20
131.1977876773
 10
832.9967571204
 20
131.0363630531
 10
833.3154044714
 20
131.4516307033
 10
868.0289213473
 20
131.7846321427
 10
867.8995515085
 20
131.6371141143
 10
867.7520334801
 20
131.5077442755
  0
HATCH
  5
508
100
AcDbEntity
  8
ALL_DETAIL_ITEM
100
AcDbHatch
 62
4
  6
CONTINUOUS
 10
0.0
 20
0.0
 30
0.0
210
0.0
220
0.0
230
1.0
  2
SOLID
 70
1
 71
1
 91
1
 92
1
 93
7
 72
1
 10
867.7520334801
 20
131.5077442755
 11
867.5888913364
 21
131.3987361802
 72
1
 10
867.5888913364
 20
131.3987361802
 11
840.1616511214
 21
131.1977876773
 72
1
 10
840.1616511214
 20
131.1977876773
 11
832.9967571204
 21
131.0363630531
 72
1
 10
832.9967571204
 20
131.0363630531
 11
833.3154044714
 21
131.4516307033
 72
1
 10
833.3154044714
 20
131.4516307033
 11
868.0289213473
 21
131.7846321427
 72
1
 10
868.0289213473
 20
131.7846321427
 11
867.8995515085
 21
131.6371141143
 72
1
 10
867.8995515085
 20
131.6371141143
 11
867.7520334801
 21
131.5077442755
 97
1
330
507
 75
0
 76
1
 98
1
 10
0.0
 20
0.0
  0
LWPOLYLINE
  5
509
100
AcDbEntity
  8
ALL_DETAIL_ITEM
100
AcDbPolyline
 62
4
  6
CONTINUOUS
 90
7
 70
0
 10
867.0346806242
 20
131.2106069936
 10
866.8388913357
 20
131.1977876773
 10
840.1616511214
 20
131.1977876773
 10
867.5888913364
 20
131.3987361802
 10
867.4129164848
 20
131.311954987
 10
867.2271199037
 20
131.2488855463
 10
867.0346806242
 20
131.2106069936
  0
HATCH
  5
50A
100
AcDbEntity
  8
ALL_DETAIL_ITEM
100
AcDbHatch
 62
4
  6
CONTINUOUS
 10
0.0
 20
0.0
 30
0.0
210
0.0
220
0.0
230
1.0
  2
SOLID
 70
1
 71
1
 91
1
 92
1
 93
6
 72
1
 10
867.0346806242
 20
131.2106069936
 11
866.8388913357
 21
131.1977876773
 72
1
 10
866.8388913357
 20
131.1977876773
 11
840.1616511214
 21
131.1977876773
 72
1
 10
840.1616511214
 20
131.1977876773
 11
867.5888913364
 21
131.3987361802
 72
1
 10
867.5888913364
 20
131.3987361802
 11
867.4129164848
 21
131.311954987
 72
1
 10
867.4129164848
 20
131.311954987
 11
867.2271199037
 21
131.2488855463
 72
1
 10
867.2271199037
 20
131.2488855463
 11
867.0346806242
 21
131.2106069936
 97
1
330
509
 75
0
 76
1
 98
1
 10
0.0
 20
0.0
  0
LWPOLYLINE
  5
50B
100
AcDbEntity
  8
ALL_DETAIL_ITEM
100
AcDbPolyline
 62
4
  6
CONTINUOUS
 90
15
 70
0
 10
774.8020431023
 20
131.2096206389
 10
774.6062533963
 20
131.196794302
 10
746.0081536159
 20
131.1977248817
 10
776.1063022069
 20
132.6967454928
 10
776.093463128
 20
132.500956622
 10
776.0551783134
 20
132.3085185881
 10
775.9921028269
 20
132.1227240594
 10
775.9053159075
 20
131.9467520317
 10
775.7963025036
 20
131.7836134353
 10
775.6669278647
 20
131.6360996166
 10
775.5194056266
 20
131.5067345781
 10
775.3562599359
 20
131.3977317915
 10
775.1802822606
 20
131.3109563245
 10
774.9944836273
 20
131.2478929296
 10
774.8020431023
 20
131.2096206389
  0
HATCH
  5
50C
100
AcDbEntity
  8
ALL_DETAIL_ITEM
100
AcDbHatch
 62
4
  6
CONTINUOUS
 10
0.0
 20
0.0
 30
0.0
210
0.0
220
0.0
230
1.0
  2
SOLID
 70
1
 71
1
 91
1
 92
1
 93
14
 72
1
 10
774.8020431023
 20
131.2096206389
 11
774.6062533963
 21
131.196794302
 72
1
 10
774.6062533963
 20
131.196794302
 11
746.0081536159
 21
131.1977248817
 72
1
 10
746.0081536159
 20
131.1977248817
 11
776.1063022069
 21
132.6967454928
 72
1
 10
776.1063022069
 20
132.6967454928
 11
776.093463128
 21
132.500956622
 72
1
 10
776.093463128
 20
132.500956622
 11
776.0551783134
 21
132.3085185881
 72
1
 10
776.0551783134
 20
132.3085185881
 11
775.9921028269
 21
132.1227240594
 72
1
 10
775.9921028269
 20
132.1227240594
 11
775.9053159075
 21
131.9467520317
 72
1
 10
775.9053159075
 20
131.9467520317
 11
775.7963025036
 21
131.7836134353
 72
1
 10
775.7963025036
 20
131.7836134353
 11
775.6669278647
 21
131.6360996166
 72
1
 10
775.6669278647
 20
131.6360996166
 11
775.5194056266
 21
131.5067345781
 72
1
 10
775.5194056266
 20
131.5067345781
 11
775.3562599359
 21
131.3977317915
 72
1
 10
775.3562599359
 20
131.3977317915
 11
775.1802822606
 21
131.3109563245
 72
1
 10
775.1802822606
 20
131.3109563245
 11
774.9944836273
 21
131.2478929296
 72
1
 10
774.9944836273
 20
131.2478929296
 11
774.8020431023
 21
131.2096206389
 97
1
330
50B
 75
0
 76
1
 98
1
 10
0.0
 20
0.0
  0
LWPOLYLINE
  5
50D
100
AcDbEntity
  8
ALL_DETAIL_ITEM
100
AcDbPolyline
 62
4
  6
CONTINUOUS
 90
8
 70
0
 10
838.8592974058
 20
131.0838337756
 10
838.4320421254
 20
130.9956131925
 10
832.7155153931
 20
130.5949036026
 10
832.9967571204
 20
131.0363630531
 10
840.1616511214
 20
131.1977876773
 10
839.7255674784
 20
131.1850856219
 10
839.2909593869
 20
131.1470625666
 10
838.8592974058
 20
131.0838337756
  0
HATCH
  5
50E
100
AcDbEntity
  8
ALL_DETAIL_ITEM
100
AcDbHatch
 62
4
  6
CONTINUOUS
 10
0.0
 20
0.0
 30
0.0
210
0.0
220
0.0
230
1.0
  2
SOLID
 70
1
 71
1
 91
1
 92
1
 93
7
 72
1
 10
838.8592974058
 20
131.0838337756
 11
838.4320421254
 21
130.9956131925
 72
1
 10
838.4320421254
 20
130.9956131925
 11
832.7155153931
 21
130.5949036026
 72
1
 10
832.7155153931
 20
130.5949036026
 11
832.9967571204
 21
131.0363630531
 72
1
 10
832.9967571204
 20
131.0363630531
 11
840.1616511214
 21
131.1977876773
 72
1
 10
840.1616511214
 20
131.1977876773
 11
839.7255674784
 21
131.1850856219
 72
1
 10
839.7255674784
 20
131.1850856219
 11
839.2909593869
 21
131.1470625666
 72
1
 10
839.2909593869
 20
131.1470625666
 11
838.8592974058
 21
131.0838337756
 97
1
330
50D
 75
0
 76
1
 98
1
 10
0.0
 20
0.0
  0
LWPOLYLINE
  5
50F
100
AcDbEntity
  8
ALL_DETAIL_ITEM
100
AcDbPolyline
 62
4
  6
CONTINUOUS
 90
7
 70
0
 10
837.5965145824
 20
130.7454742314
 10
837.1910694471
 20
130.5844022345
 10
832.4738197215
 20
130.1306121447
 10
832.7155153931
 20
130.5949036026
 10
838.4320421254
 20
130.9956131925
 10
838.0106392252
 20
130.8826993244
 10
837.5965145824
 20
130.7454742314
  0
HATCH
  5
510
100
AcDbEntity
  8
ALL_DETAIL_ITEM
100
AcDbHatch
 62
4
  6
CONTINUOUS
 10
0.0
 20
0.0
 30
0.0
210
0.0
220
0.0
230
1.0
  2
SOLID
 70
1
 71
1
 91
1
 92
1
 93
6
 72
1
 10
837.5965145824
 20
130.7454742314
 11
837.1910694471
 21
130.5844022345
 72
1
 10
837.1910694471
 20
130.5844022345
 11
832.4738197215
 21
130.1306121447
 72
1
 10
832.4738197215
 20
130.1306121447
 11
832.7155153931
 21
130.5949036026
 72
1
 10
832.7155153931
 20
130.5949036026
 11
838.4320421254
 21
130.9956131925
 72
1
 10
838.4320421254
 20
130.9956131925
 11
838.0106392252
 21
130.8826993244
 72
1
 10
838.0106392252
 20
130.8826993244
 11
837.5965145824
 21
130.7454742314
 97
1
330
50F
 75
0
 76
1
 98
1
 10
0.0
 20
0.0
  0
LWPOLYLINE
  5
511
100
AcDbEntity
  8
ALL_DETAIL_ITEM
100
AcDbPolyline
 62
4
  6
CONTINUOUS
 90
7
 70
0
 10
836.411671216
 20
130.1929764149
 10
836.1909408386
 20
130.0523565757
 10
832.2735095664
 20
129.6470222385
 10
832.4738197215
 20
130.1306121447
 10
837.1910694471
 20
130.5844022345
 10
836.7956757012
 20
130.4000283438
 10
836.411671216
 20
130.1929764149
  0
HATCH
  5
512
100
AcDbEntity
  8
ALL_DETAIL_ITEM
100
AcDbHatch
 62
4
  6
CONTINUOUS
 10
0.0
 20
0.0
 30
0.0
210
0.0
220
0.0
230
1.0
  2
SOLID
 70
1
 71
1
 91
1
 92
1
 93
6
 72
1
 10
836.411671216
 20
130.1929764149
 11
836.1909408386
 21
130.0523565757
 72
1
 10
836.1909408386
 20
130.0523565757
 11
832.2735095664
 21
129.6470222385
 72
1
 10
832.2735095664
 20
129.6470222385
 11
832.4738197215
 21
130.1306121447
 72
1
 10
832.4738197215
 20
130.1306121447
 11
837.1910694471
 21
130.5844022345
 72
1
 10
837.1910694471
 20
130.5844022345
 11
836.7956757012
 21
130.4000283438
 72
1
 10
836.7956757012
 20
130.4000283438
 11
836.411671216
 21
130.1929764149
 97
1
330
511
 75
0
 76
1
 98
1
 10
0.0
 20
0.0
  0
LWPOLYLINE
  5
513
100
AcDbEntity
  8
ALL_DETAIL_ITEM
100
AcDbPolyline
 62
4
  6
CONTINUOUS
 90
7
 70
0
 10
835.790347757
 20
129.7162208286
 10
835.6135338263
 20
129.5232631319
 10
832.1161094182
 20
129.147814317
 10
832.2735095664
 20
129.6470222385
 10
836.1909408386
 20
130.0523565757
 10
835.9833062743
 20
129.8930338638
 10
835.790347757
 20
129.7162208286
  0
HATCH
  5
514
100
AcDbEntity
  8
ALL_DETAIL_ITEM
100
AcDbHatch
 62
4
  6
CONTINUOUS
 10
0.0
 20
0.0
 30
0.0
210
0.0
220
0.0
230
1.0
  2
SOLID
 70
1
 71
1
 91
1
 92
1
 93
6
 72
1
 10
835.790347757
 20
129.7162208286
 11
835.6135338263
 21
129.5232631319
 72
1
 10
835.6135338263
 20
129.5232631319
 11
832.1161094182
 21
129.147814317
 72
1
 10
832.1161094182
 20
129.147814317
 11
832.2735095664
 21
129.6470222385
 72
1
 10
832.2735095664
 20
129.6470222385
 11
836.1909408386
 21
130.0523565757
 72
1
 10
836.1909408386
 20
130.0523565757
 11
835.9833062743
 21
129.8930338638
 72
1
 10
835.9833062743
 20
129.8930338638
 11
835.790347757
 21
129.7162208286
 97
1
330
513
 75
0
 76
1
 98
1
 10
0.0
 20
0.0
  0
LWPOLYLINE
  5
515
100
AcDbEntity
  8
ALL_DETAIL_ITEM
100
AcDbPolyline
 62
4
  6
CONTINUOUS
 90
6
 70
0
 10
835.4542101509
 20
129.3156293069
 10
835.3135892874
 20
129.0948995818
 10
832.0028171939
 20
128.6367876763
 10
832.1161094182
 20
129.147814317
 10
835.6135338263
 20
129.5232631319
 10
835.4542101509
 20
129.3156293069
  0
HATCH
  5
516
100
AcDbEntity
  8
ALL_DETAIL_ITEM
100
AcDbHatch
 62
4
  6
CONTINUOUS
 10
0.0
 20
0.0
 30
0.0
210
0.0
220
0.0
230
1.0
  2
SOLID
 70
1
 71
1
 91
1
 92
1
 93
5
 72
1
 10
835.4542101509
 20
129.3156293069
 11
835.3135892874
 21
129.0948995818
 72
1
 10
835.3135892874
 20
129.0948995818
 11
832.0028171939
 21
128.6367876763
 72
1
 10
832.0028171939
 20
128.6367876763
 11
832.1161094182
 21
129.147814317
 72
1
 10
832.1161094182
 20
129.147814317
 11
835.6135338263
 21
129.5232631319
 72
1
 10
835.6135338263
 20
129.5232631319
 11
835.4542101509
 21
129.3156293069
 97
1
330
515
 75
0
 76
1
 98
1
 10
0.0
 20
0.0
  0
LWPOLYLINE
  5
517
100
AcDbEntity
  8
ALL_DETAIL_ITEM
100
AcDbPolyline
 62
4
  6
CONTINUOUS
 90
6
 70
0
 10
835.1927414517
 20
128.862753853
 10
835.0925863742
 20
128.6209589001
 10
831.934495121
 20
128.1178315607
 10
832.0028171939
 20
128.6367876763
 10
835.3135892874
 20
129.0948995818
 10
835.1927414517
 20
128.862753853
  0
HATCH
  5
518
100
AcDbEntity
  8
ALL_DETAIL_ITEM
100
AcDbHatch
 62
4
  6
CONTINUOUS
 10
0.0
 20
0.0
 30
0.0
210
0.0
220
0.0
230
1.0
  2
SOLID
 70
1
 71
1
 91
1
 92
1
 93
5
 72
1
 10
835.1927414517
 20
128.862753853
 11
835.0925863742
 21
128.6209589001
 72
1
 10
835.0925863742
 20
128.6209589001
 11
831.934495121
 21
128.1178315607
 72
1
 10
831.934495121
 20
128.1178315607
 11
832.0028171939
 21
128.6367876763
 72
1
 10
832.0028171939
 20
128.6367876763
 11
835.3135892874
 21
129.0948995818
 72
1
 10
835.3135892874
 20
129.0948995818
 11
835.1927414517
 21
128.862753853
 97
1
330
517
 75
0
 76
1
 98
1
 10
0.0
 20
0.0
  0
LWPOLYLINE
  5
519
100
AcDbEntity
  8
ALL_DETAIL_ITEM
100
AcDbPolyline
 62
4
  6
CONTINUOUS
 90
6
 70
0
 10
835.0138863001
 20
128.3713549395
 10
834.957240188
 20
128.1158416193
 10
831.9116631747
 20
127.5949021072
 10
831.934495121
 20
128.1178315607
 10
835.0925863742
 20
128.6209589001
 10
835.0138863001
 20
128.3713549395
  0
HATCH
  5
51A
100
AcDbEntity
  8
ALL_DETAIL_ITEM
100
AcDbHatch
 62
4
  6
CONTINUOUS
 10
0.0
 20
0.0
 30
0.0
210
0.0
220
0.0
230
1.0
  2
SOLID
 70
1
 71
1
 91
1
 92
1
 93
5
 72
1
 10
835.0138863001
 20
128.3713549395
 11
834.957240188
 21
128.1158416193
 72
1
 10
834.957240188
 20
128.1158416193
 11
831.9116631747
 21
127.5949021072
 72
1
 10
831.9116631747
 20
127.5949021072
 11
831.934495121
 21
128.1178315607
 72
1
 10
831.934495121
 20
128.1178315607
 11
835.0925863742
 21
128.6209589001
 72
1
 10
835.0925863742
 20
128.6209589001
 11
835.0138863001
 21
128.3713549395
 97
1
330
519
 75
0
 76
1
 98
1
 10
0.0
 20
0.0
  0
LWPOLYLINE
  5
51B
100
AcDbEntity
  8
ALL_DETAIL_ITEM
100
AcDbPolyline
 62
4
  6
CONTINUOUS
 90
8
 70
0
 10
834.9230791516
 20
127.8563635617
 10
834.9116631784
 20
127.5949021072
 10
834.9116631784
 20
123.0926579619
 10
831.934495121
 20
122.5697207679
 10
831.9116631747
 20
123.0926579619
 10
831.9116631747
 20
127.5949021072
 10
834.957240188
 20
128.1158416193
 10
834.9230791516
 20
127.8563635617
  0
HATCH
  5
51C
100
AcDbEntity
  8
ALL_DETAIL_ITEM
100
AcDbHatch
 62
4
  6
CONTINUOUS
 10
0.0
 20
0.0
 30
0.0
210
0.0
220
0.0
230
1.0
  2
SOLID
 70
1
 71
1
 91
1
 92
1
 93
7
 72
1
 10
834.9230791516
 20
127.8563635617
 11
834.9116631784
 21
127.5949021072
 72
1
 10
834.9116631784
 20
127.5949021072
 11
834.9116631784
 21
123.0926579619
 72
1
 10
834.9116631784
 20
123.0926579619
 11
831.934495121
 21
122.5697207679
 72
1
 10
831.934495121
 20
122.5697207679
 11
831.9116631747
 21
123.0926579619
 72
1
 10
831.9116631747
 20
123.0926579619
 11
831.9116631747
 21
127.5949021072
 72
1
 10
831.9116631747
 20
127.5949021072
 11
834.957240188
 21
128.1158416193
 72
1
 10
834.957240188
 20
128.1158416193
 11
834.9230791516
 21
127.8563635617
 97
1
330
51B
 75
0
 76
1
 98
1
 10
0.0
 20
0.0
  0
LWPOLYLINE
  5
51D
100
AcDbEntity
  8
ALL_DETAIL_ITEM
100
AcDbPolyline
 62
4
  6
CONTINUOUS
 90
7
 70
0
 10
834.957240188
 20
122.5717107093
 10
835.0138863001
 20
122.3161973891
 10
832.0028171939
 20
122.0507646523
 10
831.934495121
 20
122.5697207679
 10
834.9116631784
 20
123.0926579619
 10
834.9230791516
 20
122.8311887669
 10
834.957240188
 20
122.5717107093
  0
HATCH
  5
51E
100
AcDbEntity
  8
ALL_DETAIL_ITEM
100
AcDbHatch
 62
4
  6
CONTINUOUS
 10
0.0
 20
0.0
 30
0.0
210
0.0
220
0.0
230
1.0
  2
SOLID
 70
1
 71
1
 91
1
 92
1
 93
6
 72
1
 10
834.957240188
 20
122.5717107093
 11
835.0138863001
 21
122.3161973891
 72
1
 10
835.0138863001
 20
122.3161973891
 11
832.0028171939
 21
122.0507646523
 72
1
 10
832.0028171939
 20
122.0507646523
 11
831.934495121
 21
122.5697207679
 72
1
 10
831.934495121
 20
122.5697207679
 11
834.9116631784
 21
123.0926579619
 72
1
 10
834.9116631784
 20
123.0926579619
 11
834.9230791516
 21
122.8311887669
 72
1
 10
834.9230791516
 20
122.8311887669
 11
834.957240188
 21
122.5717107093
 97
1
330
51D
 75
0
 76
1
 98
1
 10
0.0
 20
0.0
  0
LWPOLYLINE
  5
51F
100
AcDbEntity
  8
ALL_DETAIL_ITEM
100
AcDbPolyline
 62
4
  6
CONTINUOUS
 90
6
 70
0
 10
835.0925863742
 20
122.0665934285
 10
835.1927414517
 20
121.8247984756
 10
832.1161094182
 20
121.5397380116
 10
832.0028171939
 20
122.0507646523
 10
835.0138863001
 20
122.3161973891
 10
835.0925863742
 20
122.0665934285
  0
HATCH
  5
520
100
AcDbEntity
  8
ALL_DETAIL_ITEM
100
AcDbHatch
 62
4
  6
CONTINUOUS
 10
0.0
 20
0.0
 30
0.0
210
0.0
220
0.0
230
1.0
  2
SOLID
 70
1
 71
1
 91
1
 92
1
 93
5
 72
1
 10
835.0925863742
 20
122.0665934285
 11
835.1927414517
 21
121.8247984756
 72
1
 10
835.1927414517
 20
121.8247984756
 11
832.1161094182
 21
121.5397380116
 72
1
 10
832.1161094182
 20
121.5397380116
 11
832.0028171939
 21
122.0507646523
 72
1
 10
832.0028171939
 20
122.0507646523
 11
835.0138863001
 21
122.3161973891
 72
1
 10
835.0138863001
 20
122.3161973891
 11
835.0925863742
 21
122.0665934285
 97
1
330
51F
 75
0
 76
1
 98
1
 10
0.0
 20
0.0
  0
LWPOLYLINE
  5
521
100
AcDbEntity
  8
ALL_DETAIL_ITEM
100
AcDbPolyline
 62
4
  6
CONTINUOUS
 90
6
 70
0
 10
835.3135892874
 20
121.5926527468
 10
835.4542101509
 20
121.3719230217
 10
832.2735095664
 20
121.0405300901
 10
832.1161094182
 20
121.5397380116
 10
835.1927414517
 20
121.8247984756
 10
835.3135892874
 20
121.5926527468
  0
HATCH
  5
522
100
AcDbEntity
  8
ALL_DETAIL_ITEM
100
AcDbHatch
 62
4
  6
CONTINUOUS
 10
0.0
 20
0.0
 30
0.0
210
0.0
220
0.0
230
1.0
  2
SOLID
 70
1
 71
1
 91
1
 92
1
 93
5
 72
1
 10
835.3135892874
 20
121.5926527468
 11
835.4542101509
 21
121.3719230217
 72
1
 10
835.4542101509
 20
121.3719230217
 11
832.2735095664
 21
121.0405300901
 72
1
 10
832.2735095664
 20
121.0405300901
 11
832.1161094182
 21
121.5397380116
 72
1
 10
832.1161094182
 20
121.5397380116
 11
835.1927414517
 21
121.8247984756
 72
1
 10
835.1927414517
 20
121.8247984756
 11
835.3135892874
 21
121.5926527468
 97
1
330
521
 75
0
 76
1
 98
1
 10
0.0
 20
0.0
  0
LWPOLYLINE
  5
523
100
AcDbEntity
  8
ALL_DETAIL_ITEM
100
AcDbPolyline
 62
4
  6
CONTINUOUS
 90
6
 70
0
 10
835.6135338263
 20
121.1642891967
 10
835.790347757
 20
120.9713315
 10
832.4738197215
 20
120.5569401839
 10
832.2735095664
 20
121.0405300901
 10
835.4542101509
 20
121.3719230217
 10
835.6135338263
 20
121.1642891967
  0
HATCH
  5
524
100
AcDbEntity
  8
ALL_DETAIL_ITEM
100
AcDbHatch
 62
4
  6
CONTINUOUS
 10
0.0
 20
0.0
 30
0.0
210
0.0
220
0.0
230
1.0
  2
SOLID
 70
1
 71
1
 91
1
 92
1
 93
5
 72
1
 10
835.6135338263
 20
121.1642891967
 11
835.790347757
 21
120.9713315
 72
1
 10
835.790347757
 20
120.9713315
 11
832.4738197215
 21
120.5569401839
 72
1
 10
832.4738197215
 20
120.5569401839
 11
832.2735095664
 21
121.0405300901
 72
1
 10
832.2735095664
 20
121.0405300901
 11
835.4542101509
 21
121.3719230217
 72
1
 10
835.4542101509
 20
121.3719230217
 11
835.6135338263
 21
121.1642891967
 97
1
330
523
 75
0
 76
1
 98
1
 10
0.0
 20
0.0
  0
LWPOLYLINE
  5
525
100
AcDbEntity
  8
ALL_DETAIL_ITEM
100
AcDbPolyline
 62
4
  6
CONTINUOUS
 90
7
 70
0
 10
836.1909408386
 20
120.6351957529
 10
836.4116712163
 20
120.4945759137
 10
832.7155153931
 20
120.092648726
 10
832.4738197215
 20
120.5569401839
 10
835.790347757
 20
120.9713315
 10
835.9833062743
 20
120.7945184647
 10
836.1909408386
 20
120.6351957529
  0
HATCH
  5
526
100
AcDbEntity
  8
ALL_DETAIL_ITEM
100
AcDbHatch
 62
4
  6
CONTINUOUS
 10
0.0
 20
0.0
 30
0.0
210
0.0
220
0.0
230
1.0
  2
SOLID
 70
1
 71
1
 91
1
 92
1
 93
6
 72
1
 10
836.1909408386
 20
120.6351957529
 11
836.4116712163
 21
120.4945759137
 72
1
 10
836.4116712163
 20
120.4945759137
 11
832.7155153931
 21
120.092648726
 72
1
 10
832.7155153931
 20
120.092648726
 11
832.4738197215
 21
120.5569401839
 72
1
 10
832.4738197215
 20
120.5569401839
 11
835.790347757
 21
120.9713315
 72
1
 10
835.790347757
 20
120.9713315
 11
835.9833062743
 21
120.7945184647
 72
1
 10
835.9833062743
 20
120.7945184647
 11
836.1909408386
 21
120.6351957529
 97
1
330
525
 75
0
 76
1
 98
1
 10
0.0
 20
0.0
  0
LWPOLYLINE
  5
527
100
AcDbEntity
  8
ALL_DETAIL_ITEM
100
AcDbPolyline
 62
4
  6
CONTINUOUS
 90
7
 70
0
 10
837.1910694471
 20
120.1031500941
 10
837.5965145824
 20
119.9420780971
 10
832.9967571204
 20
119.6511892755
 10
832.7155153931
 20
120.092648726
 10
836.4116712163
 20
120.4945759137
 10
836.7956757012
 20
120.2875239847
 10
837.1910694471
 20
120.1031500941
  0
HATCH
  5
528
100
AcDbEntity
  8
ALL_DETAIL_ITEM
100
AcDbHatch
 62
4
  6
CONTINUOUS
 10
0.0
 20
0.0
 30
0.0
210
0.0
220
0.0
230
1.0
  2
SOLID
 70
1
 71
1
 91
1
 92
1
 93
6
 72
1
 10
837.1910694471
 20
120.1031500941
 11
837.5965145824
 21
119.9420780971
 72
1
 10
837.5965145824
 20
119.9420780971
 11
832.9967571204
 21
119.6511892755
 72
1
 10
832.9967571204
 20
119.6511892755
 11
832.7155153931
 21
120.092648726
 72
1
 10
832.7155153931
 20
120.092648726
 11
836.4116712163
 21
120.4945759137
 72
1
 10
836.4116712163
 20
120.4945759137
 11
836.7956757012
 21
120.2875239847
 72
1
 10
836.7956757012
 20
120.2875239847
 11
837.1910694471
 21
120.1031500941
 97
1
330
527
 75
0
 76
1
 98
1
 10
0.0
 20
0.0
  0
LWPOLYLINE
  5
529
100
AcDbEntity
  8
ALL_DETAIL_ITEM
100
AcDbPolyline
 62
4
  6
CONTINUOUS
 90
7
 70
0
 10
838.4320421254
 20
119.6919391361
 10
838.8592974058
 20
119.603718553
 10
833.3154044714
 20
119.2359216253
 10
832.9967571204
 20
119.6511892755
 10
837.5965145824
 20
119.9420780971
 10
838.0106392252
 20
119.8048530042
 10
838.4320421254
 20
119.6919391361
  0
HATCH
  5
52A
100
AcDbEntity
  8
ALL_DETAIL_ITEM
100
AcDbHatch
 62
4
  6
CONTINUOUS
 10
0.0
 20
0.0
 30
0.0
210
0.0
220
0.0
230
1.0
  2
SOLID
 70
1
 71
1
 91
1
 92
1
 93
6
 72
1
 10
838.4320421254
 20
119.6919391361
 11
838.8592974058
 21
119.603718553
 72
1
 10
838.8592974058
 20
119.603718553
 11
833.3154044714
 21
119.2359216253
 72
1
 10
833.3154044714
 20
119.2359216253
 11
832.9967571204
 21
119.6511892755
 72
1
 10
832.9967571204
 20
119.6511892755
 11
837.5965145824
 21
119.9420780971
 72
1
 10
837.5965145824
 20
119.9420780971
 11
838.0106392252
 21
119.8048530042
 72
1
 10
838.0106392252
 20
119.8048530042
 11
838.4320421254
 21
119.6919391361
 97
1
330
529
 75
0
 76
1
 98
1
 10
0.0
 20
0.0
  0
LWPOLYLINE
  5
52B
100
AcDbEntity
  8
ALL_DETAIL_ITEM
100
AcDbPolyline
 62
4
  6
CONTINUOUS
 90
8
 70
0
 10
861.9179830129
 20
119.490815536
 10
862.5285001151
 20
119.4730544795
 10
833.3154044714
 20
119.2359216253
 10
838.8592974058
 20
119.603718553
 10
839.2909593869
 20
119.540489762
 10
839.7255674783
 20
119.5024667067
 10
840.1616511214
 20
119.4897780437
 10
861.9179830129
 20
119.490815536
  0
HATCH
  5
52C
100
AcDbEntity
  8
ALL_DETAIL_ITEM
100
AcDbHatch
 62
4
  6
CONTINUOUS
 10
0.0
 20
0.0
 30
0.0
210
0.0
220
0.0
230
1.0
  2
SOLID
 70
1
 71
1
 91
1
 92
1
 93
7
 72
1
 10
861.9179830129
 20
119.490815536
 11
862.5285001151
 21
119.4730544795
 72
1
 10
862.5285001151
 20
119.4730544795
 11
833.3154044714
 21
119.2359216253
 72
1
 10
833.3154044714
 20
119.2359216253
 11
838.8592974058
 21
119.603718553
 72
1
 10
838.8592974058
 20
119.603718553
 11
839.2909593869
 21
119.540489762
 72
1
 10
839.2909593869
 20
119.540489762
 11
839.7255674783
 21
119.5024667067
 72
1
 10
839.7255674783
 20
119.5024667067
 11
840.1616511214
 21
119.4897780437
 72
1
 10
840.1616511214
 20
119.4897780437
 11
861.9179830129
 21
119.490815536
 97
1
330
52B
 75
0
 76
1
 98
1
 10
0.0
 20
0.0
  0
LWPOLYLINE
  5
52D
100
AcDbEntity
  8
ALL_DETAIL_ITEM
100
AcDbPolyline
 62
4
  6
CONTINUOUS
 90
7
 70
0
 10
863.7412782204
 20
119.3313018939
 10
864.3394356148
 20
119.2077930768
 10
833.669032333
 20
118.8500062316
 10
833.3154044714
 20
119.2359216253
 10
862.5285001151
 20
119.4730544795
 10
863.1369514451
 20
119.4198222018
 10
863.7412782204
 20
119.3313018939
  0
HATCH
  5
52E
100
AcDbEntity
  8
ALL_DETAIL_ITEM
100
AcDbHatch
 62
4
  6
CONTINUOUS
 10
0.0
 20
0.0
 30
0.0
210
0.0
220
0.0
230
1.0
  2
SOLID
 70
1
 71
1
 91
1
 92
1
 93
6
 72
1
 10
863.7412782204
 20
119.3313018939
 11
864.3394356148
 21
119.2077930768
 72
1
 10
864.3394356148
 20
119.2077930768
 11
833.669032333
 21
118.8500062316
 72
1
 10
833.669032333
 20
118.8500062316
 11
833.3154044714
 21
119.2359216253
 72
1
 10
833.3154044714
 20
119.2359216253
 11
862.5285001151
 21
119.4730544795
 72
1
 10
862.5285001151
 20
119.4730544795
 11
863.1369514451
 21
119.4198222018
 72
1
 10
863.1369514451
 20
119.4198222018
 11
863.7412782204
 21
119.3313018939
 97
1
330
52D
 75
0
 76
1
 98
1
 10
0.0
 20
0.0
  0
LWPOLYLINE
  5
52F
100
AcDbEntity
  8
ALL_DETAIL_ITEM
100
AcDbPolyline
 62
4
  6
CONTINUOUS
 90
50
 70
0
 10
865.5091741785
 20
118.8575985293
 10
866.0767973694
 20
118.6320977323
 10
866.6303486152
 20
118.3739742839
 10
867.1679548957
 20
118.0841015817
 10
867.6094156503
 20
117.8028619024
 10
868.0246847783
 20
117.4842164784
 10
868.4106018121
 20
117.1305904078
 10
868.7642296727
 20
116.7446750143
 10
869.0828770229
 20
116.3294073644
 10
869.3641187494
 20
115.8879479143
 10
869.6058144204
 20
115.4236564569
 10
869.8061245749
 20
114.9400665513
 10
869.9635247228
 20
114.4408586304
 10
870.0768169467
 20
113.9298319904
 10
870.1451390194
 20
113.4108758755
 10
867.1223939525
 20
113.4088859341
 10
867.0657478405
 20
113.6643992539
 10
866.9870477666
 20
113.9140032142
 10
866.8868926894
 20
114.1557981669
 10
866.766044854
 20
114.3879438954
 10
866.6254239909
 20
114.6086736203
 10
866.4661003159
 20
114.8163074451
 10
866.2892863857
 20
115.0092651418
 10
866.0963278689
 20
115.186078177
 10
865.888693305
 20
115.3454008889
 10
865.6679629279
 20
115.4860207282
 10
865.2839584419
 20
115.6930726587
 10
864.8885646951
 20
115.8774465504
 10
864.4831195588
 20
116.0385185482
 10
864.068994915
 20
116.1757436419
 10
863.6475920137
 20
116.2886575106
 10
863.2203367321
 20
116.3768780942
 10
862.7886747499
 20
116.4401068856
 10
862.3540666572
 20
116.478129941
 10
861.9179830129
 20
116.490800031
 10
839.5511340209
 20
116.5075421682
 10
838.9426826926
 20
116.5607744456
 10
838.3383559189
 20
116.6492947531
 10
837.7401985261
 20
116.7728035694
 10
837.1502344656
 20
116.9308829849
 10
836.5704599655
 20
117.122998115
 10
836.0028367759
 20
117.3484989108
 10
835.4492855314
 20
117.6066223578
 10
834.911679252
 20
117.8964950585
 10
834.4702184966
 20
118.1777347371
 10
834.0549493677
 20
118.4963801609
 10
833.669032333
 20
118.8500062316
 10
864.3394356148
 20
119.2077930768
 10
864.9293996769
 20
119.0497136605
 10
865.5091741785
 20
118.8575985293
  0
HATCH
  5
530
100
AcDbEntity
  8
ALL_DETAIL_ITEM
100
AcDbHatch
 62
4
  6
CONTINUOUS
 10
0.0
 20
0.0
 30
0.0
210
0.0
220
0.0
230
1.0
  2
SOLID
 70
1
 71
1
 91
1
 92
1
 93
49
 72
1
 10
865.5091741785
 20
118.8575985293
 11
866.0767973694
 21
118.6320977323
 72
1
 10
866.0767973694
 20
118.6320977323
 11
866.6303486152
 21
118.3739742839
 72
1
 10
866.6303486152
 20
118.3739742839
 11
867.1679548957
 21
118.0841015817
 72
1
 10
867.1679548957
 20
118.0841015817
 11
867.6094156503
 21
117.8028619024
 72
1
 10
867.6094156503
 20
117.8028619024
 11
868.0246847783
 21
117.4842164784
 72
1
 10
868.0246847783
 20
117.4842164784
 11
868.4106018121
 21
117.1305904078
 72
1
 10
868.4106018121
 20
117.1305904078
 11
868.7642296727
 21
116.7446750143
 72
1
 10
868.7642296727
 20
116.7446750143
 11
869.0828770229
 21
116.3294073644
 72
1
 10
869.0828770229
 20
116.3294073644
 11
869.3641187494
 21
115.8879479143
 72
1
 10
869.3641187494
 20
115.8879479143
 11
869.6058144204
 21
115.4236564569
 72
1
 10
869.6058144204
 20
115.4236564569
 11
869.8061245749
 21
114.9400665513
 72
1
 10
869.8061245749
 20
114.9400665513
 11
869.9635247228
 21
114.4408586304
 72
1
 10
869.9635247228
 20
114.4408586304
 11
870.0768169467
 21
113.9298319904
 72
1
 10
870.0768169467
 20
113.9298319904
 11
870.1451390194
 21
113.4108758755
 72
1
 10
870.1451390194
 20
113.4108758755
 11
867.1223939525
 21
113.4088859341
 72
1
 10
867.1223939525
 20
113.4088859341
 11
867.0657478405
 21
113.6643992539
 72
1
 10
867.0657478405
 20
113.6643992539
 11
866.9870477666
 21
113.9140032142
 72
1
 10
866.9870477666
 20
113.9140032142
 11
866.8868926894
 21
114.1557981669
 72
1
 10
866.8868926894
 20
114.1557981669
 11
866.766044854
 21
114.3879438954
 72
1
 10
866.766044854
 20
114.3879438954
 11
866.6254239909
 21
114.6086736203
 72
1
 10
866.6254239909
 20
114.6086736203
 11
866.4661003159
 21
114.8163074451
 72
1
 10
866.4661003159
 20
114.8163074451
 11
866.2892863857
 21
115.0092651418
 72
1
 10
866.2892863857
 20
115.0092651418
 11
866.0963278689
 21
115.186078177
 72
1
 10
866.0963278689
 20
115.186078177
 11
865.888693305
 21
115.3454008889
 72
1
 10
865.888693305
 20
115.3454008889
 11
865.6679629279
 21
115.4860207282
 72
1
 10
865.6679629279
 20
115.4860207282
 11
865.2839584419
 21
115.6930726587
 72
1
 10
865.2839584419
 20
115.6930726587
 11
864.8885646951
 21
115.8774465504
 72
1
 10
864.8885646951
 20
115.8774465504
 11
864.4831195588
 21
116.0385185482
 72
1
 10
864.4831195588
 20
116.0385185482
 11
864.068994915
 21
116.1757436419
 72
1
 10
864.068994915
 20
116.1757436419
 11
863.6475920137
 21
116.2886575106
 72
1
 10
863.6475920137
 20
116.2886575106
 11
863.2203367321
 21
116.3768780942
 72
1
 10
863.2203367321
 20
116.3768780942
 11
862.7886747499
 21
116.4401068856
 72
1
 10
862.7886747499
 20
116.4401068856
 11
862.3540666572
 21
116.478129941
 72
1
 10
862.3540666572
 20
116.478129941
 11
861.9179830129
 21
116.490800031
 72
1
 10
861.9179830129
 20
116.490800031
 11
839.5511340209
 21
116.5075421682
 72
1
 10
839.5511340209
 20
116.5075421682
 11
838.9426826926
 21
116.5607744456
 72
1
 10
838.9426826926
 20
116.5607744456
 11
838.3383559189
 21
116.6492947531
 72
1
 10
838.3383559189
 20
116.6492947531
 11
837.7401985261
 21
116.7728035694
 72
1
 10
837.7401985261
 20
116.7728035694
 11
837.1502344656
 21
116.9308829849
 72
1
 10
837.1502344656
 20
116.9308829849
 11
836.5704599655
 21
117.122998115
 72
1
 10
836.5704599655
 20
117.122998115
 11
836.0028367759
 21
117.3484989108
 72
1
 10
836.0028367759
 20
117.3484989108
 11
835.4492855314
 21
117.6066223578
 72
1
 10
835.4492855314
 20
117.6066223578
 11
834.911679252
 21
117.8964950585
 72
1
 10
834.911679252
 20
117.8964950585
 11
834.4702184966
 21
118.1777347371
 72
1
 10
834.4702184966
 20
118.1777347371
 11
834.0549493677
 21
118.4963801609
 72
1
 10
834.0549493677
 20
118.4963801609
 11
833.669032333
 21
118.8500062316
 72
1
 10
833.669032333
 20
118.8500062316
 11
864.3394356148
 21
119.2077930768
 72
1
 10
864.3394356148
 20
119.2077930768
 11
864.9293996769
 21
119.0497136605
 72
1
 10
864.9293996769
 20
119.0497136605
 11
865.5091741785
 21
118.8575985293
 97
1
330
52F
 75
0
 76
1
 98
1
 10
0.0
 20
0.0
  0
LWPOLYLINE
  5
531
100
AcDbEntity
  8
ALL_DETAIL_ITEM
100
AcDbPolyline
 62
4
  6
CONTINUOUS
 90
30
 70
0
 10
773.3597683667
 20
116.5036486204
 10
773.1639790782
 20
116.490800031
 10
746.0081536159
 20
116.490800031
 10
743.0081536159
 20
103.2857954544
 10
746.0081536159
 20
131.1977248817
 10
746.0081536159
 20
119.490815536
 10
773.1639790782
 20
119.490815536
 10
773.3597683667
 20
119.4779832075
 10
773.5522076462
 20
119.4397046548
 10
773.7380042273
 20
119.3766352141
 10
773.9139790789
 20
119.2898540209
 10
774.0771212226
 20
119.1808459255
 10
774.224639251
 20
119.0514760868
 10
774.3540090898
 20
118.9039580583
 10
774.4630171851
 20
118.7408159147
 10
774.5497983783
 20
118.564841063
 10
774.6128678191
 20
118.379044482
 10
774.6511463717
 20
118.1866052024
 10
774.6639790797
 20
117.9908159139
 10
774.6511463717
 20
117.7950266254
 10
774.6128678191
 20
117.6025873459
 10
774.5497983783
 20
117.4167907648
 10
774.4630171851
 20
117.2408159132
 10
774.3540090898
 20
117.0776737695
 10
774.224639251
 20
116.9301557411
 10
774.0771212226
 20
116.8007859023
 10
773.9139790789
 20
116.6917778069
 10
773.7380042273
 20
116.6049966138
 10
773.5522076462
 20
116.541927173
 10
773.3597683667
 20
116.5036486204
  0
HATCH
  5
532
100
AcDbEntity
  8
ALL_DETAIL_ITEM
100
AcDbHatch
 62
4
  6
CONTINUOUS
 10
0.0
 20
0.0
 30
0.0
210
0.0
220
0.0
230
1.0
  2
SOLID
 70
1
 71
1
 91
1
 92
1
 93
29
 72
1
 10
773.3597683667
 20
116.5036486204
 11
773.1639790782
 21
116.490800031
 72
1
 10
773.1639790782
 20
116.490800031
 11
746.0081536159
 21
116.490800031
 72
1
 10
746.0081536159
 20
116.490800031
 11
743.0081536159
 21
103.2857954544
 72
1
 10
743.0081536159
 20
103.2857954544
 11
746.0081536159
 21
131.1977248817
 72
1
 10
746.0081536159
 20
131.1977248817
 11
746.0081536159
 21
119.490815536
 72
1
 10
746.0081536159
 20
119.490815536
 11
773.1639790782
 21
119.490815536
 72
1
 10
773.1639790782
 20
119.490815536
 11
773.3597683667
 21
119.4779832075
 72
1
 10
773.3597683667
 20
119.4779832075
 11
773.5522076462
 21
119.4397046548
 72
1
 10
773.5522076462
 20
119.4397046548
 11
773.7380042273
 21
119.3766352141
 72
1
 10
773.7380042273
 20
119.3766352141
 11
773.9139790789
 21
119.2898540209
 72
1
 10
773.9139790789
 20
119.2898540209
 11
774.0771212226
 21
119.1808459255
 72
1
 10
774.0771212226
 20
119.1808459255
 11
774.224639251
 21
119.0514760868
 72
1
 10
774.224639251
 20
119.0514760868
 11
774.3540090898
 21
118.9039580583
 72
1
 10
774.3540090898
 20
118.9039580583
 11
774.4630171851
 21
118.7408159147
 72
1
 10
774.4630171851
 20
118.7408159147
 11
774.5497983783
 21
118.564841063
 72
1
 10
774.5497983783
 20
118.564841063
 11
774.6128678191
 21
118.379044482
 72
1
 10
774.6128678191
 20
118.379044482
 11
774.6511463717
 21
118.1866052024
 72
1
 10
774.6511463717
 20
118.1866052024
 11
774.6639790797
 21
117.9908159139
 72
1
 10
774.6639790797
 20
117.9908159139
 11
774.6511463717
 21
117.7950266254
 72
1
 10
774.6511463717
 20
117.7950266254
 11
774.6128678191
 21
117.6025873459
 72
1
 10
774.6128678191
 20
117.6025873459
 11
774.5497983783
 21
117.4167907648
 72
1
 10
774.5497983783
 20
117.4167907648
 11
774.4630171851
 21
117.2408159132
 72
1
 10
774.4630171851
 20
117.2408159132
 11
774.3540090898
 21
117.0776737695
 72
1
 10
774.3540090898
 20
117.0776737695
 11
774.224639251
 21
116.9301557411
 72
1
 10
774.224639251
 20
116.9301557411
 11
774.0771212226
 21
116.8007859023
 72
1
 10
774.0771212226
 20
116.8007859023
 11
773.9139790789
 21
116.6917778069
 72
1
 10
773.9139790789
 20
116.6917778069
 11
773.7380042273
 21
116.6049966138
 72
1
 10
773.7380042273
 20
116.6049966138
 11
773.5522076462
 21
116.541927173
 72
1
 10
773.5522076462
 20
116.541927173
 11
773.3597683667
 21
116.5036486204
 97
1
330
531
 75
0
 76
1
 98
1
 10
0.0
 20
0.0
  0
SOLID
  5
533
100
AcDbEntity
  8
ALL_DETAIL_ITEM
100
AcDbTrace
 62
4
  6
CONTINUOUS
 10
840.1616511214
 20
116.4897780407
 11
839.5511340209
 21
116.5075421682
 12
861.9179830129
 22
116.490800031
 13
861.9179830129
 23
116.490800031
  0
LWPOLYLINE
  5
534
100
AcDbEntity
  8
ALL_DETAIL_ITEM
100
AcDbPolyline
 62
4
  6
CONTINUOUS
 90
37
 70
0
 10
867.1223939525
 20
113.4088859341
 10
870.1451390194
 20
113.4108758755
 10
870.1679709657
 20
112.8879481107
 10
870.1679709657
 20
108.3857039654
 10
870.1451390194
 20
107.8627650841
 10
870.0768169467
 20
107.3438089692
 10
869.9635247228
 20
106.8327823292
 10
869.8061245749
 20
106.3335744083
 10
869.6058144204
 20
105.8499845027
 10
869.3641187494
 20
105.3856930453
 10
869.0828770229
 20
104.9442335952
 10
868.7642296727
 20
104.5289659453
 10
861.9179830129
 20
104.7828183953
 10
862.3540666572
 20
104.7955110193
 10
862.7886747499
 20
104.8335340748
 10
863.2203367321
 20
104.8967628662
 10
863.6475920137
 20
104.9849834497
 10
864.068994915
 20
105.0978973185
 10
864.4831195588
 20
105.2351224122
 10
864.8885646951
 20
105.3961944099
 10
865.2839584419
 20
105.5805683016
 10
865.6679629278
 20
105.7876202317
 10
865.888693305
 20
105.9282400707
 10
866.0963278689
 20
106.0875627826
 10
866.2892863857
 20
106.2643758178
 10
866.4661003159
 20
106.4573335144
 10
866.6254239909
 20
106.6649673393
 10
866.766044854
 20
106.8856970642
 10
866.8868926894
 20
107.1178427927
 10
866.9870477666
 20
107.3596377454
 10
867.0657478405
 20
107.6092417057
 10
867.1223939525
 20
107.8647550255
 10
867.1565549888
 20
108.1242330828
 10
867.1679709619
 20
108.3857039654
 10
867.1679709619
 20
112.8879481107
 10
867.1565549888
 20
113.1494078768
 10
867.1223939525
 20
113.4088859341
  0
HATCH
  5
535
100
AcDbEntity
  8
ALL_DETAIL_ITEM
100
AcDbHatch
 62
4
  6
CONTINUOUS
 10
0.0
 20
0.0
 30
0.0
210
0.0
220
0.0
230
1.0
  2
SOLID
 70
1
 71
1
 91
1
 92
1
 93
36
 72
1
 10
867.1223939525
 20
113.4088859341
 11
870.1451390194
 21
113.4108758755
 72
1
 10
870.1451390194
 20
113.4108758755
 11
870.1679709657
 21
112.8879481107
 72
1
 10
870.1679709657
 20
112.8879481107
 11
870.1679709657
 21
108.3857039654
 72
1
 10
870.1679709657
 20
108.3857039654
 11
870.1451390194
 21
107.8627650841
 72
1
 10
870.1451390194
 20
107.8627650841
 11
870.0768169467
 21
107.3438089692
 72
1
 10
870.0768169467
 20
107.3438089692
 11
869.9635247228
 21
106.8327823292
 72
1
 10
869.9635247228
 20
106.8327823292
 11
869.8061245749
 21
106.3335744083
 72
1
 10
869.8061245749
 20
106.3335744083
 11
869.6058144204
 21
105.8499845027
 72
1
 10
869.6058144204
 20
105.8499845027
 11
869.3641187494
 21
105.3856930453
 72
1
 10
869.3641187494
 20
105.3856930453
 11
869.0828770229
 21
104.9442335952
 72
1
 10
869.0828770229
 20
104.9442335952
 11
868.7642296727
 21
104.5289659453
 72
1
 10
868.7642296727
 20
104.5289659453
 11
861.9179830129
 21
104.7828183953
 72
1
 10
861.9179830129
 20
104.7828183953
 11
862.3540666572
 21
104.7955110193
 72
1
 10
862.3540666572
 20
104.7955110193
 11
862.7886747499
 21
104.8335340748
 72
1
 10
862.7886747499
 20
104.8335340748
 11
863.2203367321
 21
104.8967628662
 72
1
 10
863.2203367321
 20
104.8967628662
 11
863.6475920137
 21
104.9849834497
 72
1
 10
863.6475920137
 20
104.9849834497
 11
864.068994915
 21
105.0978973185
 72
1
 10
864.068994915
 20
105.0978973185
 11
864.4831195588
 21
105.2351224122
 72
1
 10
864.4831195588
 20
105.2351224122
 11
864.8885646951
 21
105.3961944099
 72
1
 10
864.8885646951
 20
105.3961944099
 11
865.2839584419
 21
105.5805683016
 72
1
 10
865.2839584419
 20
105.5805683016
 11
865.6679629278
 21
105.7876202317
 72
1
 10
865.6679629278
 20
105.7876202317
 11
865.888693305
 21
105.9282400707
 72
1
 10
865.888693305
 20
105.9282400707
 11
866.0963278689
 21
106.0875627826
 72
1
 10
866.0963278689
 20
106.0875627826
 11
866.2892863857
 21
106.2643758178
 72
1
 10
866.2892863857
 20
106.2643758178
 11
866.4661003159
 21
106.4573335144
 72
1
 10
866.4661003159
 20
106.4573335144
 11
866.6254239909
 21
106.6649673393
 72
1
 10
866.6254239909
 20
106.6649673393
 11
866.766044854
 21
106.8856970642
 72
1
 10
866.766044854
 20
106.8856970642
 11
866.8868926894
 21
107.1178427927
 72
1
 10
866.8868926894
 20
107.1178427927
 11
866.9870477666
 21
107.3596377454
 72
1
 10
866.9870477666
 20
107.3596377454
 11
867.0657478405
 21
107.6092417057
 72
1
 10
867.0657478405
 20
107.6092417057
 11
867.1223939525
 21
107.8647550255
 72
1
 10
867.1223939525
 20
107.8647550255
 11
867.1565549888
 21
108.1242330828
 72
1
 10
867.1565549888
 20
108.1242330828
 11
867.1679709619
 21
108.3857039654
 72
1
 10
867.1679709619
 20
108.3857039654
 11
867.1679709619
 21
112.8879481107
 72
1
 10
867.1679709619
 20
112.8879481107
 11
867.1565549888
 21
113.1494078768
 72
1
 10
867.1565549888
 20
113.1494078768
 11
867.1223939525
 21
113.4088859341
 97
1
330
534
 75
0
 76
1
 98
1
 10
0.0
 20
0.0
  0
LWPOLYLINE
  5
536
100
AcDbEntity
  8
ALL_DETAIL_ITEM
100
AcDbPolyline
 62
4
  6
CONTINUOUS
 90
6
 70
0
 10
787.7377516581
 20
108.3963373066
 10
787.7491604111
 20
108.1350128522
 10
784.7605691613
 20
107.8736547479
 10
784.7377516557
 20
108.396270007
 10
787.7371463787
 20
133.155500198
 10
787.7377516581
 20
108.3963373066
  0
HATCH
  5
537
100
AcDbEntity
  8
ALL_DETAIL_ITEM
100
AcDbHatch
 62
4
  6
CONTINUOUS
 10
0.0
 20
0.0
 30
0.0
210
0.0
220
0.0
230
1.0
  2
SOLID
 70
1
 71
1
 91
1
 92
1
 93
5
 72
1
 10
787.7377516581
 20
108.3963373066
 11
787.7491604111
 21
108.1350128522
 72
1
 10
787.7491604111
 20
108.1350128522
 11
784.7605691613
 21
107.8736547479
 72
1
 10
784.7605691613
 20
107.8736547479
 11
784.7377516557
 21
108.396270007
 72
1
 10
784.7377516557
 20
108.396270007
 11
787.7371463787
 21
133.155500198
 72
1
 10
787.7371463787
 20
133.155500198
 11
787.7377516581
 21
108.3963373066
 97
1
330
536
 75
0
 76
1
 98
1
 10
0.0
 20
0.0
  0
LWPOLYLINE
  5
538
100
AcDbEntity
  8
ALL_DETAIL_ITEM
100
AcDbPolyline
 62
4
  6
CONTINUOUS
 90
6
 70
0
 10
787.7832871693
 20
107.8757073866
 10
787.8398725155
 20
107.6203389492
 10
784.8288226777
 20
107.3549765171
 10
784.7605691613
 20
107.8736547479
 10
787.7491604111
 20
108.1350128522
 10
787.7832871693
 20
107.8757073866
  0
HATCH
  5
539
100
AcDbEntity
  8
ALL_DETAIL_ITEM
100
AcDbHatch
 62
4
  6
CONTINUOUS
 10
0.0
 20
0.0
 30
0.0
210
0.0
220
0.0
230
1.0
  2
SOLID
 70
1
 71
1
 91
1
 92
1
 93
5
 72
1
 10
787.7832871693
 20
107.8757073866
 11
787.8398725155
 21
107.6203389492
 72
1
 10
787.8398725155
 20
107.6203389492
 11
784.8288226777
 21
107.3549765171
 72
1
 10
784.8288226777
 20
107.3549765171
 11
784.7605691613
 21
107.8736547479
 72
1
 10
784.7605691613
 20
107.8736547479
 11
787.7491604111
 21
108.1350128522
 72
1
 10
787.7491604111
 20
108.1350128522
 11
787.7832871693
 21
107.8757073866
 97
1
330
538
 75
0
 76
1
 98
1
 10
0.0
 20
0.0
  0
LWPOLYLINE
  5
53A
100
AcDbEntity
  8
ALL_DETAIL_ITEM
100
AcDbPolyline
 62
4
  6
CONTINUOUS
 90
6
 70
0
 10
787.9184863118
 20
107.3708592292
 10
788.0185309695
 20
107.129186266
 10
784.9419933702
 20
106.8442732921
 10
784.8288226777
 20
107.3549765171
 10
787.8398725155
 20
107.6203389492
 10
787.9184863118
 20
107.3708592292
  0
HATCH
  5
53B
100
AcDbEntity
  8
ALL_DETAIL_ITEM
100
AcDbHatch
 62
4
  6
CONTINUOUS
 10
0.0
 20
0.0
 30
0.0
210
0.0
220
0.0
230
1.0
  2
SOLID
 70
1
 71
1
 91
1
 92
1
 93
5
 72
1
 10
787.9184863118
 20
107.3708592292
 11
788.0185309695
 21
107.129186266
 72
1
 10
788.0185309695
 20
107.129186266
 11
784.9419933702
 21
106.8442732921
 72
1
 10
784.9419933702
 20
106.8442732921
 11
784.8288226777
 21
107.3549765171
 72
1
 10
784.8288226777
 20
107.3549765171
 11
787.8398725155
 21
107.6203389492
 72
1
 10
787.8398725155
 20
107.6203389492
 11
787.9184863118
 21
107.3708592292
 97
1
330
53A
 75
0
 76
1
 98
1
 10
0.0
 20
0.0
  0
LWPOLYLINE
  5
53C
100
AcDbEntity
  8
ALL_DETAIL_ITEM
100
AcDbPolyline
 62
4
  6
CONTINUOUS
 90
6
 70
0
 10
788.1392459914
 20
106.8971707995
 10
788.2797137531
 20
106.67652897
 10
785.0992209629
 20
106.3453138521
 10
784.9419933702
 20
106.8442732921
 10
788.0185309695
 20
107.129186266
 10
788.1392459914
 20
106.8971707995
  0
HATCH
  5
53D
100
AcDbEntity
  8
ALL_DETAIL_ITEM
100
AcDbHatch
 62
4
  6
CONTINUOUS
 10
0.0
 20
0.0
 30
0.0
210
0.0
220
0.0
230
1.0
  2
SOLID
 70
1
 71
1
 91
1
 92
1
 93
5
 72
1
 10
788.1392459914
 20
106.8971707995
 11
788.2797137531
 21
106.67652897
 72
1
 10
788.2797137531
 20
106.67652897
 11
785.0992209629
 21
106.3453138521
 72
1
 10
785.0992209629
 20
106.3453138521
 11
784.9419933702
 21
106.8442732921
 72
1
 10
784.9419933702
 20
106.8442732921
 11
788.0185309695
 21
107.129186266
 72
1
 10
788.0185309695
 20
107.129186266
 11
788.1392459914
 21
106.8971707995
 97
1
330
53C
 75
0
 76
1
 98
1
 10
0.0
 20
0.0
  0
LWPOLYLINE
  5
53E
100
AcDbEntity
  8
ALL_DETAIL_ITEM
100
AcDbPolyline
 62
4
  6
CONTINUOUS
 90
6
 70
0
 10
788.438866478
 20
106.4689432683
 10
788.6154943546
 20
106.2760288854
 10
785.2993102784
 20
105.8619679258
 10
785.0992209629
 20
106.3453138521
 10
788.2797137531
 20
106.67652897
 10
788.438866478
 20
106.4689432683
  0
HATCH
  5
53F
100
AcDbEntity
  8
ALL_DETAIL_ITEM
100
AcDbHatch
 62
4
  6
CONTINUOUS
 10
0.0
 20
0.0
 30
0.0
210
0.0
220
0.0
230
1.0
  2
SOLID
 70
1
 71
1
 91
1
 92
1
 93
5
 72
1
 10
788.438866478
 20
106.4689432683
 11
788.6154943546
 21
106.2760288854
 72
1
 10
788.6154943546
 20
106.2760288854
 11
785.2993102784
 21
105.8619679258
 72
1
 10
785.2993102784
 20
105.8619679258
 11
785.0992209629
 21
106.3453138521
 72
1
 10
785.0992209629
 20
106.3453138521
 11
788.2797137531
 21
106.67652897
 72
1
 10
788.2797137531
 20
106.67652897
 11
788.438866478
 21
106.4689432683
 97
1
330
53E
 75
0
 76
1
 98
1
 10
0.0
 20
0.0
  0
LWPOLYLINE
  5
540
100
AcDbEntity
  8
ALL_DETAIL_ITEM
100
AcDbPolyline
 62
4
  6
CONTINUOUS
 90
7
 70
0
 10
789.0156823292
 20
105.9399008947
 10
789.2362003678
 20
105.7992446728
 10
785.5407403223
 20
105.3979033429
 10
785.2993102784
 20
105.8619679258
 10
788.6154943546
 20
106.2760288854
 10
788.8082547326
 20
106.0992327634
 10
789.0156823292
 20
105.9399008947
  0
HATCH
  5
541
100
AcDbEntity
  8
ALL_DETAIL_ITEM
100
AcDbHatch
 62
4
  6
CONTINUOUS
 10
0.0
 20
0.0
 30
0.0
210
0.0
220
0.0
230
1.0
  2
SOLID
 70
1
 71
1
 91
1
 92
1
 93
6
 72
1
 10
789.0156823292
 20
105.9399008947
 11
789.2362003678
 21
105.7992446728
 72
1
 10
789.2362003678
 20
105.7992446728
 11
785.5407403223
 21
105.3979033429
 72
1
 10
785.5407403223
 20
105.3979033429
 11
785.2993102784
 21
105.8619679258
 72
1
 10
785.2993102784
 20
105.8619679258
 11
788.6154943546
 21
106.2760288854
 72
1
 10
788.6154943546
 20
106.2760288854
 11
788.8082547326
 21
106.0992327634
 72
1
 10
788.8082547326
 20
106.0992327634
 11
789.0156823292
 21
105.9399008947
 97
1
330
540
 75
0
 76
1
 98
1
 10
0.0
 20
0.0
  0
LWPOLYLINE
  5
542
100
AcDbEntity
  8
ALL_DETAIL_ITEM
100
AcDbPolyline
 62
4
  6
CONTINUOUS
 90
10
 70
0
 10
734.339830607
 20
132.4411482995
 10
714.9249574639
 20
105.7070922602
 10
734.4213753477
 20
133.8189399281
 10
734.4917021073
 20
133.6266648917
 10
734.5351932066
 20
133.4266167482
 10
734.5510384887
 20
133.2224969774
 10
734.538942786
 20
133.0181416578
 10
734.4991314186
 20
132.8173195687
 10
734.4323459969
 20
132.6237994891
 10
734.339830607
 20
132.4411482995
  0
HATCH
  5
543
100
AcDbEntity
  8
ALL_DETAIL_ITEM
100
AcDbHatch
 62
4
  6
CONTINUOUS
 10
0.0
 20
0.0
 30
0.0
210
0.0
220
0.0
230
1.0
  2
SOLID
 70
1
 71
1
 91
1
 92
1
 93
9
 72
1
 10
734.339830607
 20
132.4411482995
 11
714.9249574639
 21
105.7070922602
 72
1
 10
714.9249574639
 20
105.7070922602
 11
734.4213753477
 21
133.8189399281
 72
1
 10
734.4213753477
 20
133.8189399281
 11
734.4917021073
 21
133.6266648917
 72
1
 10
734.4917021073
 20
133.6266648917
 11
734.5351932066
 21
133.4266167482
 72
1
 10
734.5351932066
 20
133.4266167482
 11
734.5510384887
 21
133.2224969774
 72
1
 10
734.5510384887
 20
133.2224969774
 11
734.538942786
 21
133.0181416578
 72
1
 10
734.538942786
 20
133.0181416578
 11
734.4991314186
 21
132.8173195687
 72
1
 10
734.4991314186
 20
132.8173195687
 11
734.4323459969
 21
132.6237994891
 72
1
 10
734.4323459969
 20
132.6237994891
 11
734.339830607
 21
132.4411482995
 97
1
330
542
 75
0
 76
1
 98
1
 10
0.0
 20
0.0
  0
LWPOLYLINE
  5
544
100
AcDbEntity
  8
ALL_DETAIL_ITEM
100
AcDbPolyline
 62
4
  6
CONTINUOUS
 90
7
 70
0
 10
790.0157989755
 20
105.4071906915
 10
790.4213875996
 20
105.245839834
 10
785.8216758458
 20
104.9566196839
 10
785.5407403223
 20
105.3979033429
 10
789.2362003678
 20
105.7992446728
 10
789.6202894541
 20
105.59186087
 10
790.0157989755
 20
105.4071906915
  0
HATCH
  5
545
100
AcDbEntity
  8
ALL_DETAIL_ITEM
100
AcDbHatch
 62
4
  6
CONTINUOUS
 10
0.0
 20
0.0
 30
0.0
210
0.0
220
0.0
230
1.0
  2
SOLID
 70
1
 71
1
 91
1
 92
1
 93
6
 72
1
 10
790.0157989755
 20
105.4071906915
 11
790.4213875996
 21
105.245839834
 72
1
 10
790.4213875996
 20
105.245839834
 11
785.8216758458
 21
104.9566196839
 72
1
 10
785.8216758458
 20
104.9566196839
 11
785.5407403223
 21
105.3979033429
 72
1
 10
785.5407403223
 20
105.3979033429
 11
789.2362003678
 21
105.7992446728
 72
1
 10
789.2362003678
 20
105.7992446728
 11
789.6202894541
 21
105.59186087
 72
1
 10
789.6202894541
 20
105.59186087
 11
790.0157989755
 21
105.4071906915
 97
1
330
544
 75
0
 76
1
 98
1
 10
0.0
 20
0.0
  0
LWPOLYLINE
  5
546
100
AcDbEntity
  8
ALL_DETAIL_ITEM
100
AcDbPolyline
 62
4
  6
CONTINUOUS
 90
7
 70
0
 10
791.2572705783
 20
104.9953169698
 10
791.6847301158
 20
104.9069525586
 10
786.1399812959
 20
104.5414819303
 10
785.8216758458
 20
104.9566196839
 10
790.4213875996
 20
105.245839834
 10
790.8356798113
 20
105.1084139942
 10
791.2572705783
 20
104.9953169698
  0
HATCH
  5
547
100
AcDbEntity
  8
ALL_DETAIL_ITEM
100
AcDbHatch
 62
4
  6
CONTINUOUS
 10
0.0
 20
0.0
 30
0.0
210
0.0
220
0.0
230
1.0
  2
SOLID
 70
1
 71
1
 91
1
 92
1
 93
6
 72
1
 10
791.2572705783
 20
104.9953169698
 11
791.6847301158
 21
104.9069525586
 72
1
 10
791.6847301158
 20
104.9069525586
 11
786.1399812959
 21
104.5414819303
 72
1
 10
786.1399812959
 20
104.5414819303
 11
785.8216758458
 21
104.9566196839
 72
1
 10
785.8216758458
 20
104.9566196839
 11
790.4213875996
 21
105.245839834
 72
1
 10
790.4213875996
 20
105.245839834
 11
790.8356798113
 21
105.1084139942
 72
1
 10
790.8356798113
 20
105.1084139942
 11
791.2572705783
 21
104.9953169698
 97
1
330
546
 75
0
 76
1
 98
1
 10
0.0
 20
0.0
  0
LWPOLYLINE
  5
548
100
AcDbEntity
  8
ALL_DETAIL_ITEM
100
AcDbPolyline
 62
4
  6
CONTINUOUS
 90
10
 70
0
 10
816.5418338402
 20
105.1084139942
 10
821.8367733291
 20
105.3979033429
 10
821.5558378056
 20
104.9566196839
 10
821.2375323555
 20
104.5414819303
 10
814.3897591482
 20
104.79281239
 10
814.8260718884
 20
104.8055320197
 10
815.2609049158
 20
104.8435899591
 10
815.6927835358
 20
104.9069525586
 10
816.1202430733
 20
104.9953169698
 10
816.5418338402
 20
105.1084139942
  0
HATCH
  5
549
100
AcDbEntity
  8
ALL_DETAIL_ITEM
100
AcDbHatch
 62
4
  6
CONTINUOUS
 10
0.0
 20
0.0
 30
0.0
210
0.0
220
0.0
230
1.0
  2
SOLID
 70
1
 71
1
 91
1
 92
1
 93
9
 72
1
 10
816.5418338402
 20
105.1084139942
 11
821.8367733291
 21
105.3979033429
 72
1
 10
821.8367733291
 20
105.3979033429
 11
821.5558378056
 21
104.9566196839
 72
1
 10
821.5558378056
 20
104.9566196839
 11
821.2375323555
 21
104.5414819303
 72
1
 10
821.2375323555
 20
104.5414819303
 11
814.3897591482
 21
104.79281239
 72
1
 10
814.3897591482
 20
104.79281239
 11
814.8260718884
 21
104.8055320197
 72
1
 10
814.8260718884
 20
104.8055320197
 11
815.2609049158
 21
104.8435899591
 72
1
 10
815.2609049158
 20
104.8435899591
 11
815.6927835358
 21
104.9069525586
 72
1
 10
815.6927835358
 20
104.9069525586
 11
816.1202430733
 21
104.9953169698
 72
1
 10
816.1202430733
 20
104.9953169698
 11
816.5418338402
 21
105.1084139942
 97
1
330
548
 75
0
 76
1
 98
1
 10
0.0
 20
0.0
  0
LWPOLYLINE
  5
54A
100
AcDbEntity
  8
ALL_DETAIL_ITEM
100
AcDbPolyline
 62
4
  6
CONTINUOUS
 90
6
 70
0
 10
774.6043530863
 20
104.7886133771
 10
774.8001435755
 20
104.775799001
 10
743.0081536159
 20
103.2857954544
 10
746.0081536159
 20
116.490800031
 10
746.0081536159
 20
104.7859359077
 10
774.6043530863
 20
104.7886133771
  0
HATCH
  5
54B
100
AcDbEntity
  8
ALL_DETAIL_ITEM
100
AcDbHatch
 62
4
  6
CONTINUOUS
 10
0.0
 20
0.0
 30
0.0
210
0.0
220
0.0
230
1.0
  2
SOLID
 70
1
 71
1
 91
1
 92
1
 93
5
 72
1
 10
774.6043530863
 20
104.7886133771
 11
774.8001435755
 21
104.775799001
 72
1
 10
774.8001435755
 20
104.775799001
 11
743.0081536159
 21
103.2857954544
 72
1
 10
743.0081536159
 20
103.2857954544
 11
746.0081536159
 21
116.490800031
 72
1
 10
746.0081536159
 20
116.490800031
 11
746.0081536159
 21
104.7859359077
 72
1
 10
746.0081536159
 20
104.7859359077
 11
774.6043530863
 21
104.7886133771
 97
1
330
54A
 75
0
 76
1
 98
1
 10
0.0
 20
0.0
  0
LWPOLYLINE
  5
54C
100
AcDbEntity
  8
ALL_DETAIL_ITEM
100
AcDbPolyline
 62
4
  6
CONTINUOUS
 90
41
 70
0
 10
833.6053944134
 20
104.7699896482
 10
833.8011837019
 20
104.7828183953
 10
861.9179830129
 20
104.7828183953
 10
868.7642296727
 20
104.5289659453
 10
868.4106018121
 20
104.1430505518
 10
868.0246847783
 20
103.7894244811
 10
867.6094156503
 20
103.4707790572
 10
867.1679548957
 20
103.1895393784
 10
866.6303486152
 20
102.8996666765
 10
866.0767973694
 20
102.641543228
 10
865.5091741785
 20
102.416042431
 10
864.9293996769
 20
102.2239272998
 10
864.3394356148
 20
102.0658478835
 10
863.7412782205
 20
101.9423390665
 10
863.1369514451
 20
101.8538187585
 10
862.5285001151
 20
101.8005864808
 10
861.9179830129
 20
101.7828365401
 10
833.8011837019
 20
101.7828365401
 10
833.6053944134
 20
101.7956550611
 10
833.4129551339
 20
101.8339336138
 10
833.2271585528
 20
101.8970030545
 10
833.0511837012
 20
101.9837842477
 10
832.8880415575
 20
102.092792343
 10
832.7405235291
 20
102.2221621818
 10
832.6111536903
 20
102.3696802102
 10
832.5021455949
 20
102.5328223539
 10
832.4153644018
 20
102.7087972055
 10
832.352294961
 20
102.8945937866
 10
832.3140164084
 20
103.0870330661
 10
832.3011837004
 20
103.2828223547
 10
832.3140164084
 20
103.4786116432
 10
832.352294961
 20
103.6710509227
 10
832.4153644018
 20
103.8568475038
 10
832.5021455949
 20
104.0328223554
 10
832.6111536903
 20
104.1959644991
 10
832.7405235291
 20
104.3434825275
 10
832.8880415575
 20
104.4728523663
 10
833.0511837012
 20
104.5818604616
 10
833.2271585528
 20
104.6686416548
 10
833.4129551339
 20
104.7317110955
 10
833.6053944134
 20
104.7699896482
  0
HATCH
  5
54D
100
AcDbEntity
  8
ALL_DETAIL_ITEM
100
AcDbHatch
 62
4
  6
CONTINUOUS
 10
0.0
 20
0.0
 30
0.0
210
0.0
220
0.0
230
1.0
  2
SOLID
 70
1
 71
1
 91
1
 92
1
 93
40
 72
1
 10
833.6053944134
 20
104.7699896482
 11
833.8011837019
 21
104.7828183953
 72
1
 10
833.8011837019
 20
104.7828183953
 11
861.9179830129
 21
104.7828183953
 72
1
 10
861.9179830129
 20
104.7828183953
 11
868.7642296727
 21
104.5289659453
 72
1
 10
868.7642296727
 20
104.5289659453
 11
868.4106018121
 21
104.1430505518
 72
1
 10
868.4106018121
 20
104.1430505518
 11
868.0246847783
 21
103.7894244811
 72
1
 10
868.0246847783
 20
103.7894244811
 11
867.6094156503
 21
103.4707790572
 72
1
 10
867.6094156503
 20
103.4707790572
 11
867.1679548957
 21
103.1895393784
 72
1
 10
867.1679548957
 20
103.1895393784
 11
866.6303486152
 21
102.8996666765
 72
1
 10
866.6303486152
 20
102.8996666765
 11
866.0767973694
 21
102.641543228
 72
1
 10
866.0767973694
 20
102.641543228
 11
865.5091741785
 21
102.416042431
 72
1
 10
865.5091741785
 20
102.416042431
 11
864.9293996769
 21
102.2239272998
 72
1
 10
864.9293996769
 20
102.2239272998
 11
864.3394356148
 21
102.0658478835
 72
1
 10
864.3394356148
 20
102.0658478835
 11
863.7412782205
 21
101.9423390665
 72
1
 10
863.7412782205
 20
101.9423390665
 11
863.1369514451
 21
101.8538187585
 72
1
 10
863.1369514451
 20
101.8538187585
 11
862.5285001151
 21
101.8005864808
 72
1
 10
862.5285001151
 20
101.8005864808
 11
861.9179830129
 21
101.7828365401
 72
1
 10
861.9179830129
 20
101.7828365401
 11
833.8011837019
 21
101.7828365401
 72
1
 10
833.8011837019
 20
101.7828365401
 11
833.6053944134
 21
101.7956550611
 72
1
 10
833.6053944134
 20
101.7956550611
 11
833.4129551339
 21
101.8339336138
 72
1
 10
833.4129551339
 20
101.8339336138
 11
833.2271585528
 21
101.8970030545
 72
1
 10
833.2271585528
 20
101.8970030545
 11
833.0511837012
 21
101.9837842477
 72
1
 10
833.0511837012
 20
101.9837842477
 11
832.8880415575
 21
102.092792343
 72
1
 10
832.8880415575
 20
102.092792343
 11
832.7405235291
 21
102.2221621818
 72
1
 10
832.7405235291
 20
102.2221621818
 11
832.6111536903
 21
102.3696802102
 72
1
 10
832.6111536903
 20
102.3696802102
 11
832.5021455949
 21
102.5328223539
 72
1
 10
832.5021455949
 20
102.5328223539
 11
832.4153644018
 21
102.7087972055
 72
1
 10
832.4153644018
 20
102.7087972055
 11
832.352294961
 21
102.8945937866
 72
1
 10
832.352294961
 20
102.8945937866
 11
832.3140164084
 21
103.0870330661
 72
1
 10
832.3140164084
 20
103.0870330661
 11
832.3011837004
 21
103.2828223547
 72
1
 10
832.3011837004
 20
103.2828223547
 11
832.3140164084
 21
103.4786116432
 72
1
 10
832.3140164084
 20
103.4786116432
 11
832.352294961
 21
103.6710509227
 72
1
 10
832.352294961
 20
103.6710509227
 11
832.4153644018
 21
103.8568475038
 72
1
 10
832.4153644018
 20
103.8568475038
 11
832.5021455949
 21
104.0328223554
 72
1
 10
832.5021455949
 20
104.0328223554
 11
832.6111536903
 21
104.1959644991
 72
1
 10
832.6111536903
 20
104.1959644991
 11
832.7405235291
 21
104.3434825275
 72
1
 10
832.7405235291
 20
104.3434825275
 11
832.8880415575
 21
104.4728523663
 72
1
 10
832.8880415575
 20
104.4728523663
 11
833.0511837012
 21
104.5818604616
 72
1
 10
833.0511837012
 20
104.5818604616
 11
833.2271585528
 21
104.6686416548
 72
1
 10
833.2271585528
 20
104.6686416548
 11
833.4129551339
 21
104.7317110955
 72
1
 10
833.4129551339
 20
104.7317110955
 11
833.6053944134
 21
104.7699896482
 97
1
330
54C
 75
0
 76
1
 98
1
 10
0.0
 20
0.0
  0
LWPOLYLINE
  5
54E
100
AcDbEntity
  8
ALL_DETAIL_ITEM
100
AcDbPolyline
 62
4
  6
CONTINUOUS
 90
34
 70
0
 10
814.3897591482
 20
104.79281239
 10
821.2375323555
 20
104.5414819303
 10
820.884276602
 20
104.1556531645
 10
820.4987558458
 20
103.8020609205
 10
820.0839006525
 20
103.4833635334
 10
819.6428645752
 20
103.2020510895
 10
819.105044677
 20
102.9116868457
 10
818.5512333394
 20
102.6530880262
 10
817.9833087606
 20
102.4271968257
 10
817.4031970024
 20
102.2347198904
 10
816.8128654582
 20
102.0763638664
 10
816.214316181
 20
101.9526335008
 10
815.6095790933
 20
101.8639325915
 10
815.0007051031
 20
101.8105976365
 10
814.3897591482
 20
101.792796885
 10
792.9877545034
 20
101.792796885
 10
792.3768085485
 20
101.8105976365
 10
791.7679345583
 20
101.8639325915
 10
791.1631974706
 20
101.9526335008
 10
790.5646481934
 20
102.0763638664
 10
789.9743166492
 20
102.2347198904
 10
789.394204891
 20
102.4271968257
 10
788.8262803122
 20
102.6530880262
 10
788.2724689746
 20
102.9116868457
 10
787.7346490762
 20
103.2020510895
 10
787.2936129991
 20
103.4833635334
 10
786.8787578057
 20
103.8020609205
 10
786.4932370494
 20
104.1556531645
 10
786.1399812959
 20
104.5414819303
 10
791.6847301158
 20
104.9069525586
 10
792.1166087357
 20
104.8435899591
 10
792.5514417631
 20
104.8055320197
 10
792.9877545034
 20
104.79281239
 10
814.3897591482
 20
104.79281239
  0
HATCH
  5
54F
100
AcDbEntity
  8
ALL_DETAIL_ITEM
100
AcDbHatch
 62
4
  6
CONTINUOUS
 10
0.0
 20
0.0
 30
0.0
210
0.0
220
0.0
230
1.0
  2
SOLID
 70
1
 71
1
 91
1
 92
1
 93
33
 72
1
 10
814.3897591482
 20
104.79281239
 11
821.2375323555
 21
104.5414819303
 72
1
 10
821.2375323555
 20
104.5414819303
 11
820.884276602
 21
104.1556531645
 72
1
 10
820.884276602
 20
104.1556531645
 11
820.4987558458
 21
103.8020609205
 72
1
 10
820.4987558458
 20
103.8020609205
 11
820.0839006525
 21
103.4833635334
 72
1
 10
820.0839006525
 20
103.4833635334
 11
819.6428645752
 21
103.2020510895
 72
1
 10
819.6428645752
 20
103.2020510895
 11
819.105044677
 21
102.9116868457
 72
1
 10
819.105044677
 20
102.9116868457
 11
818.5512333394
 21
102.6530880262
 72
1
 10
818.5512333394
 20
102.6530880262
 11
817.9833087606
 21
102.4271968257
 72
1
 10
817.9833087606
 20
102.4271968257
 11
817.4031970024
 21
102.2347198904
 72
1
 10
817.4031970024
 20
102.2347198904
 11
816.8128654582
 21
102.0763638664
 72
1
 10
816.8128654582
 20
102.0763638664
 11
816.214316181
 21
101.9526335008
 72
1
 10
816.214316181
 20
101.9526335008
 11
815.6095790933
 21
101.8639325915
 72
1
 10
815.6095790933
 20
101.8639325915
 11
815.0007051031
 21
101.8105976365
 72
1
 10
815.0007051031
 20
101.8105976365
 11
814.3897591482
 21
101.792796885
 72
1
 10
814.3897591482
 20
101.792796885
 11
792.9877545034
 21
101.792796885
 72
1
 10
792.9877545034
 20
101.792796885
 11
792.3768085485
 21
101.8105976365
 72
1
 10
792.3768085485
 20
101.8105976365
 11
791.7679345583
 21
101.8639325915
 72
1
 10
791.7679345583
 20
101.8639325915
 11
791.1631974706
 21
101.9526335008
 72
1
 10
791.1631974706
 20
101.9526335008
 11
790.5646481934
 21
102.0763638664
 72
1
 10
790.5646481934
 20
102.0763638664
 11
789.9743166492
 21
102.2347198904
 72
1
 10
789.9743166492
 20
102.2347198904
 11
789.394204891
 21
102.4271968257
 72
1
 10
789.394204891
 20
102.4271968257
 11
788.8262803122
 21
102.6530880262
 72
1
 10
788.8262803122
 20
102.6530880262
 11
788.2724689746
 21
102.9116868457
 72
1
 10
788.2724689746
 20
102.9116868457
 11
787.7346490762
 21
103.2020510895
 72
1
 10
787.7346490762
 20
103.2020510895
 11
787.2936129991
 21
103.4833635334
 72
1
 10
787.2936129991
 20
103.4833635334
 11
786.8787578057
 21
103.8020609205
 72
1
 10
786.8787578057
 20
103.8020609205
 11
786.4932370494
 21
104.1556531645
 72
1
 10
786.4932370494
 20
104.1556531645
 11
786.1399812959
 21
104.5414819303
 72
1
 10
786.1399812959
 20
104.5414819303
 11
791.6847301158
 21
104.9069525586
 72
1
 10
791.6847301158
 20
104.9069525586
 11
792.1166087357
 21
104.8435899591
 72
1
 10
792.1166087357
 20
104.8435899591
 11
792.5514417631
 21
104.8055320197
 72
1
 10
792.5514417631
 20
104.8055320197
 11
792.9877545034
 21
104.79281239
 72
1
 10
792.9877545034
 20
104.79281239
 11
814.3897591482
 21
104.79281239
 97
1
330
54E
 75
0
 76
1
 98
1
 10
0.0
 20
0.0
  0
LWPOLYLINE
  5
550
100
AcDbEntity
  8
ALL_DETAIL_ITEM
100
AcDbPolyline
 62
4
  6
CONTINUOUS
 90
29
 70
0
 10
640.2799951887
 20
130.4808455402
 10
623.4938177454
 20
102.1222958623
 10
623.3777545486
 20
101.9536429953
 10
623.2398079643
 20
101.802387082
 10
623.0825476763
 20
101.6712874071
 10
622.9089031464
 20
101.5628340571
 10
622.7221090435
 20
101.4790460206
 10
622.5256449883
 20
101.421471189
 10
622.3231707345
 20
101.3911863566
 10
622.1184579943
 20
101.38876357
 10
621.9153201787
 20
101.4142028292
 10
621.7175413609
 20
101.4671003366
 10
621.5288057861
 20
101.5464129479
 10
621.3526292409
 20
101.6506937211
 10
621.1922935609
 20
101.7780246167
 10
621.0507854967
 20
101.9259491985
 10
620.9307410756
 20
102.091809131
 10
620.8343964981
 20
102.2724413318
 10
620.7635464813
 20
102.4645144693
 10
620.7195108271
 20
102.6644616633
 10
620.7031098363
 20
102.8685141345
 10
620.7146490284
 20
103.0729031039
 10
620.7539134501
 20
103.2738597923
 10
620.8201716794
 20
103.4675481209
 10
620.9121894514
 20
103.6504348592
 10
641.5708093362
 20
134.1896599274
 10
659.6478009256
 20
103.6504348592
 10
657.0661726309
 20
102.1222958623
 10
640.2799951887
 20
130.4808455402
  0
HATCH
  5
551
100
AcDbEntity
  8
ALL_DETAIL_ITEM
100
AcDbHatch
 62
4
  6
CONTINUOUS
 10
0.0
 20
0.0
 30
0.0
210
0.0
220
0.0
230
1.0
  2
SOLID
 70
1
 71
1
 91
1
 92
1
 93
28
 72
1
 10
640.2799951887
 20
130.4808455402
 11
623.4938177454
 21
102.1222958623
 72
1
 10
623.4938177454
 20
102.1222958623
 11
623.3777545486
 21
101.9536429953
 72
1
 10
623.3777545486
 20
101.9536429953
 11
623.2398079643
 21
101.802387082
 72
1
 10
623.2398079643
 20
101.802387082
 11
623.0825476763
 21
101.6712874071
 72
1
 10
623.0825476763
 20
101.6712874071
 11
622.9089031464
 21
101.5628340571
 72
1
 10
622.9089031464
 20
101.5628340571
 11
622.7221090435
 21
101.4790460206
 72
1
 10
622.7221090435
 20
101.4790460206
 11
622.5256449883
 21
101.421471189
 72
1
 10
622.5256449883
 20
101.421471189
 11
622.3231707345
 21
101.3911863566
 72
1
 10
622.3231707345
 20
101.3911863566
 11
622.1184579943
 21
101.38876357
 72
1
 10
622.1184579943
 20
101.38876357
 11
621.9153201787
 21
101.4142028292
 72
1
 10
621.9153201787
 20
101.4142028292
 11
621.7175413609
 21
101.4671003366
 72
1
 10
621.7175413609
 20
101.4671003366
 11
621.5288057861
 21
101.5464129479
 72
1
 10
621.5288057861
 20
101.5464129479
 11
621.3526292409
 21
101.6506937211
 72
1
 10
621.3526292409
 20
101.6506937211
 11
621.1922935609
 21
101.7780246167
 72
1
 10
621.1922935609
 20
101.7780246167
 11
621.0507854967
 21
101.9259491985
 72
1
 10
621.0507854967
 20
101.9259491985
 11
620.9307410756
 21
102.091809131
 72
1
 10
620.9307410756
 20
102.091809131
 11
620.8343964981
 21
102.2724413318
 72
1
 10
620.8343964981
 20
102.2724413318
 11
620.7635464813
 21
102.4645144693
 72
1
 10
620.7635464813
 20
102.4645144693
 11
620.7195108271
 21
102.6644616633
 72
1
 10
620.7195108271
 20
102.6644616633
 11
620.7031098363
 21
102.8685141345
 72
1
 10
620.7031098363
 20
102.8685141345
 11
620.7146490284
 21
103.0729031039
 72
1
 10
620.7146490284
 20
103.0729031039
 11
620.7539134501
 21
103.2738597923
 72
1
 10
620.7539134501
 20
103.2738597923
 11
620.8201716794
 21
103.4675481209
 72
1
 10
620.8201716794
 20
103.4675481209
 11
620.9121894514
 21
103.6504348592
 72
1
 10
620.9121894514
 20
103.6504348592
 11
641.5708093362
 21
134.1896599274
 72
1
 10
641.5708093362
 20
134.1896599274
 11
659.6478009256
 21
103.6504348592
 72
1
 10
659.6478009256
 20
103.6504348592
 11
657.0661726309
 21
102.1222958623
 72
1
 10
657.0661726309
 20
102.1222958623
 11
640.2799951887
 21
130.4808455402
 97
1
330
550
 75
0
 76
1
 98
1
 10
0.0
 20
0.0
  0
LWPOLYLINE
  5
552
100
AcDbEntity
  8
ALL_DETAIL_ITEM
100
AcDbPolyline
 62
4
  6
CONTINUOUS
 90
41
 70
0
 10
776.1044935266
 20
103.2887538275
 10
776.0916791505
 20
103.0929633383
 10
776.0534186161
 20
102.9005204756
 10
775.9903665719
 20
102.7147179902
 10
775.9036018556
 20
102.538735014
 10
775.7946090358
 20
102.3755826646
 10
775.6652530097
 20
102.2280525239
 10
775.5177470949
 20
102.0986688735
 10
775.3546151584
 20
101.9896455036
 10
775.1786484329
 20
101.9028478342
 10
774.9928577578
 20
101.8397609976
 10
774.8004220632
 20
101.8014644269
 10
774.6046339767
 20
101.7886133867
 10
744.5082940628
 20
101.7857954595
 10
744.3514912872
 20
101.7939989137
 10
744.1964051414
 20
101.8185487498
 10
744.0447349839
 20
101.8591759625
 10
743.8981427427
 20
101.9154353787
 10
743.7582347043
 20
101.9867105348
 10
743.6265439131
 20
102.0722204325
 10
743.5045133728
 20
102.1710280958
 10
743.3934802348
 20
102.2820508382
 10
743.2946611462
 20
102.4040721266
 10
743.2091389186
 20
102.5357549109
 10
743.1378506632
 20
102.6756562752
 10
743.0815775218
 20
102.8222432482
 10
743.0409361083
 20
102.9739096011
 10
743.0163717516
 20
103.1289934476
 10
743.0081536159
 20
103.2857954544
 10
774.8001435755
 20
104.775799001
 10
774.9925864382
 20
104.7375384666
 10
775.1783889237
 20
104.6744864224
 10
775.3543718999
 20
104.5877217061
 10
775.5175242493
 20
104.4787288863
 10
775.66505439
 20
104.3493728602
 10
775.7944380404
 20
104.2018669454
 10
775.9034614103
 20
104.0387350089
 10
775.9902590796
 20
103.8627682834
 10
776.0533459163
 20
103.6769776083
 10
776.0916424869
 20
103.4845419137
 10
776.1044935266
 20
103.2887538275
  0
HATCH
  5
553
100
AcDbEntity
  8
ALL_DETAIL_ITEM
100
AcDbHatch
 62
4
  6
CONTINUOUS
 10
0.0
 20
0.0
 30
0.0
210
0.0
220
0.0
230
1.0
  2
SOLID
 70
1
 71
1
 91
1
 92
1
 93
40
 72
1
 10
776.1044935266
 20
103.2887538275
 11
776.0916791505
 21
103.0929633383
 72
1
 10
776.0916791505
 20
103.0929633383
 11
776.0534186161
 21
102.9005204756
 72
1
 10
776.0534186161
 20
102.9005204756
 11
775.9903665719
 21
102.7147179902
 72
1
 10
775.9903665719
 20
102.7147179902
 11
775.9036018556
 21
102.538735014
 72
1
 10
775.9036018556
 20
102.538735014
 11
775.7946090358
 21
102.3755826646
 72
1
 10
775.7946090358
 20
102.3755826646
 11
775.6652530097
 21
102.2280525239
 72
1
 10
775.6652530097
 20
102.2280525239
 11
775.5177470949
 21
102.0986688735
 72
1
 10
775.5177470949
 20
102.0986688735
 11
775.3546151584
 21
101.9896455036
 72
1
 10
775.3546151584
 20
101.9896455036
 11
775.1786484329
 21
101.9028478342
 72
1
 10
775.1786484329
 20
101.9028478342
 11
774.9928577578
 21
101.8397609976
 72
1
 10
774.9928577578
 20
101.8397609976
 11
774.8004220632
 21
101.8014644269
 72
1
 10
774.8004220632
 20
101.8014644269
 11
774.6046339767
 21
101.7886133867
 72
1
 10
774.6046339767
 20
101.7886133867
 11
744.5082940628
 21
101.7857954595
 72
1
 10
744.5082940628
 20
101.7857954595
 11
744.3514912872
 21
101.7939989137
 72
1
 10
744.3514912872
 20
101.7939989137
 11
744.1964051414
 21
101.8185487498
 72
1
 10
744.1964051414
 20
101.8185487498
 11
744.0447349839
 21
101.8591759625
 72
1
 10
744.0447349839
 20
101.8591759625
 11
743.8981427427
 21
101.9154353787
 72
1
 10
743.8981427427
 20
101.9154353787
 11
743.7582347043
 21
101.9867105348
 72
1
 10
743.7582347043
 20
101.9867105348
 11
743.6265439131
 21
102.0722204325
 72
1
 10
743.6265439131
 20
102.0722204325
 11
743.5045133728
 21
102.1710280958
 72
1
 10
743.5045133728
 20
102.1710280958
 11
743.3934802348
 21
102.2820508382
 72
1
 10
743.3934802348
 20
102.2820508382
 11
743.2946611462
 21
102.4040721266
 72
1
 10
743.2946611462
 20
102.4040721266
 11
743.2091389186
 21
102.5357549109
 72
1
 10
743.2091389186
 20
102.5357549109
 11
743.1378506632
 21
102.6756562752
 72
1
 10
743.1378506632
 20
102.6756562752
 11
743.0815775218
 21
102.8222432482
 72
1
 10
743.0815775218
 20
102.8222432482
 11
743.0409361083
 21
102.9739096011
 72
1
 10
743.0409361083
 20
102.9739096011
 11
743.0163717516
 21
103.1289934476
 72
1
 10
743.0163717516
 20
103.1289934476
 11
743.0081536159
 21
103.2857954544
 72
1
 10
743.0081536159
 20
103.2857954544
 11
774.8001435755
 21
104.775799001
 72
1
 10
774.8001435755
 20
104.775799001
 11
774.9925864382
 21
104.7375384666
 72
1
 10
774.9925864382
 20
104.7375384666
 11
775.1783889237
 21
104.6744864224
 72
1
 10
775.1783889237
 20
104.6744864224
 11
775.3543718999
 21
104.5877217061
 72
1
 10
775.3543718999
 20
104.5877217061
 11
775.5175242493
 21
104.4787288863
 72
1
 10
775.5175242493
 20
104.4787288863
 11
775.66505439
 21
104.3493728602
 72
1
 10
775.66505439
 20
104.3493728602
 11
775.7944380404
 21
104.2018669454
 72
1
 10
775.7944380404
 20
104.2018669454
 11
775.9034614103
 21
104.0387350089
 72
1
 10
775.9034614103
 20
104.0387350089
 11
775.9902590796
 21
103.8627682834
 72
1
 10
775.9902590796
 20
103.8627682834
 11
776.0533459163
 21
103.6769776083
 72
1
 10
776.0533459163
 20
103.6769776083
 11
776.0916424869
 21
103.4845419137
 72
1
 10
776.0916424869
 20
103.4845419137
 11
776.1044935266
 21
103.2887538275
 97
1
330
552
 75
0
 76
1
 98
1
 10
0.0
 20
0.0
  0
LWPOLYLINE
  5
554
100
AcDbEntity
  8
ALL_DETAIL_ITEM
100
AcDbPolyline
 62
4
  6
CONTINUOUS
 90
44
 70
0
 10
699.197508052
 20
103.4779778992
 10
699.2103407599
 20
103.2822049461
 10
699.197508052
 20
103.0863993221
 10
699.1592294993
 20
102.8939600426
 10
699.0961600586
 20
102.7081634615
 10
699.0093788654
 20
102.532184245
 10
698.90037077
 20
102.3690464662
 10
698.7710009313
 20
102.2215284378
 10
698.6234829028
 20
102.092158599
 10
698.4603407592
 20
101.983153882
 10
698.2843659075
 20
101.8963693105
 10
698.0985693265
 20
101.8332998698
 10
697.9061300469
 20
101.7950213171
 10
697.7103407584
 20
101.7821971936
 10
670.8323405247
 20
101.7821971936
 10
670.6755478296
 20
101.7904057661
 10
670.5204729881
 20
101.8149672081
 10
670.3688150326
 20
101.8556038348
 10
670.2222355594
 20
101.9118704228
 10
670.0823405239
 20
101.983153882
 10
669.9506626453
 20
102.0686631179
 10
669.8286446141
 20
102.1674713713
 10
669.7176232853
 20
102.2784927001
 10
669.6188150319
 20
102.4005107313
 10
669.5333024177
 20
102.532184245
 10
669.4620223368
 20
102.6720836454
 10
669.4057557488
 20
102.8186631186
 10
669.3651191221
 20
102.9703210741
 10
669.3405576801
 20
103.1253959156
 10
669.3323405232
 20
103.2822049461
 10
672.3323405262
 20
133.1289841446
 10
672.3323405262
 20
104.7821790488
 10
697.7103407584
 20
104.7821790488
 10
697.9061300469
 20
104.7693559042
 10
698.0985693265
 20
104.7310773515
 10
698.2843659075
 20
104.6680079108
 10
698.4603407592
 20
104.5812267176
 10
698.6234829028
 20
104.4722186223
 10
698.7710009313
 20
104.3428487835
 10
698.90037077
 20
104.1953307551
 10
699.0093788654
 20
104.0321886114
 10
699.0961600586
 20
103.8562137598
 10
699.1592294993
 20
103.6704171787
 10
699.197508052
 20
103.4779778992
  0
HATCH
  5
555
100
AcDbEntity
  8
ALL_DETAIL_ITEM
100
AcDbHatch
 62
4
  6
CONTINUOUS
 10
0.0
 20
0.0
 30
0.0
210
0.0
220
0.0
230
1.0
  2
SOLID
 70
1
 71
1
 91
1
 92
1
 93
43
 72
1
 10
699.197508052
 20
103.4779778992
 11
699.2103407599
 21
103.2822049461
 72
1
 10
699.2103407599
 20
103.2822049461
 11
699.197508052
 21
103.0863993221
 72
1
 10
699.197508052
 20
103.0863993221
 11
699.1592294993
 21
102.8939600426
 72
1
 10
699.1592294993
 20
102.8939600426
 11
699.0961600586
 21
102.7081634615
 72
1
 10
699.0961600586
 20
102.7081634615
 11
699.0093788654
 21
102.532184245
 72
1
 10
699.0093788654
 20
102.532184245
 11
698.90037077
 21
102.3690464662
 72
1
 10
698.90037077
 20
102.3690464662
 11
698.7710009313
 21
102.2215284378
 72
1
 10
698.7710009313
 20
102.2215284378
 11
698.6234829028
 21
102.092158599
 72
1
 10
698.6234829028
 20
102.092158599
 11
698.4603407592
 21
101.983153882
 72
1
 10
698.4603407592
 20
101.983153882
 11
698.2843659075
 21
101.8963693105
 72
1
 10
698.2843659075
 20
101.8963693105
 11
698.0985693265
 21
101.8332998698
 72
1
 10
698.0985693265
 20
101.8332998698
 11
697.9061300469
 21
101.7950213171
 72
1
 10
697.9061300469
 20
101.7950213171
 11
697.7103407584
 21
101.7821971936
 72
1
 10
697.7103407584
 20
101.7821971936
 11
670.8323405247
 21
101.7821971936
 72
1
 10
670.8323405247
 20
101.7821971936
 11
670.6755478296
 21
101.7904057661
 72
1
 10
670.6755478296
 20
101.7904057661
 11
670.5204729881
 21
101.8149672081
 72
1
 10
670.5204729881
 20
101.8149672081
 11
670.3688150326
 21
101.8556038348
 72
1
 10
670.3688150326
 20
101.8556038348
 11
670.2222355594
 21
101.9118704228
 72
1
 10
670.2222355594
 20
101.9118704228
 11
670.0823405239
 21
101.983153882
 72
1
 10
670.0823405239
 20
101.983153882
 11
669.9506626453
 21
102.0686631179
 72
1
 10
669.9506626453
 20
102.0686631179
 11
669.8286446141
 21
102.1674713713
 72
1
 10
669.8286446141
 20
102.1674713713
 11
669.7176232853
 21
102.2784927001
 72
1
 10
669.7176232853
 20
102.2784927001
 11
669.6188150319
 21
102.4005107313
 72
1
 10
669.6188150319
 20
102.4005107313
 11
669.5333024177
 21
102.532184245
 72
1
 10
669.5333024177
 20
102.532184245
 11
669.4620223368
 21
102.6720836454
 72
1
 10
669.4620223368
 20
102.6720836454
 11
669.4057557488
 21
102.8186631186
 72
1
 10
669.4057557488
 20
102.8186631186
 11
669.3651191221
 21
102.9703210741
 72
1
 10
669.3651191221
 20
102.9703210741
 11
669.3405576801
 21
103.1253959156
 72
1
 10
669.3405576801
 20
103.1253959156
 11
669.3323405232
 21
103.2822049461
 72
1
 10
669.3323405232
 20
103.2822049461
 11
672.3323405262
 21
133.1289841446
 72
1
 10
672.3323405262
 20
133.1289841446
 11
672.3323405262
 21
104.7821790488
 72
1
 10
672.3323405262
 20
104.7821790488
 11
697.7103407584
 21
104.7821790488
 72
1
 10
697.7103407584
 20
104.7821790488
 11
697.9061300469
 21
104.7693559042
 72
1
 10
697.9061300469
 20
104.7693559042
 11
698.0985693265
 21
104.7310773515
 72
1
 10
698.0985693265
 20
104.7310773515
 11
698.2843659075
 21
104.6680079108
 72
1
 10
698.2843659075
 20
104.6680079108
 11
698.4603407592
 21
104.5812267176
 72
1
 10
698.4603407592
 20
104.5812267176
 11
698.6234829028
 21
104.4722186223
 72
1
 10
698.6234829028
 20
104.4722186223
 11
698.7710009313
 21
104.3428487835
 72
1
 10
698.7710009313
 20
104.3428487835
 11
698.90037077
 21
104.1953307551
 72
1
 10
698.90037077
 20
104.1953307551
 11
699.0093788654
 21
104.0321886114
 72
1
 10
699.0093788654
 20
104.0321886114
 11
699.0961600586
 21
103.8562137598
 72
1
 10
699.0961600586
 20
103.8562137598
 11
699.1592294993
 21
103.6704171787
 72
1
 10
699.1592294993
 20
103.6704171787
 11
699.197508052
 21
103.4779778992
 97
1
330
554
 75
0
 76
1
 98
1
 10
0.0
 20
0.0
  0
LWPOLYLINE
  5
556
100
AcDbEntity
  8
ALL_DETAIL_ITEM
100
AcDbPolyline
 62
4
  6
CONTINUOUS
 90
25
 70
0
 10
659.7255938785
 20
102.2724413318
 10
659.629249301
 20
102.091809131
 10
659.5092048799
 20
101.9259491985
 10
659.3676968156
 20
101.7780246167
 10
659.2073611357
 20
101.6506937211
 10
659.0311845905
 20
101.5464129479
 10
658.8424490157
 20
101.4671003366
 10
658.6446701979
 20
101.4142028292
 10
658.4415323823
 20
101.38876357
 10
658.2368196421
 20
101.3911863566
 10
658.0343453883
 20
101.421471189
 10
657.8378813331
 20
101.4790460206
 10
657.6510872302
 20
101.5628340571
 10
657.4774427003
 20
101.6712874071
 10
657.3201824123
 20
101.802387082
 10
657.182235828
 20
101.9536429953
 10
657.0661726309
 20
102.1222958623
 10
659.6478009256
 20
103.6504348592
 10
659.7398186972
 20
103.4675481209
 10
659.8060769265
 20
103.2738597923
 10
659.8453413482
 20
103.0729031039
 10
659.8568805403
 20
102.8685141345
 10
659.8404795495
 20
102.6644616633
 10
659.7964438953
 20
102.4645144693
 10
659.7255938785
 20
102.2724413318
  0
HATCH
  5
557
100
AcDbEntity
  8
ALL_DETAIL_ITEM
100
AcDbHatch
 62
4
  6
CONTINUOUS
 10
0.0
 20
0.0
 30
0.0
210
0.0
220
0.0
230
1.0
  2
SOLID
 70
1
 71
1
 91
1
 92
1
 93
24
 72
1
 10
659.7255938785
 20
102.2724413318
 11
659.629249301
 21
102.091809131
 72
1
 10
659.629249301
 20
102.091809131
 11
659.5092048799
 21
101.9259491985
 72
1
 10
659.5092048799
 20
101.9259491985
 11
659.3676968156
 21
101.7780246167
 72
1
 10
659.3676968156
 20
101.7780246167
 11
659.2073611357
 21
101.6506937211
 72
1
 10
659.2073611357
 20
101.6506937211
 11
659.0311845905
 21
101.5464129479
 72
1
 10
659.0311845905
 20
101.5464129479
 11
658.8424490157
 21
101.4671003366
 72
1
 10
658.8424490157
 20
101.4671003366
 11
658.6446701979
 21
101.4142028292
 72
1
 10
658.6446701979
 20
101.4142028292
 11
658.4415323823
 21
101.38876357
 72
1
 10
658.4415323823
 20
101.38876357
 11
658.2368196421
 21
101.3911863566
 72
1
 10
658.2368196421
 20
101.3911863566
 11
658.0343453883
 21
101.421471189
 72
1
 10
658.0343453883
 20
101.421471189
 11
657.8378813331
 21
101.4790460206
 72
1
 10
657.8378813331
 20
101.4790460206
 11
657.6510872302
 21
101.5628340571
 72
1
 10
657.6510872302
 20
101.5628340571
 11
657.4774427003
 21
101.6712874071
 72
1
 10
657.4774427003
 20
101.6712874071
 11
657.3201824123
 21
101.802387082
 72
1
 10
657.3201824123
 20
101.802387082
 11
657.182235828
 21
101.9536429953
 72
1
 10
657.182235828
 20
101.9536429953
 11
657.0661726309
 21
102.1222958623
 72
1
 10
657.0661726309
 20
102.1222958623
 11
659.6478009256
 21
103.6504348592
 72
1
 10
659.6478009256
 20
103.6504348592
 11
659.7398186972
 21
103.4675481209
 72
1
 10
659.7398186972
 20
103.4675481209
 11
659.8060769265
 21
103.2738597923
 72
1
 10
659.8060769265
 20
103.2738597923
 11
659.8453413482
 21
103.0729031039
 72
1
 10
659.8453413482
 20
103.0729031039
 11
659.8568805403
 21
102.8685141345
 72
1
 10
659.8568805403
 20
102.8685141345
 11
659.8404795495
 21
102.6644616633
 72
1
 10
659.8404795495
 20
102.6644616633
 11
659.7964438953
 21
102.4645144693
 72
1
 10
659.7964438953
 20
102.4645144693
 11
659.7255938785
 21
102.2724413318
 97
1
330
556
 75
0
 76
1
 98
1
 10
0.0
 20
0.0
  0
LINE
  5
558
100
AcDbEntity
  8
ALL_DETAIL_ITEM
100
AcDbLine
 62
4
  6
CONTINUOUS
 10
867.0443381761
 20
103.1228863019
 11
869.4259812324
 21
105.5045293582
  0
LINE
  5
559
100
AcDbEntity
  8
ALL_DETAIL_ITEM
100
AcDbLine
 62
4
  6
CONTINUOUS
 10
858.6332064147
 20
101.7828223524
 11
861.6332064185
 21
104.7828223562
  0
LINE
  5
55A
100
AcDbEntity
  8
ALL_DETAIL_ITEM
100
AcDbLine
 62
4
  6
CONTINUOUS
 10
867.1679709619
 20
110.3175868996
 11
870.1499968837
 21
113.2996128213
  0
LINE
  5
55B
100
AcDbEntity
  8
ALL_DETAIL_ITEM
100
AcDbLine
 62
4
  6
CONTINUOUS
 10
851.5621386029
 20
101.7828223524
 11
854.5621386066
 21
104.7828223562
  0
LINE
  5
55C
100
AcDbEntity
  8
ALL_DETAIL_ITEM
100
AcDbLine
 62
4
  6
CONTINUOUS
 10
865.4063801646
 20
115.6270639141
 11
867.5927776553
 21
117.8134614049
  0
LINE
  5
55D
100
AcDbEntity
  8
ALL_DETAIL_ITEM
100
AcDbLine
 62
4
  6
CONTINUOUS
 10
844.491070791
 20
101.7828223524
 11
847.4910707948
 21
104.7828223562
  0
LINE
  5
55E
100
AcDbEntity
  8
ALL_DETAIL_ITEM
100
AcDbLine
 62
4
  6
CONTINUOUS
 10
859.198936996
 20
116.4906885574
 11
862.1911196292
 21
119.4828711906
  0
LINE
  5
55F
100
AcDbEntity
  8
ALL_DETAIL_ITEM
100
AcDbLine
 62
4
  6
CONTINUOUS
 10
837.4200029792
 20
101.7828223524
 11
840.4200029829
 21
104.7828223562
  0
LINE
  5
560
100
AcDbEntity
  8
ALL_DETAIL_ITEM
100
AcDbLine
 62
4
  6
CONTINUOUS
 10
852.1275309724
 20
116.4903503457
 11
855.1276744665
 21
119.4904938398
  0
LINE
  5
561
100
AcDbEntity
  8
ALL_DETAIL_ITEM
100
AcDbLine
 62
4
  6
CONTINUOUS
 10
866.8349549124
 20
131.1977742857
 11
868.3353944909
 21
132.6982138642
  0
LINE
  5
562
100
AcDbEntity
  8
ALL_DETAIL_ITEM
100
AcDbLine
 62
4
  6
CONTINUOUS
 10
832.4158501133
 20
103.8497372984
 11
833.2364242313
 21
104.6703114165
  0
LINE
  5
563
100
AcDbEntity
  8
ALL_DETAIL_ITEM
100
AcDbLine
 62
4
  6
CONTINUOUS
 10
845.0561249488
 20
116.4900121339
 11
848.0562684429
 21
119.490155628
  0
LINE
  5
564
100
AcDbEntity
  8
ALL_DETAIL_ITEM
100
AcDbLine
 62
4
  6
CONTINUOUS
 10
859.7638871003
 20
131.1977742855
 11
862.7638871035
 21
134.1977742887
  0
LINE
  5
565
100
AcDbEntity
  8
ALL_DETAIL_ITEM
100
AcDbLine
 62
4
  6
CONTINUOUS
 10
838.1775444514
 20
116.6824994484
 11
840.9848624193
 21
119.4898174163
  0
LINE
  5
566
100
AcDbEntity
  8
ALL_DETAIL_ITEM
100
AcDbLine
 62
4
  6
CONTINUOUS
 10
852.6928192883
 20
131.1977742853
 11
855.6928192917
 21
134.1977742887
  0
LINE
  5
567
100
AcDbEntity
  8
ALL_DETAIL_ITEM
100
AcDbLine
 62
4
  6
CONTINUOUS
 10
816.4188842623
 20
101.9949070711
 11
822.6315225285
 21
108.2075453373
  0
LINE
  5
568
100
AcDbEntity
  8
ALL_DETAIL_ITEM
100
AcDbLine
 62
4
  6
CONTINUOUS
 10
833.4801315481
 20
119.056154357
 11
835.6025633429
 21
121.1785861518
  0
LINE
  5
569
100
AcDbEntity
  8
ALL_DETAIL_ITEM
100
AcDbLine
 62
4
  6
CONTINUOUS
 10
845.6217514762
 20
131.1977742851
 11
848.6217514798
 21
134.1977742887
  0
LINE
  5
56A
100
AcDbEntity
  8
ALL_DETAIL_ITEM
100
AcDbLine
 62
4
  6
CONTINUOUS
 10
809.1457159514
 20
101.7928065722
 11
812.1457159552
 21
104.7928065759
  0
LINE
  5
56B
100
AcDbEntity
  8
ALL_DETAIL_ITEM
100
AcDbLine
 62
4
  6
CONTINUOUS
 10
819.6398571067
 20
112.2869477274
 11
822.6399304531
 21
115.2870210738
  0
LINE
  5
56C
100
AcDbEntity
  8
ALL_DETAIL_ITEM
100
AcDbLine
 62
4
  6
CONTINUOUS
 10
831.9116631747
 20
124.5587537954
 11
834.9116631784
 21
127.5587537991
  0
LINE
  5
56D
100
AcDbEntity
  8
ALL_DETAIL_ITEM
100
AcDbLine
 62
4
  6
CONTINUOUS
 10
838.3179525518
 20
130.9650431725
 11
841.5506836679
 21
134.1977742887
  0
LINE
  5
56E
100
AcDbEntity
  8
ALL_DETAIL_ITEM
100
AcDbLine
 62
4
  6
CONTINUOUS
 10
802.0746481396
 20
101.7928065722
 11
805.0746481433
 21
104.7928065759
  0
LINE
  5
56F
100
AcDbEntity
  8
ALL_DETAIL_ITEM
100
AcDbLine
 62
4
  6
CONTINUOUS
 10
819.6400299761
 20
119.3581884087
 11
822.6401033221
 21
122.3582617547
  0
LINE
  5
570
100
AcDbEntity
  8
ALL_DETAIL_ITEM
100
AcDbLine
 62
4
  6
CONTINUOUS
 10
795.0035803277
 20
101.7928065722
 11
798.0035803315
 21
104.7928065759
  0
LINE
  5
571
100
AcDbEntity
  8
ALL_DETAIL_ITEM
100
AcDbLine
 62
4
  6
CONTINUOUS
 10
819.6402028456
 20
126.42942909
 11
822.6402761911
 21
129.4295024355
  0
LINE
  5
572
100
AcDbEntity
  8
ALL_DETAIL_ITEM
100
AcDbLine
 62
4
  6
CONTINUOUS
 10
788.8034536316
 20
102.6637476879
 11
791.1608709356
 21
105.0211649919
  0
LINE
  5
573
100
AcDbEntity
  8
ALL_DETAIL_ITEM
100
AcDbLine
 62
4
  6
CONTINUOUS
 10
819.6949658226
 20
133.5552598789
 11
820.7360584053
 21
134.5963524616
  0
LINE
  5
574
100
AcDbEntity
  8
ALL_DETAIL_ITEM
100
AcDbLine
 62
4
  6
CONTINUOUS
 10
785.1913676906
 20
106.1227295588
 11
787.7377449898
 21
108.669106858
  0
LINE
  5
575
100
AcDbEntity
  8
ALL_DETAIL_ITEM
100
AcDbLine
 62
4
  6
CONTINUOUS
 10
773.7861070677
 20
101.7885367478
 11
775.948417122
 21
103.9508468021
  0
LINE
  5
576
100
AcDbEntity
  8
ALL_DETAIL_ITEM
100
AcDbLine
 62
4
  6
CONTINUOUS
 10
784.7376454642
 20
112.7400751442
 11
787.7375721299
 21
115.7400018099
  0
LINE
  5
577
100
AcDbEntity
  8
ALL_DETAIL_ITEM
100
AcDbLine
 62
4
  6
CONTINUOUS
 10
766.7143771282
 20
101.7878746201
 11
769.7146580618
 21
104.7881555537
  0
LINE
  5
578
100
AcDbEntity
  8
ALL_DETAIL_ITEM
100
AcDbLine
 62
4
  6
CONTINUOUS
 10
784.7374726045
 20
119.8109700965
 11
787.7373992699
 21
122.8108967618
  0
LINE
  5
579
100
AcDbEntity
  8
ALL_DETAIL_ITEM
100
AcDbLine
 62
4
  6
CONTINUOUS
 10
759.6426471886
 20
101.7872124924
 11
762.642928122
 21
104.7874934258
  0
LINE
  5
57A
100
AcDbEntity
  8
ALL_DETAIL_ITEM
100
AcDbLine
 62
4
  6
CONTINUOUS
 10
784.7372997449
 20
126.8818650487
 11
787.73722641
 21
129.8817917138
  0
LINE
  5
57B
100
AcDbEntity
  8
ALL_DETAIL_ITEM
100
AcDbLine
 62
4
  6
CONTINUOUS
 10
752.5709172491
 20
101.7865503647
 11
755.5711981823
 21
104.786831298
  0
LINE
  5
57C
100
AcDbEntity
  8
ALL_DETAIL_ITEM
100
AcDbLine
 62
4
  6
CONTINUOUS
 10
767.2751827968
 20
116.4908159124
 11
770.2751827998
 21
119.4908159154
  0
LINE
  5
57D
100
AcDbEntity
  8
ALL_DETAIL_ITEM
100
AcDbLine
 62
4
  6
CONTINUOUS
 10
745.4991873095
 20
101.7858882371
 11
748.4994682426
 21
104.7861691701
  0
LINE
  5
57E
100
AcDbEntity
  8
ALL_DETAIL_ITEM
100
AcDbLine
 62
4
  6
CONTINUOUS
 10
760.2041149849
 20
116.4908159124
 11
763.2041149879
 21
119.4908159154
  0
LINE
  5
57F
100
AcDbEntity
  8
ALL_DETAIL_ITEM
100
AcDbLine
 62
4
  6
CONTINUOUS
 10
774.9538381613
 20
131.2405390889
 11
776.0632610218
 21
132.3499619493
  0
LINE
  5
580
100
AcDbEntity
  8
ALL_DETAIL_ITEM
100
AcDbLine
 62
4
  6
CONTINUOUS
 10
743.0081536159
 20
106.3659223553
 11
746.0081536159
 21
109.3659223553
  0
LINE
  5
581
100
AcDbEntity
  8
ALL_DETAIL_ITEM
100
AcDbLine
 62
4
  6
CONTINUOUS
 10
753.133047173
 20
116.4908159124
 11
756.133047176
 21
119.4908159154
  0
LINE
  5
582
100
AcDbEntity
  8
ALL_DETAIL_ITEM
100
AcDbLine
 62
4
  6
CONTINUOUS
 10
767.8392457604
 20
131.1970144998
 11
770.8391481485
 21
134.1969168878
  0
LINE
  5
583
100
AcDbEntity
  8
ALL_DETAIL_ITEM
100
AcDbLine
 62
4
  6
CONTINUOUS
 10
743.0081536159
 20
113.4369901672
 11
746.0081536159
 21
116.4369901672
  0
LINE
  5
584
100
AcDbEntity
  8
ALL_DETAIL_ITEM
100
AcDbLine
 62
4
  6
CONTINUOUS
 10
746.0619793612
 20
116.4908159124
 11
749.0619793642
 21
119.4908159154
  0
LINE
  5
585
100
AcDbEntity
  8
ALL_DETAIL_ITEM
100
AcDbLine
 62
4
  6
CONTINUOUS
 10
760.768408033
 20
131.1972445843
 11
763.7683104211
 21
134.1971469723
  0
LINE
  5
586
100
AcDbEntity
  8
ALL_DETAIL_ITEM
100
AcDbLine
 62
4
  6
CONTINUOUS
 10
743.0081536159
 20
120.508057979
 11
746.0081536159
 21
123.508057979
  0
LINE
  5
587
100
AcDbEntity
  8
ALL_DETAIL_ITEM
100
AcDbLine
 62
4
  6
CONTINUOUS
 10
753.6975703056
 20
131.1974746687
 11
756.6974726937
 21
134.1973770568
  0
LINE
  5
588
100
AcDbEntity
  8
ALL_DETAIL_ITEM
100
AcDbLine
 62
4
  6
CONTINUOUS
 10
743.0081536159
 20
127.5791257909
 11
746.0081536159
 21
130.5791257909
  0
LINE
  5
589
100
AcDbEntity
  8
ALL_DETAIL_ITEM
100
AcDbLine
 62
4
  6
CONTINUOUS
 10
746.6267325782
 20
131.1977047532
 11
749.6266349663
 21
134.1976071413
  0
LINE
  5
58A
100
AcDbEntity
  8
ALL_DETAIL_ITEM
100
AcDbLine
 62
4
  6
CONTINUOUS
 10
712.4155838165
 20
104.0576238034
 11
714.6039718578
 21
106.2460118446
  0
LINE
  5
58B
100
AcDbEntity
  8
ALL_DETAIL_ITEM
100
AcDbLine
 62
4
  6
CONTINUOUS
 10
716.1914749245
 20
107.8335149114
 11
724.8262286695
 21
116.4682686563
  0
LINE
  5
58C
100
AcDbEntity
  8
ALL_DETAIL_ITEM
100
AcDbLine
 62
4
  6
CONTINUOUS
 10
709.7760940072
 20
108.4892018059
 11
711.9644820484
 21
110.6775898471
  0
LINE
  5
58D
100
AcDbEntity
  8
ALL_DETAIL_ITEM
100
AcDbLine
 62
4
  6
CONTINUOUS
 10
726.6061473174
 20
125.3192551161
 11
734.5472267631
 21
133.2603345618
  0
LINE
  5
58E
100
AcDbEntity
  8
ALL_DETAIL_ITEM
100
AcDbLine
 62
4
  6
CONTINUOUS
 10
695.9980129986
 20
101.7821886092
 11
698.659355001
 21
104.4435306115
  0
LINE
  5
58F
100
AcDbEntity
  8
ALL_DETAIL_ITEM
100
AcDbLine
 62
4
  6
CONTINUOUS
 10
707.1366041979
 20
112.9207798085
 11
709.3249922391
 21
115.1091678496
  0
LINE
  5
590
100
AcDbEntity
  8
ALL_DETAIL_ITEM
100
AcDbLine
 62
4
  6
CONTINUOUS
 10
688.9269451867
 20
101.7821886092
 11
691.9269451899
 21
104.7821886123
  0
LINE
  5
591
100
AcDbEntity
  8
ALL_DETAIL_ITEM
100
AcDbLine
 62
4
  6
CONTINUOUS
 10
704.4971143887
 20
117.3523578111
 11
706.6855024297
 21
119.5407458521
  0
LINE
  5
592
100
AcDbEntity
  8
ALL_DETAIL_ITEM
100
AcDbLine
 62
4
  6
CONTINUOUS
 10
681.8558773749
 20
101.7821886092
 11
684.8558773782
 21
104.7821886125
  0
LINE
  5
593
100
AcDbEntity
  8
ALL_DETAIL_ITEM
100
AcDbLine
 62
4
  6
CONTINUOUS
 10
701.8576245794
 20
121.7839358137
 11
704.0460126203
 21
123.9723238547
  0
LINE
  5
594
100
AcDbEntity
  8
ALL_DETAIL_ITEM
100
AcDbLine
 62
4
  6
CONTINUOUS
 10
674.784809563
 20
101.7821886092
 11
677.7848095666
 21
104.7821886128
  0
LINE
  5
595
100
AcDbEntity
  8
ALL_DETAIL_ITEM
100
AcDbLine
 62
4
  6
CONTINUOUS
 10
699.2181347701
 20
126.2155138163
 11
701.406522811
 21
128.4039018572
  0
LINE
  5
596
100
AcDbEntity
  8
ALL_DETAIL_ITEM
100
AcDbLine
 62
4
  6
CONTINUOUS
 10
669.3323405232
 20
103.4007873812
 11
672.3323405262
 21
106.4007873842
  0
LINE
  5
597
100
AcDbEntity
  8
ALL_DETAIL_ITEM
100
AcDbLine
 62
4
  6
CONTINUOUS
 10
696.5786449608
 20
130.6470918188
 11
698.7670330016
 21
132.8354798597
  0
LINE
  5
598
100
AcDbEntity
  8
ALL_DETAIL_ITEM
100
AcDbLine
 62
4
  6
CONTINUOUS
 10
669.3323405232
 20
110.4718551931
 11
672.3323405262
 21
113.4718551961
  0
LINE
  5
599
100
AcDbEntity
  8
ALL_DETAIL_ITEM
100
AcDbLine
 62
4
  6
CONTINUOUS
 10
655.8932514629
 20
104.1038339447
 11
658.0831588228
 21
106.2937413046
  0
LINE
  5
59A
100
AcDbEntity
  8
ALL_DETAIL_ITEM
100
AcDbLine
 62
4
  6
CONTINUOUS
 10
669.3323405232
 20
117.5429230049
 11
672.3323405262
 21
120.5429230079
  0
LINE
  5
59B
100
AcDbEntity
  8
ALL_DETAIL_ITEM
100
AcDbLine
 62
4
  6
CONTINUOUS
 10
653.2640137972
 20
108.5456640908
 11
655.4539211571
 21
110.7355714507
  0
LINE
  5
59C
100
AcDbEntity
  8
ALL_DETAIL_ITEM
100
AcDbLine
 62
4
  6
CONTINUOUS
 10
669.3323405232
 20
124.6139908168
 11
672.3323405262
 21
127.6139908198
  0
LINE
  5
59D
100
AcDbEntity
  8
ALL_DETAIL_ITEM
100
AcDbLine
 62
4
  6
CONTINUOUS
 10
650.6347761314
 20
112.9874942369
 11
652.8246834914
 21
115.1774015969
  0
LINE
  5
59E
100
AcDbEntity
  8
ALL_DETAIL_ITEM
100
AcDbLine
 62
4
  6
CONTINUOUS
 10
669.3323405232
 20
131.6850586287
 11
671.8640739524
 21
134.2167920579
  0
LINE
  5
59F
100
AcDbEntity
  8
ALL_DETAIL_ITEM
100
AcDbLine
 62
4
  6
CONTINUOUS
 10
648.0055384656
 20
117.429324383
 11
650.1954458257
 21
119.6192317431
  0
LINE
  5
5A0
100
AcDbEntity
  8
ALL_DETAIL_ITEM
100
AcDbLine
 62
4
  6
CONTINUOUS
 10
645.3763007998
 20
121.871154529
 11
647.56620816
 21
124.0610618893
  0
LINE
  5
5A1
100
AcDbEntity
  8
ALL_DETAIL_ITEM
100
AcDbLine
 62
4
  6
CONTINUOUS
 10
622.1127631489
 20
105.67868469
 11
630.6557663951
 21
114.2216879362
  0
LINE
  5
5A2
100
AcDbEntity
  8
ALL_DETAIL_ITEM
100
AcDbLine
 62
4
  6
CONTINUOUS
 10
642.747063134
 20
126.3129846751
 11
644.9369704943
 21
128.5028920354
  0
LINE
  5
5A3
100
AcDbEntity
  8
ALL_DETAIL_ITEM
100
AcDbLine
 62
4
  6
CONTINUOUS
 10
632.3696289531
 20
123.0066183061
 11
642.3077328287
 21
132.9447221816
  0
ENDBLK
  5
5A4
100
AcDbEntity
  8
0
  6
BYBLOCK
 62
0
100
AcDbBlockEnd
  0
BLOCK
  5
5A5
100
AcDbEntity
  8
0
100
AcDbBlockBegin
  2
_FILLED
 70
64
 10
0.0
 20
0.0
  3
_FILLED
  1

  0
SOLID
  5
5A6
100
AcDbEntity
  8
0
  6
BYBLOCK
 62
0
100
AcDbTrace
 10
0.0
 20
0.0
 11
-1.0
 21
0.2142857143
 12
-1.0
 22
-0.2142857143
 13
-1.0
 23
-0.2142857143
  0
ENDBLK
  5
5A7
100
AcDbEntity
  8
0
  6
BYBLOCK
 62
0
100
AcDbBlockEnd
  0
BLOCK
  5
5A8
100
AcDbEntity
  8
0
100
AcDbBlockBegin
  2
_DOTBLANK
 70
64
 10
0.0
 20
0.0
  3
_DOTBLANK
  1

  0
CIRCLE
  5
5A9
100
AcDbEntity
  8
0
  6
BYBLOCK
 62
0
100
AcDbCircle
 10
0.0
 20
0.0
 40
0.2142857143
  0
LINE
  5
5AA
100
AcDbEntity
  8
0
  6
BYBLOCK
 62
0
100
AcDbLine
 10
-1.0
 20
0.0
 11
0.0
 21
0.0
  0
ENDBLK
  5
5AB
100
AcDbEntity
  8
0
  6
BYBLOCK
 62
0
100
AcDbBlockEnd
  0
BLOCK
  5
5AC
100
AcDbEntity
  8
ALL_DIM
100
AcDbBlockBegin
 62
2
  6
CONTINUOUS
  2
*D0
 70
65
 10
0.0
 20
0.0
  3
*D0
  1

  0
MTEXT
  5
5AD
100
AcDbEntity
  8
ALL_DIM
100
AcDbMText
 62
5
  6
CONTINUOUS
  7
STANDARD
 71
1
 72
1
 10
297.7587902575
 20
1204.3273482764
 30
0.0
 11
0.6637148485
 21
-0.747985695
 31
0.0
 44
0.9
  1
R6
 40
17.5
 41
41.25
  0
LINE
  5
5AE
100
AcDbEntity
  8
ALL_DIM
100
AcDbLine
 62
2
  6
CONTINUOUS
 10
255.5255234089
 20
1218.9644766698
 11
299.6487615143
 21
1169.2389793538
  0
INSERT
  5
5AF
100
AcDbEntity
  8
ALL_DIM
100
AcDbBlockReference
 62
2
  6
CONTINUOUS
  2
_FILLED
 10
255.5255234089
 20
1218.9644766698
 41
17.5
 42
17.5
 43
17.5
 50
131.583807455
  0
ENDBLK
  5
5B0
100
AcDbEntity
  8
0
  6
BYBLOCK
 62
0
100
AcDbBlockEnd
  0
BLOCK
  5
5B1
100
AcDbEntity
  8
ALL_DIM
100
AcDbBlockBegin
 62
2
  6
CONTINUOUS
  2
*D1
 70
65
 10
0.0
 20
0.0
  3
*D1
  1

  0
TEXT
  5
5B2
100
AcDbEntity
  8
ALL_DIM
100
AcDbText
 62
5
  6
CONTINUOUS
 10
194.7578125
 20
980.6015625
  7
STANDARD
 40
17.5
  1
422
 50
90.0
 41
0.7857142857
 72
1
 11
194.7578125
 21
1001.2265625
100
AcDbText
  0
TEXT
  5
5B3
100
AcDbEntity
  8
ALL_DIM
100
AcDbText
 62
5
  6
CONTINUOUS
 10
184.2578125
 20
1021.8515625
  7
STANDARD
 40
10.5
  1
+1
 50
90.0
 41
0.6428571429
 72
1
 11
184.2578125
 21
1028.6015625
100
AcDbText
  0
TEXT
  5
5B4
100
AcDbEntity
  8
ALL_DIM
100
AcDbText
 62
5
  6
CONTINUOUS
 10
198.2578125
 20
1021.8515625
  7
STANDARD
 40
10.5
  1
  
 50
90.0
 41
0.7857142857
 72
1
 11
198.2578125
 21
1030.1015625
100
AcDbText
  0
LINE
  5
5B5
100
AcDbEntity
  8
ALL_DIM
100
AcDbLine
 62
2
  6
CONTINUOUS
 10
734.5078125
 20
798.4765625
 11
198.5078125
 21
798.4765625
  0
LINE
  5
5B6
100
AcDbEntity
  8
ALL_DIM
100
AcDbLine
 62
2
  6
CONTINUOUS
 10
759.5078125
 20
1220.4765625
 11
198.5078125
 21
1220.4765625
  0
LINE
  5
5B7
100
AcDbEntity
  8
ALL_DIM
100
AcDbLine
 62
2
  6
CONTINUOUS
 10
203.5078125
 20
798.4765625
 11
203.5078125
 21
1009.4765625
  0
LINE
  5
5B8
100
AcDbEntity
  8
ALL_DIM
100
AcDbLine
 62
2
  6
CONTINUOUS
 10
203.5078125
 20
1220.4765625
 11
203.5078125
 21
1009.4765625
  0
INSERT
  5
5B9
100
AcDbEntity
  8
ALL_DIM
100
AcDbBlockReference
 62
2
  6
CONTINUOUS
  2
_FILLED
 10
203.5078125
 20
798.4765625
 41
17.5
 42
17.5
 43
17.5
 50
270.0
  0
INSERT
  5
5BA
100
AcDbEntity
  8
ALL_DIM
100
AcDbBlockReference
 62
2
  6
CONTINUOUS
  2
_FILLED
 10
203.5078125
 20
1220.4765625
 41
17.5
 42
17.5
 43
17.5
 50
90.0
  0
ENDBLK
  5
5BB
100
AcDbEntity
  8
0
  6
BYBLOCK
 62
0
100
AcDbBlockEnd
  0
BLOCK
  5
5BC
100
AcDbEntity
  8
ALL_DIM
100
AcDbBlockBegin
 62
2
  6
CONTINUOUS
  2
*D2
 70
65
 10
0.0
 20
0.0
  3
*D2
  1

  0
TEXT
  5
5BD
100
AcDbEntity
  8
ALL_DIM
100
AcDbText
 62
5
  6
CONTINUOUS
 10
483.1328125
 20
757.2265625
  7
STANDARD
 40
17.5
  1
512
 41
0.6904761905
 72
1
 11
501.2578125
 21
757.2265625
100
AcDbText
  0
TEXT
  5
5BE
100
AcDbEntity
  8
ALL_DIM
100
AcDbText
 62
5
  6
CONTINUOUS
 10
519.3828125
 20
767.7265625
  7
STANDARD
 40
10.5
  1
+1
 41
0.6428571429
 72
1
 11
526.1328125
 21
767.7265625
100
AcDbText
  0
TEXT
  5
5BF
100
AcDbEntity
  8
ALL_DIM
100
AcDbText
 62
5
  6
CONTINUOUS
 10
519.3828125
 20
753.7265625
  7
STANDARD
 40
10.5
  1
  
 41
0.7857142857
 72
1
 11
527.6328125
 21
753.7265625
100
AcDbText
  0
LINE
  5
5C0
100
AcDbEntity
  8
ALL_DIM
100
AcDbLine
 62
2
  6
CONTINUOUS
 10
253.5078125
 20
837.6445624999
 11
253.5078125
 21
743.4765625
  0
LINE
  5
5C1
100
AcDbEntity
  8
ALL_DIM
100
AcDbLine
 62
2
  6
CONTINUOUS
 10
765.5078125
 20
847.6285625
 11
765.5078125
 21
743.4765625
  0
LINE
  5
5C2
100
AcDbEntity
  8
ALL_DIM
100
AcDbLine
 62
2
  6
CONTINUOUS
 10
253.5078125
 20
748.4765625
 11
509.5078125
 21
748.4765625
  0
LINE
  5
5C3
100
AcDbEntity
  8
ALL_DIM
100
AcDbLine
 62
2
  6
CONTINUOUS
 10
765.5078125
 20
748.4765625
 11
509.5078125
 21
748.4765625
  0
INSERT
  5
5C4
100
AcDbEntity
  8
ALL_DIM
100
AcDbBlockReference
 62
2
  6
CONTINUOUS
  2
_FILLED
 10
253.5078125
 20
748.4765625
 41
17.5
 42
17.5
 43
17.5
 50
180.0
  0
INSERT
  5
5C5
100
AcDbEntity
  8
ALL_DIM
100
AcDbBlockReference
 62
2
  6
CONTINUOUS
  2
_FILLED
 10
765.5078125
 20
748.4765625
 41
17.5
 42
17.5
 43
17.5
  0
ENDBLK
  5
5C6
100
AcDbEntity
  8
0
  6
BYBLOCK
 62
0
100
AcDbBlockEnd
  0
BLOCK
  5
5C7
100
AcDbEntity
  8
ALL_DIM
100
AcDbBlockBegin
 62
2
  6
CONTINUOUS
  2
*D3
 70
65
 10
0.0
 20
0.0
  3
*D3
  1

  0
MTEXT
  5
5C8
100
AcDbEntity
  8
ALL_DIM
100
AcDbMText
 62
5
  6
CONTINUOUS
  7
STANDARD
 71
2
 72
1
 10
290.0038552542
 20
865.0143736203
 30
0.0
 11
0.7224693711
 21
0.6914029273
 31
0.0
 44
0.9
  1
R31
 40
17.5
 41
54.375
  0
LINE
  5
5C9
100
AcDbEntity
  8
ALL_DIM
100
AcDbLine
 62
2
  6
CONTINUOUS
 10
262.1112619972
 20
808.0430717536
 11
318.2230516394
 21
861.7420341859
  0
INSERT
  5
5CA
100
AcDbEntity
  8
ALL_DIM
100
AcDbBlockReference
 62
2
  6
CONTINUOUS
  2
_FILLED
 10
262.1112619972
 20
808.0430717536
 41
17.5
 42
17.5
 43
17.5
 50
223.7412655711
  0
ENDBLK
  5
5CB
100
AcDbEntity
  8
0
  6
BYBLOCK
 62
0
100
AcDbBlockEnd
  0
ENDSEC
  0
SECTION
  2
ENTITIES
  0
DIMENSION
  5
5CC
100
AcDbEntity
  8
ALL_DIM
100
AcDbDimension
 62
2
  6
CONTINUOUS
  2
*D0
 10
259.5078125
 20
1214.4765625
 11
300.3399945937
 21
1188.2350400462
 70
164
 71
1
 42
6.0
  1
R<>
  3
DIMSTYLE_1
100
AcDbRadialDimension
 15
255.5255234089
 25
1218.9644766698
  0
DIMENSION
  5
5CD
100
AcDbEntity
  8
ALL_DIM
100
AcDbDimension
 62
2
  6
CONTINUOUS
  2
*D1
 10
203.5078125
 20
1220.4765625
 11
203.5078125
 21
1007.9765625
 70
160
 71
2
 42
422.0
  3
DIMSTYLE_2
100
AcDbAlignedDimension
 13
734.5078125
 23
798.4765625
 14
759.5078125
 24
1220.4765625
 50
90.0
100
AcDbRotatedDimension
  0
DIMENSION
  5
5CE
100
AcDbEntity
  8
ALL_DIM
100
AcDbDimension
 62
2
  6
CONTINUOUS
  2
*D2
 10
765.5078125
 20
748.4765625
 11
508.0078125
 21
748.4765625
 70
160
 71
2
 42
512.0
  3
DIMSTYLE_2
100
AcDbAlignedDimension
 13
253.5078125
 23
837.6445624999
 14
765.5078125
 24
847.6285625
100
AcDbRotatedDimension
  0
DIMENSION
  5
5CF
100
AcDbEntity
  8
ALL_DIM
100
AcDbDimension
 62
2
  6
CONTINUOUS
  2
*D3
 10
284.5078125
 20
829.4765625
 11
296.0536308681
 21
858.6927666236
 70
164
 71
2
 42
31.0
  1
R<>
  3
DIMSTYLE_3
100
AcDbRadialDimension
 15
262.1112619972
 25
808.0430717536
  0
INSERT
  5
5D0
100
AcDbEntity
  8
ALL_DETAIL_ITEM
100
AcDbBlockReference
 62
2
  6
CONTINUOUS
  2
B2B_NASLOV_RISBE_BL0
 10
715.6440113268
 20
180.0417686006
  0
INSERT
  5
5D1
100
AcDbEntity
  8
ALL_DETAIL_ITEM
100
AcDbBlockReference
 62
2
  6
CONTINUOUS
  2
U-ATROX_BL1
 10
316.72521328
 20
420.0327268
  0
LEADER
  5
5D2
100
AcDbEntity
  8
ALL_DETAIL_ITEM
100
AcDbLeader
 62
2
  6
CONTINUOUS
  3
STANDARD
 71
1
 72
0
 73
2
 75
0
 76
2
 10
764.7376165718
 20
1063.3870409315
 30
0.0
 10
801.5940761064
 20
1110.500078531
 30
0.0
340
5D3
212
-14.3391425655
222
-18.329502382
232
0.0
1001
ACAD
1000
DSTYLE
1002
{
1070
77
1070
0
1070
341
1005
219
1002
}
  0
INSERT
  5
5D3
102
{ACAD_REACTORS
330
5D2
102
}
100
AcDbEntity
  8
ALL_DETAIL_ITEM
100
AcDbBlockReference
 62
2
  6
CONTINUOUS
  2
POZ_FS_B2B_BL2
 10
815.9332186719
 20
1128.829580913
  0
LINE
  5
5D4
100
AcDbEntity
  8
0
100
AcDbLine
 62
7
  6
CONTINUOUS
 10
0.0
 20
0.0
 11
1050.0
 21
0.0
  0
LINE
  5
5D5
100
AcDbEntity
  8
0
100
AcDbLine
 62
7
  6
CONTINUOUS
 10
0.0
 20
0.0
 11
0.0
 21
1485.0
  0
LINE
  5
5D6
100
AcDbEntity
  8
0
100
AcDbLine
 62
7
  6
CONTINUOUS
 10
1050.0
 20
0.0
 11
1050.0
 21
1485.0
  0
LINE
  5
5D7
100
AcDbEntity
  8
0
100
AcDbLine
 62
7
  6
CONTINUOUS
 10
0.0
 20
1485.0
 11
1050.0
 21
1485.0
  0
LINE
  5
5D8
100
AcDbEntity
  8
03___PRT_ALL_CURVES
100
AcDbLine
 62
7
  6
CONTINUOUS
 10
253.5078125
 20
829.4765625
 11
253.5078125
 21
1214.4765625
  0
LINE
  5
5D9
100
AcDbEntity
  8
03___PRT_ALL_CURVES
100
AcDbLine
 62
7
  6
CONTINUOUS
 10
284.5078125
 20
798.4765625
 11
734.5078125
 21
798.4765625
  0
LINE
  5
5DA
100
AcDbEntity
  8
03___PRT_ALL_CURVES
100
AcDbLine
 62
7
  6
CONTINUOUS
 10
259.5078125
 20
1220.4765625
 11
759.5078125
 21
1220.4765625
  0
LINE
  5
5DB
100
AcDbEntity
  8
03___PRT_ALL_CURVES
100
AcDbLine
 62
7
  6
CONTINUOUS
 10
765.5078125
 20
829.4765625
 11
765.5078125
 21
1214.4765625
  0
ARC
  5
5DC
100
AcDbEntity
  8
03___PRT_ALL_CURVES
100
AcDbCircle
 62
7
  6
CONTINUOUS
 10
284.5078125
 20
829.4765625
 40
31.0
100
AcDbArc
 50
180.0
 51
270.0
  0
ARC
  5
5DD
100
AcDbEntity
  8
03___PRT_ALL_CURVES
100
AcDbCircle
 62
7
  6
CONTINUOUS
 10
734.5078125
 20
829.4765625
 40
31.0
100
AcDbArc
 50
270.0
 51
360.0
  0
ARC
  5
5DE
100
AcDbEntity
  8
03___PRT_ALL_CURVES
100
AcDbCircle
 62
7
  6
CONTINUOUS
 10
759.5078125
 20
1214.4765625
 40
6.0
100
AcDbArc
 50
0.0
 51
90.0
  0
ARC
  5
5DF
100
AcDbEntity
  8
03___PRT_ALL_CURVES
100
AcDbCircle
 62
7
  6
CONTINUOUS
 10
259.5078125
 20
1214.4765625
 40
6.0
100
AcDbArc
 50
90.0
 51
180.0
  0
ENDSEC
  0
SECTION
  2
OBJECTS
  0
DICTIONARY
  5
C
100
AcDbDictionary
280
0
281
1
  3
ACAD_GROUP
350
D
  3
ACAD_MLINESTYLE
350
17
  3
ACAD_LAYOUT
350
1A
  3
ACAD_PLOTSETTINGS
350
19
  3
ACAD_PLOTSTYLENAME
350
E
  0
DICTIONARY
  5
D
102
{ACAD_REACTORS
330
C
102
}
100
AcDbDictionary
280
0
281
1
  0
ACDBDICTIONARYWDFLT
  5
E
102
{ACAD_REACTORS
330
C
102
}
100
AcDbDictionary
281
1
  3
Normal
350
F
100
AcDbDictionaryWithDefault
340
F
  0
DICTIONARY
  5
17
102
{ACAD_REACTORS
330
C
102
}
100
AcDbDictionary
280
0
281
1
  3
Standard
350
18
  0
DICTIONARY
  5
19
102
{ACAD_REACTORS
330
C
102
}
100
AcDbDictionary
281
1
  0
DICTIONARY
  5
1A
102
{ACAD_REACTORS
330
C
102
}
100
AcDbDictionary
281
1
  3
Model
350
5E0
  3
Layout1
350
5E1
  0
ACDBPLACEHOLDER
  5
F
102
{ACAD_REACTORS
330
E
102
}
  0
MLINESTYLE
  5
18
102
{ACAD_REACTORS
330
17
102
}
100
AcDbMlineStyle
  2
STANDARD
 70
0
  3

 62
256
 51
90.0
 52
90.0
 71
2
 49
0.5
 62
256
  6
BYLAYER
 49
-0.5
 62
256
  6
BYLAYER
  0
LAYOUT
  5
5E0
102
{ACAD_REACTORS
330
1A
102
}
100
AcDbPlotSettings
  1

  2
none_device
  4

  6

 40
0.0
 41
0.0
 42
0.0
 43
0.0
 44
210.0
 45
297.0
 46
0.0
 47
0.0
 48
0.0
 49
0.0
140
0.0
141
0.0
142
1.0
143
1.0
 70
1024
 72
1
 73
0
 74
0
  7

 75
0
147
1.0
148
0.0
149
0.0
100
AcDbLayout
  1
Model
 70
0
 71
0
 10
0.0
 20
0.0
 11
210.0
 21
297.0
 12
0.0
 22
0.0
 32
0.0
 14
0.0
 24
0.0
 34
0.0
 15
0.0
 25
0.0
 35
0.0
146
0.0
 13
0.0
 23
0.0
 33
0.0
 16
1.0
 26
0.0
 36
0.0
 17
0.0
 27
1.0
 37
0.0
 76
0
330
216
345
0
346
0
  0
LAYOUT
  5
5E1
102
{ACAD_REACTORS
330
1A
102
}
100
AcDbPlotSettings
  1

  2
none_device
  4

  6

 40
0.0
 41
0.0
 42
0.0
 43
0.0
 44
210.0
 45
297.0
 46
0.0
 47
0.0
 48
0.0
 49
0.0
140
0.0
141
0.0
142
1.0
143
1.0
 70
0
 72
1
 73
0
 74
0
  7

 75
0
147
1.0
148
0.0
149
0.0
100
AcDbLayout
  1
Layout1
 70
0
 71
1
 10
0.0
 20
0.0
 11
210.0
 21
297.0
 12
0.0
 22
0.0
 32
0.0
 14
0.0
 24
0.0
 34
0.0
 15
0.0
 25
0.0
 35
0.0
146
0.0
 13
0.0
 23
0.0
 33
0.0
 16
1.0
 26
0.0
 36
0.0
 17
0.0
 27
1.0
 37
0.0
 76
0
330
217
345
0
346
0
  0
ENDSEC
  0
EOF
